Ошибка

(Hip-Hop) The Roots - Undun - 2011, FLAC (tracks+.cue), lossless

Ответить на тему
 
Автор Сообщение

Raxent

Пол: Пол:Муж

Стаж: 12 лет

Сообщений: 219

Рейтинг

post 16-Дек-2011 08:31 0[+]

[Цитировать] 

The Roots / Undun

Жанр: Hip-Hop
Год издания диска: 2011
Издатель (лейбл): Def Jam
Страна: USA
Аудиокодек: FLAC (*.flac)
Тип рипа: tracks+.cue
Битрейт аудио: lossless
Продолжительность: 38:22
Источник (релизер): what.cd (mjfan1000)
Наличие сканов в содержимом раздачи: нет
Треклист:
01. Dun
02. Sleep
03. Make My (feat. Big K.R.I.T. & Dice Raw)
04. One Time (feat. Phonte & Dice Raw)
05. Kool On (feat. Greg Porn & Truck North)
06. The OtherSide (feat. Bilal Oliver & Greg Porn)
07. Stomp (feat. Greg Porn)
08. Lighthouse (feat. Dice Raw)
09. I Remember
10. Tip the Scale (feat. Dice Raw)
11. Redford (For Yia-Yia & Pappou)
12. Possibility (2nd Movement)
13. Will to Power (3rd Movement)
14. Finality (4th Movement)

Код:

Exact Audio Copy V1.0 beta 3 from 29. August 2011

EAC extraction logfile from 2. December 2011, 12:00

The Roots / Undun

Used drive  : PLEXTOR DVDR   PX-716AL   Adapter: 1  ID: 0

Read mode               : Secure
Utilize accurate stream : Yes
Defeat audio cache      : Yes
Make use of C2 pointers : No

Read offset correction                      : 30
Overread into Lead-In and Lead-Out          : No
Fill up missing offset samples with silence : Yes
Delete leading and trailing silent blocks   : No
Null samples used in CRC calculations       : Yes
Used interface                              : Native Win32 interface for Win NT & 2000
Gap handling                                : Appended to previous track

Used output format              : User Defined Encoder
Selected bitrate                : 768 kBit/s
Quality                         : High
Add ID3 tag                     : No
Command line compressor         : C:\Program Files\Exact Audio Copy\FLAC\FLAC.EXE
Additional command line options : -6 -V -T "ARTIST=%artist%" -T "TITLE=%title%" -T "ALBUM=%albumtitle%" -T "DATE=%year%" -T "TRACKNUMBER=%tracknr%" -T "GENRE=%genre%" -T "COMMENT=%comment%" -T "BAND=%albuminterpret%" -T "ALBUMARTIST=%albuminterpret%" -T "COMPOSER=%composer%" %haslyrics%--tag-from-file=LYRICS="%lyricsfile%"%haslyrics% -T "DISCNUMBER=%cdnumber%" -T "TOTALDISCS=%totalcds%" -T "TOTALTRACKS=%numtracks%" %hascover%--picture="%coverfile%"%hascover% %source% -o %dest%

TOC of the extracted CD

     Track |   Start  |  Length  | Start sector | End sector
    ---------------------------------------------------------
        1  |  0:00.00 |  1:16.70 |         0    |     5769
        2  |  1:16.70 |  2:15.47 |      5770    |    15941
        3  |  3:32.42 |  4:27.28 |     15942    |    35994
        4  |  7:59.70 |  3:55.53 |     35995    |    53672
        5  | 11:55.48 |  3:48.53 |     53673    |    70825
        6  | 15:44.26 |  4:03.09 |     70826    |    89059
        7  | 19:47.35 |  2:23.16 |     89060    |    99800
        8  | 22:10.51 |  3:43.60 |     99801    |   116585
        9  | 25:54.36 |  3:14.70 |    116586    |   131205
       10  | 29:09.31 |  4:17.52 |    131206    |   150532
       11  | 33:27.08 |  1:51.72 |    150533    |   158929
       12  | 35:19.05 |  0:55.20 |    158930    |   163074
       13  | 36:14.25 |  1:03.61 |    163075    |   167860
       14  | 37:18.11 |  1:31.27 |    167861    |   174712

Track  1

     Filename H:\FLAC\The Roots - Undun\01.Dun.wav

     Pre-gap length  0:00:02.00

     Peak level 97.8 %
     Extraction speed 3.8 X
     Track quality 100.0 %
     Test CRC 86A16912
     Copy CRC 86A16912
     Track not present in AccurateRip database
     Copy OK

Track  2

     Filename H:\FLAC\The Roots - Undun\02.Sleep.wav

     Peak level 100.0 %
     Extraction speed 4.6 X
     Track quality 100.0 %
     Test CRC 3A4878F7
     Copy CRC 3A4878F7
     Track not present in AccurateRip database
     Copy OK

Track  3

     Filename H:\FLAC\The Roots - Undun\03.Make My (feat. Big K.R.I.T & Dice Raw).wav

     Peak level 98.8 %
     Extraction speed 4.7 X
     Track quality 100.0 %
     Test CRC 450FAC27
     Copy CRC 450FAC27
     Track not present in AccurateRip database
     Copy OK

Track  4

     Filename H:\FLAC\The Roots - Undun\04.One Time (feat. Phonte & Dice Raw).wav

     Peak level 98.8 %
     Extraction speed 4.0 X
     Track quality 99.9 %
     Test CRC F16D5EE6
     Copy CRC F16D5EE6
     Track not present in AccurateRip database
     Copy OK

Track  5

     Filename H:\FLAC\The Roots - Undun\05.Kool On (feat. Greg Porn & Track North).wav

     Peak level 98.8 %
     Extraction speed 4.6 X
     Track quality 99.9 %
     Test CRC C3FF3BC0
     Copy CRC C3FF3BC0
     Track not present in AccurateRip database
     Copy OK

Track  6

     Filename H:\FLAC\The Roots - Undun\06.The OtherSide (feat. Bilal Oliver & Greg Porn).wav

     Peak level 100.0 %
     Extraction speed 4.3 X
     Track quality 100.0 %
     Test CRC A07D5C9B
     Copy CRC A07D5C9B
     Track not present in AccurateRip database
     Copy OK

Track  7

     Filename H:\FLAC\The Roots - Undun\07.Stomp (feat. Greg Porn).wav

     Peak level 98.8 %
     Extraction speed 4.7 X
     Track quality 100.0 %
     Test CRC A543A571
     Copy CRC A543A571
     Track not present in AccurateRip database
     Copy OK

Track  8

     Filename H:\FLAC\The Roots - Undun\08.Lighthouse (feat. Dice Raw).wav

     Peak level 98.8 %
     Extraction speed 4.5 X
     Track quality 100.0 %
     Test CRC 3B42E778
     Copy CRC 3B42E778
     Track not present in AccurateRip database
     Copy OK

Track  9

     Filename H:\FLAC\The Roots - Undun\09.I Remember.wav

     Peak level 98.8 %
     Extraction speed 4.3 X
     Track quality 100.0 %
     Test CRC CF534DDD
     Copy CRC CF534DDD
     Track not present in AccurateRip database
     Copy OK

Track 10

     Filename H:\FLAC\The Roots - Undun\10.Tip The Scale (feat. Dice Raw).wav

     Peak level 99.5 %
     Extraction speed 4.3 X
     Track quality 100.0 %
     Test CRC F83483B0
     Copy CRC F83483B0
     Track not present in AccurateRip database
     Copy OK

Track 11

     Filename H:\FLAC\The Roots - Undun\11.Redford (For Yia-Yia & Pappou).wav

     Peak level 91.8 %
     Extraction speed 4.6 X
     Track quality 100.0 %
     Test CRC 035275DF
     Copy CRC 035275DF
     Track not present in AccurateRip database
     Copy OK

Track 12

     Filename H:\FLAC\The Roots - Undun\12.Possibility (2nd Movement).wav

     Peak level 77.0 %
     Extraction speed 3.9 X
     Track quality 100.0 %
     Test CRC 3C5922F9
     Copy CRC 3C5922F9
     Track not present in AccurateRip database
     Copy OK

Track 13

     Filename H:\FLAC\The Roots - Undun\13.Will To Power (3rd Movement).wav

     Peak level 98.8 %
     Extraction speed 4.4 X
     Track quality 100.0 %
     Test CRC 31684B43
     Copy CRC 31684B43
     Track not present in AccurateRip database
     Copy OK

Track 14

     Filename H:\FLAC\The Roots - Undun\14.Finality (4th Movement).wav

     Peak level 77.3 %
     Extraction speed 4.4 X
     Track quality 100.0 %
     Test CRC A2E9620A
     Copy CRC A2E9620A
     Track not present in AccurateRip database
     Copy OK

None of the tracks are present in the AccurateRip database

No errors occurred

End of status report

---- CUETools DB Plugin V2.1.3

[CTDB TOCID: UxGWykaQFEqtb9uVDWMJrTVAnKk-] found, Submit result: already submitted
[5c7d2a2e] (1/1) Accurately ripped

==== Log checksum C56A7B5291513DE5455B2EC3A0D6DC26721BC1CB937DB6F2BD09AA555E986787 ====

Код:

REM GENRE Hip-Hop/Rap
REM DATE 2011
REM DISCID AB09190E
REM COMMENT "ExactAudioCopy v1.0b3"
CATALOG 0602527869636
PERFORMER "The Roots"
TITLE "Undun"
FILE "The Roots - Undun\01.Dun.wav" WAVE
  TRACK 01 AUDIO
    TITLE "Dun"
    PERFORMER "The Roots"
    ISRC USUM71117817
    FLAGS DCP
    INDEX 01 00:00:00
FILE "The Roots - Undun\02.Sleep.wav" WAVE
  TRACK 02 AUDIO
    TITLE "Sleep"
    PERFORMER "The Roots"
    ISRC USUM71117818
    FLAGS DCP
    INDEX 01 00:00:00
FILE "The Roots - Undun\03.Make My (feat. Big K.R.I.T & Dice Raw).wav" WAVE
  TRACK 03 AUDIO
    TITLE "Make My (feat. Big K.R.I.T & Dice Raw)"
    PERFORMER "The Roots"
    ISRC USUM71116950
    FLAGS DCP
    INDEX 01 00:00:00
FILE "The Roots - Undun\04.One Time (feat. Phonte & Dice Raw).wav" WAVE
  TRACK 04 AUDIO
    TITLE "One Time (feat. Phonte & Dice Raw)"
    PERFORMER "The Roots"
    ISRC USUM71117858
    FLAGS DCP
    INDEX 01 00:00:00
FILE "The Roots - Undun\05.Kool On (feat. Greg Porn & Track North).wav" WAVE
  TRACK 05 AUDIO
    TITLE "Kool On (feat. Greg Porn & Track North)"
    PERFORMER "The Roots"
    ISRC USUM71117819
    FLAGS DCP
    INDEX 01 00:00:00
FILE "The Roots - Undun\06.The OtherSide (feat. Bilal Oliver & Greg Porn).wav" WAVE
  TRACK 06 AUDIO
    TITLE "The OtherSide (feat. Bilal Oliver & Greg Porn)"
    PERFORMER "The Roots"
    ISRC USUM71117860
    FLAGS DCP
    INDEX 01 00:00:00
FILE "The Roots - Undun\07.Stomp (feat. Greg Porn).wav" WAVE
  TRACK 07 AUDIO
    TITLE "Stomp (feat. Greg Porn)"
    PERFORMER "The Roots"
    ISRC USUM71117862
    FLAGS DCP
    INDEX 01 00:00:00
FILE "The Roots - Undun\08.Lighthouse (feat. Dice Raw).wav" WAVE
  TRACK 08 AUDIO
    TITLE "Lighthouse (feat. Dice Raw)"
    PERFORMER "The Roots"
    ISRC USUM71117824
    FLAGS DCP
    INDEX 01 00:00:00
FILE "The Roots - Undun\09.I Remember.wav" WAVE
  TRACK 09 AUDIO
    TITLE "I Remember"
    PERFORMER "The Roots"
    ISRC USUM71117827
    FLAGS DCP
    INDEX 01 00:00:00
FILE "The Roots - Undun\10.Tip The Scale (feat. Dice Raw).wav" WAVE
  TRACK 10 AUDIO
    TITLE "Tip The Scale (feat. Dice Raw)"
    PERFORMER "The Roots"
    ISRC USUM71117864
    FLAGS DCP
    INDEX 01 00:00:00
FILE "The Roots - Undun\11.Redford (For Yia-Yia & Pappou).wav" WAVE
  TRACK 11 AUDIO
    TITLE "Redford (For Yia-Yia & Pappou)"
    PERFORMER "The Roots"
    ISRC US64G0300714
    FLAGS DCP
    INDEX 01 00:00:00
FILE "The Roots - Undun\12.Possibility (2nd Movement).wav" WAVE
  TRACK 12 AUDIO
    TITLE "Possibility (2nd Movement)"
    PERFORMER "The Roots"
    ISRC USUM71117866
    FLAGS DCP
    INDEX 01 00:00:00
FILE "The Roots - Undun\13.Will To Power (3rd Movement).wav" WAVE
  TRACK 13 AUDIO
    TITLE "Will To Power (3rd Movement)"
    PERFORMER "The Roots"
    ISRC USUM71117868
    FLAGS DCP
    INDEX 01 00:00:00
FILE "The Roots - Undun\14.Finality (4th Movement).wav" WAVE
  TRACK 14 AUDIO
    TITLE "Finality (4th Movement)"
    PERFORMER "The Roots"
    ISRC USUM71117867
    FLAGS DCP
    INDEX 01 00:00:00
info [Профиль]  [ЛС] 

post 16-Дек-2011 08:32 (спустя 30 секунд) [-]0[+]

Топик был перенесен из форума Оформление раздач (Музыка и Музыкальное видео) в форум Зарубежный Rap, Hip-Hop, R'n'B (lossless)

saGambit
 
Показать сообщения:    
Ответить на тему

Текущее время: 28-Май 18:01

Часовой пояс: GMT + 4



Вы не можете начинать темы
Вы не можете отвечать на сообщения
Вы не можете редактировать свои сообщения
Вы не можете удалять свои сообщения
Вы не можете голосовать в опросах
Вы не можете прикреплять файлы к сообщениям
Вы не можете скачивать файлы