Ошибка

(Hip-Hop) Yelawolf - Radioactive (Best Buy Deluxe Edition) - 2011, FLAC (tracks+.cue), lossless

Ответить на тему
 
Автор Сообщение

Raxent

Пол: Пол:Муж

Стаж: 12 лет

Сообщений: 219

Рейтинг

post 10-Дек-2011 17:14 0[+]

[Цитировать] 

Yelawolf - Radioactive (Best Buy Deluxe Edition)

Жанр: Hip-Hop • Страна-производитель диска: USA • Год издания диска: 2011 • Издатель (лейбл): Ghet-O-Vision, DGC, Interscope, Shady • Страна: USA
Аудиокодек: FLAC (*.flac) • Тип рипа: tracks+.cue • Битрейт аудио: lossless
Продолжительность: 01:09:31
Источник (релизер): waffles.fm (lnchbox)Наличие сканов в содержимом раздачи: нет

Треклист:

01. Radioactive (Intro)
02. Get Away Feat. Shawty Fatt & Mystikal
03. Let's Roll Feat. Kid Rock
04. Hard White (Up In The Club) Feat. Lil Jon
05. Growin' Up In The Gutter Feat. Rittz
06. Throw It Up Feat. Gangsta Boo & Eminem
07. Good Girl Feat. MDMA/Poo Bear
08. Made In The U.S.A. Feat. Priscilla Renea
09. Animal Feat. Fefe Dobson
10. The Hardest Love Song In The World
11. Write Your Name Feat. Mona Moua
12. Everything I Love The Most
13. Radio
14. Slumerican Shitizen Feat. Killer Mike
15. The Last Song

Bonus tracks:

16. Whip It
17. I See You
18. In This World

Код:

Exact Audio Copy V1.0 beta 2 from 29. April 2011

EAC extraction logfile from 21. November 2011, 11:26

Yelawolf / Radioactive (Best Buy Deluxe Edition)

Used drive  : ATAPI   iHAS224   A   Adapter: 3  ID: 0

Read mode               : Secure
Utilize accurate stream : Yes
Defeat audio cache      : Yes
Make use of C2 pointers : No

Read offset correction                      : 6
Overread into Lead-In and Lead-Out          : No
Fill up missing offset samples with silence : Yes
Delete leading and trailing silent blocks   : No
Null samples used in CRC calculations       : Yes
Used interface                              : Native Win32 interface for Win NT & 2000
Gap handling                                : Appended to previous track

Used output format              : User Defined Encoder
Selected bitrate                : 320 kBit/s
Quality                         : High
Add ID3 tag                     : No
Command line compressor         : C:\Program Files (x86)\Exact Audio Copy\Flac\flac.exe
Additional command line options : -V -8 -T "artist=%albumartist%" -T "title=%title%" -T "album=%albumtitle%" -T "date=%year%" -T "tracknumber=%tracknr%" -T "genre=%genre%" %source%

TOC of the extracted CD

     Track |   Start  |  Length  | Start sector | End sector
    ---------------------------------------------------------
        1  |  0:00.00 |  2:57.18 |         0    |    13292
        2  |  2:57.18 |  3:23.28 |     13293    |    28545
        3  |  6:20.46 |  3:54.40 |     28546    |    46135
        4  | 10:15.11 |  3:23.60 |     46136    |    61420
        5  | 13:38.71 |  3:40.30 |     61421    |    77950
        6  | 17:19.26 |  4:54.30 |     77951    |   100030
        7  | 22:13.56 |  4:24.35 |    100031    |   119865
        8  | 26:38.16 |  3:28.50 |    119866    |   135515
        9  | 30:06.66 |  3:42.23 |    135516    |   152188
       10  | 33:49.14 |  2:59.27 |    152189    |   165640
       11  | 36:48.41 |  3:44.24 |    165641    |   182464
       12  | 40:32.65 |  4:05.33 |    182465    |   200872
       13  | 44:38.23 |  5:32.54 |    200873    |   225826
       14  | 50:11.02 |  3:36.00 |    225827    |   242026
       15  | 53:47.02 |  3:42.20 |    242027    |   258696
       16  | 57:29.22 |  4:04.28 |    258697    |   277024
       17  | 61:33.50 |  3:54.46 |    277025    |   294620
       18  | 65:28.21 |  4:03.46 |    294621    |   312891

Track  1

     Filename F:\FLAC\Yelawolf-Radioactive (Best Buy Deluxe Edition)\01 Radioactive Introduction.wav

     Pre-gap length  0:00:02.00

     Peak level 100.0 %
     Extraction speed 3.4 X
     Track quality 100.0 %
     Test CRC 86C480CA
     Copy CRC 86C480CA
     Track not present in AccurateRip database
     Copy OK

Track  2

     Filename F:\FLAC\Yelawolf-Radioactive (Best Buy Deluxe Edition)\02 Get Away (feat. Shawty Fatt & Mystikal).wav

     Peak level 100.0 %
     Extraction speed 3.8 X
     Track quality 100.0 %
     Test CRC 21801372
     Copy CRC 21801372
     Track not present in AccurateRip database
     Copy OK

Track  3

     Filename F:\FLAC\Yelawolf-Radioactive (Best Buy Deluxe Edition)\03 Let's Roll (feat. Kid Rock).wav

     Peak level 98.8 %
     Extraction speed 4.1 X
     Track quality 100.0 %
     Test CRC D7327C8F
     Copy CRC D7327C8F
     Track not present in AccurateRip database
     Copy OK

Track  4

     Filename F:\FLAC\Yelawolf-Radioactive (Best Buy Deluxe Edition)\04 Hard White (Up in The Club) (feat. Lil Jon).wav

     Peak level 100.0 %
     Extraction speed 4.4 X
     Track quality 100.0 %
     Test CRC BB9410F7
     Copy CRC BB9410F7
     Track not present in AccurateRip database
     Copy OK

Track  5

     Filename F:\FLAC\Yelawolf-Radioactive (Best Buy Deluxe Edition)\05 Growin' Up in The Gutter (feat. Rittz).wav

     Peak level 100.0 %
     Extraction speed 3.6 X
     Track quality 99.9 %
     Test CRC 7C3A719B
     Copy CRC 7C3A719B
     Track not present in AccurateRip database
     Copy OK

Track  6

     Filename F:\FLAC\Yelawolf-Radioactive (Best Buy Deluxe Edition)\06 Throw it Up (feat. Gangsta Boo & Eminem).wav

     Peak level 98.8 %
     Extraction speed 5.1 X
     Track quality 100.0 %
     Test CRC 924B289B
     Copy CRC 924B289B
     Track not present in AccurateRip database
     Copy OK

Track  7

     Filename F:\FLAC\Yelawolf-Radioactive (Best Buy Deluxe Edition)\07 Good Girl (feat. Poo Bear).wav

     Peak level 99.0 %
     Extraction speed 5.4 X
     Track quality 100.0 %
     Test CRC EEC8315F
     Copy CRC EEC8315F
     Track not present in AccurateRip database
     Copy OK

Track  8

     Filename F:\FLAC\Yelawolf-Radioactive (Best Buy Deluxe Edition)\08 Made in The U.S.A. (feat. Priscilla Renea).wav

     Peak level 98.8 %
     Extraction speed 5.4 X
     Track quality 100.0 %
     Test CRC 7FDD9FDF
     Copy CRC 7FDD9FDF
     Track not present in AccurateRip database
     Copy OK

Track  9

     Filename F:\FLAC\Yelawolf-Radioactive (Best Buy Deluxe Edition)\09 Animal (feat. FeFe Dobson).wav

     Peak level 98.8 %
     Extraction speed 5.7 X
     Track quality 100.0 %
     Test CRC 4F396C5D
     Copy CRC 4F396C5D
     Track not present in AccurateRip database
     Copy OK

Track 10

     Filename F:\FLAC\Yelawolf-Radioactive (Best Buy Deluxe Edition)\10 The Hardest Love Song in The World.wav

     Peak level 98.8 %
     Extraction speed 5.7 X
     Track quality 100.0 %
     Test CRC 2D4A4ED3
     Copy CRC 2D4A4ED3
     Track not present in AccurateRip database
     Copy OK

Track 11

     Filename F:\FLAC\Yelawolf-Radioactive (Best Buy Deluxe Edition)\11 Write Your Name (feat. Mona Moua).wav

     Pre-gap length  0:00:00.01

     Peak level 100.0 %
     Extraction speed 6.1 X
     Track quality 100.0 %
     Test CRC 9CD98E3A
     Copy CRC 9CD98E3A
     Track not present in AccurateRip database
     Copy OK

Track 12

     Filename F:\FLAC\Yelawolf-Radioactive (Best Buy Deluxe Edition)\12 Everything I Love The Most.wav

     Peak level 98.8 %
     Extraction speed 6.3 X
     Track quality 100.0 %
     Test CRC 9D8F4FE7
     Copy CRC 9D8F4FE7
     Track not present in AccurateRip database
     Copy OK

Track 13

     Filename F:\FLAC\Yelawolf-Radioactive (Best Buy Deluxe Edition)\13 Radio.wav

     Peak level 98.8 %
     Extraction speed 6.9 X
     Track quality 100.0 %
     Test CRC 25A8C9D4
     Copy CRC 25A8C9D4
     Track not present in AccurateRip database
     Copy OK

Track 14

     Filename F:\FLAC\Yelawolf-Radioactive (Best Buy Deluxe Edition)\14 Slumerican Shitizen (feat. Killer Mike).wav

     Peak level 98.8 %
     Extraction speed 6.7 X
     Track quality 100.0 %
     Test CRC 1F047031
     Copy CRC 1F047031
     Track not present in AccurateRip database
     Copy OK

Track 15

     Filename F:\FLAC\Yelawolf-Radioactive (Best Buy Deluxe Edition)\15 The Last Song.wav

     Peak level 98.8 %
     Extraction speed 6.9 X
     Track quality 100.0 %
     Test CRC FD5385EF
     Copy CRC FD5385EF
     Track not present in AccurateRip database
     Copy OK

Track 16

     Filename F:\FLAC\Yelawolf-Radioactive (Best Buy Deluxe Edition)\16 Whip It.wav

     Pre-gap length  0:00:00.54

     Peak level 100.0 %
     Extraction speed 5.6 X
     Track quality 99.9 %
     Test CRC 1ED9BEFB
     Copy CRC 1ED9BEFB
     Track not present in AccurateRip database
     Copy OK

Track 17

     Filename F:\FLAC\Yelawolf-Radioactive (Best Buy Deluxe Edition)\17 I See You.wav

     Peak level 100.0 %
     Extraction speed 7.3 X
     Track quality 100.0 %
     Test CRC 23419033
     Copy CRC 23419033
     Track not present in AccurateRip database
     Copy OK

Track 18

     Filename F:\FLAC\Yelawolf-Radioactive (Best Buy Deluxe Edition)\18 In This World.wav

     Peak level 98.8 %
     Extraction speed 7.5 X
     Track quality 100.0 %
     Test CRC 9D8AE538
     Copy CRC 9D8AE538
     Track not present in AccurateRip database
     Copy OK

None of the tracks are present in the AccurateRip database

No errors occurred

End of status report

==== Log checksum 228DFC52E42BC1F831021F590CD4300D5E7AE530E51EE0FF1E30A95652499EA1 ====

Код:

REM GENRE Hip-Hop
REM DATE 2011
REM DISCID D4104B12
REM COMMENT "ExactAudioCopy v1.0b2"
FILE "01 Radioactive Introduction.flac" WAVE
  TRACK 01 AUDIO
    FLAGS DCP
    INDEX 01 00:00:00
FILE "02 Get Away (feat. Shawty Fatt & Mystikal).flac" WAVE
  TRACK 02 AUDIO
    FLAGS DCP
    INDEX 01 00:00:00
FILE "03 Let's Roll (feat. Kid Rock).flac" WAVE
  TRACK 03 AUDIO
    FLAGS DCP
    INDEX 01 00:00:00
FILE "04 Hard White (Up in The Club) (feat. Lil Jon).flac" WAVE
  TRACK 04 AUDIO
    FLAGS DCP
    INDEX 01 00:00:00
FILE "05 Growin' Up in The Gutter (feat. Rittz).flac" WAVE
  TRACK 05 AUDIO
    FLAGS DCP
    INDEX 01 00:00:00
FILE "06 Throw it Up (feat. Gangsta Boo & Eminem).flac" WAVE
  TRACK 06 AUDIO
    FLAGS DCP
    INDEX 01 00:00:00
FILE "07 Good Girl (feat. Poo Bear).flac" WAVE
  TRACK 07 AUDIO
    FLAGS DCP
    INDEX 01 00:00:00
FILE "08 Made in The U.S.A. (feat. Priscilla Renea).flac" WAVE
  TRACK 08 AUDIO
    FLAGS DCP
    INDEX 01 00:00:00
FILE "09 Animal (feat. FeFe Dobson).flac" WAVE
  TRACK 09 AUDIO
    FLAGS DCP
    INDEX 01 00:00:00
FILE "10 The Hardest Love Song in The World.flac" WAVE
  TRACK 10 AUDIO
    FLAGS DCP
    INDEX 01 00:00:00
FILE "11 Write Your Name (feat. Mona Moua).flac" WAVE
  TRACK 11 AUDIO
    FLAGS DCP
    INDEX 01 00:00:00
FILE "12 Everything I Love The Most.flac" WAVE
  TRACK 12 AUDIO
    FLAGS DCP
    INDEX 01 00:00:00
FILE "13 Radio.flac" WAVE
  TRACK 13 AUDIO
    FLAGS DCP
    INDEX 01 00:00:00
FILE "14 Slumerican Shitizen (feat. Killer Mike).flac" WAVE
  TRACK 14 AUDIO
    FLAGS DCP
    INDEX 01 00:00:00
FILE "15 The Last Song.flac" WAVE
  TRACK 15 AUDIO
    FLAGS DCP
    INDEX 01 00:00:00
FILE "16 Whip It.flac" WAVE
  TRACK 16 AUDIO
    INDEX 01 00:00:00
FILE "17 I See You.flac" WAVE
  TRACK 17 AUDIO
    INDEX 01 00:00:00
FILE "18 In This World.flac" WAVE
  TRACK 18 AUDIO
    INDEX 01 00:00:00
info [Профиль]  [ЛС] 

post 10-Дек-2011 17:15 (спустя 54 секунды) [-]0[+]

Топик был перенесен из форума Оформление раздач (Музыка и Музыкальное видео) в форум Зарубежный Rap, Hip-Hop, R'n'B (lossless)

saGambit
 
Показать сообщения:    
Ответить на тему

Текущее время: 26-Май 22:09

Часовой пояс: GMT + 4



Вы не можете начинать темы
Вы не можете отвечать на сообщения
Вы не можете редактировать свои сообщения
Вы не можете удалять свои сообщения
Вы не можете голосовать в опросах
Вы не можете прикреплять файлы к сообщениям
Вы не можете скачивать файлы