Ошибка

(Pop \ R&B) Rihanna - Talk That Talk - 2011, FLAC (tracks+.cue)+covers, lossless

Ответить на тему
 
Автор Сообщение

Resistance

Пол: Пол:Муж

Стаж: 12 лет

Сообщений: 3640

Россия
Рейтинг

post 08-Дек-2011 13:51 0[+]

[Цитировать] 

Rihanna - Talk That Talk

Жанр: Pop \ R&B
Происхождение исполнителя: Barbados
Год издания данного носителя: 2011
Страна-производитель носителя: USA
Полиграфия: присутствует
Лейбл: Def Jam Recordings
Каталоговый номер: B0016315-02
Тип релиза: tracks+.cue
Аудио кодек: FLAC
Битрейт аудио: lossless
Продолжительность: 00:49:06
Треклист:
01. You Da One (3:20)
02. Where Have You Been (4:03)
03. We Found Love (feat. Calvin Harris) (3:35)
04. Talk That Talk (feat. Jay-Z) (3:30)
05. Cockiness (Love It) (2:58)
06. Birthday Cake (1:18)
07. We All Want Love (3:57)
08. Drunk On Love (3:32)
09. Roc Me Out (3:29)
10. Watch N' Learn (3:31)
11. Farewell (4:17)
12. Red Lipstick (3:37)
13. Do Ya Thang (3:43)
14. Fool In Love (4:16)

Код:

Exact Audio Copy V1.0 beta 3 from 29. August 2011

EAC extraction logfile from 29. November 2011, 3:23

Rihanna / Talk That Talk

Used drive  : Optiarc DVD RW AD-7710H   Adapter: 0  ID: 0

Read mode               : Secure
Utilize accurate stream : Yes
Defeat audio cache      : Yes
Make use of C2 pointers : No

Read offset correction                      : 48
Overread into Lead-In and Lead-Out          : No
Fill up missing offset samples with silence : Yes
Delete leading and trailing silent blocks   : No
Null samples used in CRC calculations       : Yes
Used interface                              : Native Win32 interface for Win NT & 2000
Gap handling                                : Appended to previous track

Used output format              : User Defined Encoder
Selected bitrate                : 320 kBit/s
Quality                         : High
Add ID3 tag                     : Yes
Command line compressor         : C:\Program Files\Exact Audio Copy\Flac\flac.exe
Additional command line options : -8 -V -T "ARTIST=%artist%" -T "TITLE=%title%" -T "ALBUM=%albumtitle%" -T "DATE=%year%" -T "TRACKNUMBER=%tracknr%" -T "GENRE=%genre%" -T "PERFORMER=%albuminterpret%" -T "COMPOSER=%composer%" %haslyrics%--tag-from-file=LYRICS="%lyricsfile%"%haslyrics% -T "ALBUMARTIST=%albumartist%" -T "DISCNUMBER=%cdnumber%" -T "TOTALDISCS=%totalcds%" -T "TOTALTRACKS=%numtracks%" -T "COMMENT=%comment%" %source% -o %dest%

TOC of the extracted CD

     Track |   Start  |  Length  | Start sector | End sector
    ---------------------------------------------------------
        1  |  0:00.00 |  3:20.01 |         0    |    15000   
        2  |  3:20.01 |  4:02.51 |     15001    |    33201   
        3  |  7:22.52 |  3:35.17 |     33202    |    49343   
        4  | 10:57.69 |  3:29.45 |     49344    |    65063   
        5  | 14:27.39 |  2:58.02 |     65064    |    78415   
        6  | 17:25.41 |  1:18.15 |     78416    |    84280   
        7  | 18:43.56 |  3:57.01 |     84281    |   102056   
        8  | 22:40.57 |  3:32.14 |    102057    |   117970   
        9  | 26:12.71 |  3:29.20 |    117971    |   133665   
       10  | 29:42.16 |  3:31.00 |    133666    |   149490   
       11  | 33:13.16 |  4:16.38 |    149491    |   168728   
       12  | 37:29.54 |  3:37.33 |    168729    |   185036   
       13  | 41:07.12 |  3:43.31 |    185037    |   201792   
       14  | 44:50.43 |  4:15.64 |    201793    |   220981   

Track  1

     Filename F:\Rihanna - Talk That Talk (Deluxe Edition) (FLAC)\01. You Da One.wav

     Pre-gap length  0:00:02.00

     Peak level 99.9 %
     Extraction speed 2.3 X
     Track quality 100.0 %
     Test CRC C7FCBC1E
     Copy CRC C7FCBC1E
     Cannot be verified as accurate (confidence 1)  [EDD502D3], AccurateRip returned [F37ECC08]  (AR v2)
     Copy OK

Track  2

     Filename F:\Rihanna - Talk That Talk (Deluxe Edition) (FLAC)\02. Where Have You Been.wav

     Peak level 99.9 %
     Extraction speed 1.8 X
     Track quality 99.9 %
     Test CRC ED1823DF
     Copy CRC ED1823DF
     Cannot be verified as accurate (confidence 1)  [D92B26DD], AccurateRip returned [E4A52B83]  (AR v2)
     Copy OK

Track  3

     Filename F:\Rihanna - Talk That Talk (Deluxe Edition) (FLAC)\03. We Found Love (feat. Calvin Harris).wav

     Peak level 99.8 %
     Extraction speed 2.8 X
     Track quality 100.0 %
     Test CRC 2E837CB6
     Copy CRC 2E837CB6
     Cannot be verified as accurate (confidence 1)  [08B75CE7], AccurateRip returned [63A02AD4]  (AR v2)
     Copy OK

Track  4

     Filename F:\Rihanna - Talk That Talk (Deluxe Edition) (FLAC)\04. Talk That Talk (feat. Jay-Z).wav

     Peak level 99.8 %
     Extraction speed 3.0 X
     Track quality 100.0 %
     Test CRC 6D563856
     Copy CRC 6D563856
     Cannot be verified as accurate (confidence 1)  [751CC165], AccurateRip returned [1E2E0906]  (AR v2)
     Copy OK

Track  5

     Filename F:\Rihanna - Talk That Talk (Deluxe Edition) (FLAC)\05. Cockiness (Love It).wav

     Peak level 99.8 %
     Extraction speed 3.1 X
     Track quality 100.0 %
     Test CRC FB0EE201
     Copy CRC FB0EE201
     Cannot be verified as accurate (confidence 1)  [9C4E2668], AccurateRip returned [D3FE10B9]  (AR v2)
     Copy OK

Track  6

     Filename F:\Rihanna - Talk That Talk (Deluxe Edition) (FLAC)\06. Birthday Cake.wav

     Peak level 99.8 %
     Extraction speed 2.6 X
     Track quality 100.0 %
     Test CRC E1803A98
     Copy CRC E1803A98
     Cannot be verified as accurate (confidence 1)  [158A9B7B], AccurateRip returned [7EBD74AE]  (AR v2)
     Copy OK

Track  7

     Filename F:\Rihanna - Talk That Talk (Deluxe Edition) (FLAC)\07. We All Want Love.wav

     Peak level 99.8 %
     Extraction speed 2.4 X
     Track quality 99.9 %
     Test CRC 1C55CA6E
     Copy CRC 1C55CA6E
     Cannot be verified as accurate (confidence 1)  [A57EF13C], AccurateRip returned [4CE82DD7]  (AR v2)
     Copy OK

Track  8

     Filename F:\Rihanna - Talk That Talk (Deluxe Edition) (FLAC)\08. Drunk On Love.wav

     Peak level 99.8 %
     Extraction speed 3.5 X
     Track quality 100.0 %
     Test CRC 06F3342D
     Copy CRC 06F3342D
     Cannot be verified as accurate (confidence 1)  [13FEAF2E], AccurateRip returned [6B01EE3A]  (AR v2)
     Copy OK

Track  9

     Filename F:\Rihanna - Talk That Talk (Deluxe Edition) (FLAC)\09. Roc Me Out.wav

     Peak level 99.8 %
     Extraction speed 3.7 X
     Track quality 100.0 %
     Test CRC 06AC5937
     Copy CRC 06AC5937
     Cannot be verified as accurate (confidence 1)  [F6576019], AccurateRip returned [4BE92AE5]  (AR v2)
     Copy OK

Track 10

     Filename F:\Rihanna - Talk That Talk (Deluxe Edition) (FLAC)\10. Watch N' Learn.wav

     Peak level 99.8 %
     Extraction speed 3.8 X
     Track quality 100.0 %
     Test CRC DB82025E
     Copy CRC DB82025E
     Cannot be verified as accurate (confidence 1)  [66F08E64], AccurateRip returned [AB4E7C36]  (AR v2)
     Copy OK

Track 11

     Filename F:\Rihanna - Talk That Talk (Deluxe Edition) (FLAC)\11. Farewell.wav

     Peak level 99.8 %
     Extraction speed 4.1 X
     Track quality 100.0 %
     Test CRC D18326F4
     Copy CRC D18326F4
     Cannot be verified as accurate (confidence 1)  [F46C05BD], AccurateRip returned [E3630616]  (AR v2)
     Copy OK

Track 12

     Filename F:\Rihanna - Talk That Talk (Deluxe Edition) (FLAC)\12. Red Lipstick.wav

     Peak level 99.8 %
     Extraction speed 2.8 X
     Track quality 99.9 %
     Test CRC 716D2F6F
     Copy CRC 716D2F6F
     Cannot be verified as accurate (confidence 1)  [B3A216B2], AccurateRip returned [0ED2E2A1]  (AR v2)
     Copy OK

Track 13

     Filename F:\Rihanna - Talk That Talk (Deluxe Edition) (FLAC)\13. Do Ya Thang.wav

     Peak level 99.8 %
     Extraction speed 2.9 X
     Track quality 99.9 %
     Test CRC FFE02A68
     Copy CRC FFE02A68
     Cannot be verified as accurate (confidence 1)  [4E0C53E9], AccurateRip returned [61C5045C]  (AR v2)
     Copy OK

Track 14

     Filename F:\Rihanna - Talk That Talk (Deluxe Edition) (FLAC)\14. Fool In Love.wav

     Peak level 99.9 %
     Extraction speed 4.5 X
     Track quality 100.0 %
     Test CRC CB2A6B11
     Copy CRC CB2A6B11
     Cannot be verified as accurate (confidence 1)  [15D5B661], AccurateRip returned [FA4B4919]  (AR v2)
     Copy OK

No tracks could be verified as accurate
You may have a different pressing from the one(s) in the database

No errors occurred

End of status report

==== Log checksum 6B4B1CF5AFDE14FB67D46A26FB5CF4B6C22DDDB03E5B90085EE47850D0B0E0A3 ====

Код:

REM GENRE Pop
REM DATE 2011
REM DISCID CD0B820E
REM COMMENT "ExactAudioCopy v1.0b3"
PERFORMER "Rihanna"
TITLE "Talk That Talk"
FILE "01. You Da One.wav" WAVE
  TRACK 01 AUDIO
    TITLE "You Da One"
    PERFORMER "Rihanna"
    INDEX 01 00:00:00
FILE "02. Where Have You Been.wav" WAVE
  TRACK 02 AUDIO
    TITLE "Where Have You Been"
    PERFORMER "Rihanna"
    INDEX 01 00:00:00
FILE "03. We Found Love (feat. Calvin Harris).wav" WAVE
  TRACK 03 AUDIO
    TITLE "We Found Love (feat. Calvin Harris)"
    PERFORMER "Rihanna"
    INDEX 01 00:00:00
FILE "04. Talk That Talk (feat. Jay-Z).wav" WAVE
  TRACK 04 AUDIO
    TITLE "Talk That Talk (feat. Jay-Z)"
    PERFORMER "Rihanna"
    INDEX 01 00:00:00
FILE "05. Cockiness (Love It).wav" WAVE
  TRACK 05 AUDIO
    TITLE "Cockiness (Love It)"
    PERFORMER "Rihanna"
    INDEX 01 00:00:00
FILE "06. Birthday Cake.wav" WAVE
  TRACK 06 AUDIO
    TITLE "Birthday Cake"
    PERFORMER "Rihanna"
    INDEX 01 00:00:00
FILE "07. We All Want Love.wav" WAVE
  TRACK 07 AUDIO
    TITLE "We All Want Love"
    PERFORMER "Rihanna"
    INDEX 01 00:00:00
FILE "08. Drunk On Love.wav" WAVE
  TRACK 08 AUDIO
    TITLE "Drunk On Love"
    PERFORMER "Rihanna"
    INDEX 01 00:00:00
FILE "09. Roc Me Out.wav" WAVE
  TRACK 09 AUDIO
    TITLE "Roc Me Out"
    PERFORMER "Rihanna"
    INDEX 01 00:00:00
FILE "10. Watch N' Learn.wav" WAVE
  TRACK 10 AUDIO
    TITLE "Watch N' Learn"
    PERFORMER "Rihanna"
    INDEX 01 00:00:00
FILE "11. Farewell.wav" WAVE
  TRACK 11 AUDIO
    TITLE "Farewell"
    PERFORMER "Rihanna"
    INDEX 01 00:00:00
FILE "12. Red Lipstick.wav" WAVE
  TRACK 12 AUDIO
    TITLE "Red Lipstick"
    PERFORMER "Rihanna"
    INDEX 01 00:00:00
FILE "13. Do Ya Thang.wav" WAVE
  TRACK 13 AUDIO
    TITLE "Do Ya Thang"
    PERFORMER "Rihanna"
    INDEX 01 00:00:00
FILE "14. Fool In Love.wav" WAVE
  TRACK 14 AUDIO
    TITLE "Fool In Love"
    PERFORMER "Rihanna"
    INDEX 01 00:00:00
info [Профиль]  [ЛС] 

Enrike1991

Пол: Пол:Муж

Стаж: 10 лет

Сообщений: 64

Украина
Рейтинг

post 08-Дек-2011 16:40 (спустя 2 часа 49 минут) [-]0[+]

[Цитировать] 

я уже все песни наизусть выучил ггг, супер альбом
info [Профиль]  [ЛС] 
Показать сообщения:    
Ответить на тему

Текущее время: 27-Май 10:42

Часовой пояс: GMT + 4



Вы не можете начинать темы
Вы не можете отвечать на сообщения
Вы не можете редактировать свои сообщения
Вы не можете удалять свои сообщения
Вы не можете голосовать в опросах
Вы не можете прикреплять файлы к сообщениям
Вы не можете скачивать файлы