Ошибка

(Alternative Rock) Lumen - Дискография - 2003-2011, FLAC (image+.cue)+covers, lossless

Ответить на тему
 
Автор Сообщение

Resistance

Пол: Пол:Муж

Стаж: 12 лет

Сообщений: 3640

Россия
Рейтинг

post 21-Окт-2010 12:07 0[+]

[Цитировать] 

pic="http://i12.fastpic.ru/big/2010/1124/03/c14c32b9b93b849ab4e87e77d2ab2003.jpg"
Жанр: Alternative Rock || Происхождение: Россия || Год: 2003-2011
Аудио кодек: FLAC || Тип релиза: image+.cue || Битрейт аудио: lossless || Продолжительность: 8:52:45

Цитата:

Lumen (лат. lumen «свет») — российская рок-группа, играющая в жанрах альтернативный рок и панк-рок(раннее творчество). Lumen — группа, известная своим революционным настроем и нежеланием мириться с российскими реалиями. Была основана в 1998 году в городе Уфа.
В состав группы входят:
Рустем «Тэм» Булатов - вокал
Игорь «Гарик» Мамаев - гитара,
Денис «Дэн» Шаханов - ударные,
Евгений «Шмель» Тришин - бас.
До марта 2007 года на месте басиста выступал Евгений «Джон» Огнев, однако он покинул группу по состоянию здоровья.
Лейбл:cd land
Кат. номер:CDLR0323
01. Сид и Нэнси (3:08)
02. Харакири (2:21)
03. Отвалите! (2:23)
04. Мое время (2:22)
05. Кофе (2:47)
06. Мне в другую сторону (4:03)
07. Волк (3:04)
08. Fuck off!!! (2:04)
09. Синяя птица (2:53)
10. Катенки (3:05)
11. Зима (3:08)
12. Бабочки (3:02)
13. Дневник (2:28)
14. Космонавт (2:58)
15. Выходной (2:27)
16. Ну и пусть! (2:16)
17. Хорошо! (2:05)
18. Урманга (2:38)

Код:

Exact Audio Copy V0.99 prebeta 5 from 4. May 2009

Отчёт EAC об извлечении, выполненном 16. октября 2010, 12:47

Lumen / Без Консервантов

Дисковод: Optiarc DVD RW AD-7203S   Adapter: 0  ID: 2

Режим чтения                 : Достоверность
Использование точного потока : Да
Отключение кэша аудио        : Да
Использование указателей C2  : Нет

Коррекция смещения при чтении                     : 48
Способность читать области Lead-in и Lead-out     : Нет
Заполнение пропущенных сэмплов тишиной            : Да
Удаление блоков с тишиной в начале и конце        : Нет
При вычислениях CRC использовались нулевые сэмплы : Да
Интерфейс                                         : Встроенный Win32-интерфейс для Win NT/2000

Выходной формат          : Пользовательский кодировщик
Выбранный битрейт        : 1024 kBit/s
Качество                 : Высокий
Добавление ID3-тэга      : Нет
Утилита сжатия           : C:\Program Files (x86)\Exact Audio Copy\Flac\flac.exe
Дополнительные параметры : -8 -V %s

TOC извлечённого CD

     Трек |   Старт  | Длительность | Начальный сектор | Конечный сектор
    ---------------------------------------------------------------------
       1  |  0:00.00 |    3:08.22   |           0      |      14121     
       2  |  3:08.22 |    2:21.23   |       14122      |      24719     
       3  |  5:29.45 |    2:23.20   |       24720      |      35464     
       4  |  7:52.65 |    2:21.55   |       35465      |      46094     
       5  | 10:14.45 |    2:46.67   |       46095      |      58611     
       6  | 13:01.37 |    4:02.55   |       58612      |      76816     
       7  | 17:04.17 |    3:03.51   |       76817      |      90592     
       8  | 20:07.68 |    2:04.21   |       90593      |      99913     
       9  | 22:12.14 |    2:53.24   |       99914      |     112912     
      10  | 25:05.38 |    3:05.36   |      112913      |     126823     
      11  | 28:10.74 |    3:08.01   |      126824      |     140924     
      12  | 31:19.00 |    3:02.36   |      140925      |     154610     
      13  | 34:21.36 |    2:28.37   |      154611      |     165747     
      14  | 36:49.73 |    2:57.49   |      165748      |     179071     
      15  | 39:47.47 |    2:27.35   |      179072      |     190131     
      16  | 42:15.07 |    2:16.36   |      190132      |     200367     
      17  | 44:31.43 |    2:05.21   |      200368      |     209763     
      18  | 46:36.64 |    2:37.69   |      209764      |     221607     
      19  | 51:46.58 |   12:45.34   |      233008      |     290416     

Характеристики диапазона извлечения и сообщения об ошибках

Выбранный диапазон

     Имя файла E:\Раздача\Музыка (LossLess)\Lumen (Дискография)\(01) 2003 - Без Консервантов\Lumen - Без Консервантов.wav

     Пиковый уровень 98.8 %
     Качество диапазона 100.0 %
     CRC теста 71C96543
     CRC копии 71C96543
     Копирование... OK

Ошибок не произошло

 
AccurateRip: сводка
 
Трек  1  точное извлечение (доверие 2)  [535FA647]
Трек  2  точное извлечение (доверие 2)  [83B7BC4C]
Трек  3  точное извлечение (доверие 2)  [FBE16395]
Трек  4  точное извлечение (доверие 2)  [D34CCD76]
Трек  5  точное извлечение (доверие 2)  [B1BF9CCE]
Трек  6  нет в базе данных
Трек  7  точное извлечение (доверие 2)  [85778B49]
Трек  8  точное извлечение (доверие 2)  [74FC9850]
Трек  9  точное извлечение (доверие 2)  [06271286]
Трек 10  точное извлечение (доверие 2)  [6F0C225E]
Трек 11  точное извлечение (доверие 2)  [0798D988]
Трек 12  точное извлечение (доверие 2)  [5A170E9D]
Трек 13  точное извлечение (доверие 2)  [BBA7EBF3]
Трек 14  точное извлечение (доверие 2)  [142BB5E7]
Трек 15  точное извлечение (доверие 2)  [E1CCB3A1]
Трек 16  точное извлечение (доверие 2)  [EEEC9869]
Трек 17  точное извлечение (доверие 2)  [37ABE49C]
Трек 18  точное извлечение (доверие 2)  [1B67F55A]
 
17 трек(и) скопированы точно
 1 трек(и) не содержатся в базе AccurateRip

Некоторые треки не прошли проверку на точность

Конец отчёта

Код:

REM GENRE "Alt. Rock"
REM DATE 2003
REM DISCID 030F2013
REM COMMENT "ExactAudioCopy v0.99pb5"
PERFORMER "Lumen"
TITLE "Без Консервантов"
FILE "Lumen - Без Консервантов.flac" WAVE
  TRACK 01 AUDIO
    TITLE "Сид и Ненси"
    PERFORMER "Lumen"
    FLAGS DCP
    INDEX 01 00:00:00
  TRACK 02 AUDIO
    TITLE "Харакири (Песня Группы 'Гражданская Оборона')"
    PERFORMER "Lumen"
    FLAGS DCP
    INDEX 01 03:08:22
  TRACK 03 AUDIO
    TITLE "Отвалите!"
    PERFORMER "Lumen"
    FLAGS DCP
    INDEX 01 05:29:45
  TRACK 04 AUDIO
    TITLE "Моё Время"
    PERFORMER "Lumen"
    FLAGS DCP
    INDEX 01 07:52:65
  TRACK 05 AUDIO
    TITLE "Кофе"
    PERFORMER "Lumen"
    FLAGS DCP
    INDEX 01 10:14:45
  TRACK 06 AUDIO
    TITLE "Мне В Другую Сторону"
    PERFORMER "Lumen"
    FLAGS DCP
    INDEX 01 13:01:37
  TRACK 07 AUDIO
    TITLE "Волк"
    PERFORMER "Lumen"
    FLAGS DCP
    INDEX 01 17:04:17
  TRACK 08 AUDIO
    TITLE "F....k Off!!!"
    PERFORMER "Lumen"
    FLAGS DCP
    INDEX 01 20:07:68
  TRACK 09 AUDIO
    TITLE "Синяя Птица"
    PERFORMER "Lumen"
    FLAGS DCP
    INDEX 01 22:12:14
  TRACK 10 AUDIO
    TITLE "Катёнки"
    PERFORMER "Lumen"
    FLAGS DCP
    INDEX 01 25:05:38
  TRACK 11 AUDIO
    TITLE "Зима"
    PERFORMER "Lumen"
    FLAGS DCP
    INDEX 01 28:10:74
  TRACK 12 AUDIO
    TITLE "Бабочки"
    PERFORMER "Lumen"
    FLAGS DCP
    INDEX 01 31:19:00
  TRACK 13 AUDIO
    TITLE "Дневник"
    PERFORMER "Lumen"
    FLAGS DCP
    INDEX 01 34:21:36
  TRACK 14 AUDIO
    TITLE "Космонавт"
    PERFORMER "Lumen"
    FLAGS DCP
    INDEX 01 36:49:73
  TRACK 15 AUDIO
    TITLE "Выходной"
    PERFORMER "Lumen"
    FLAGS DCP
    INDEX 01 39:47:47
  TRACK 16 AUDIO
    TITLE "Ну и Пусть!"
    PERFORMER "Lumen"
    FLAGS DCP
    INDEX 01 42:15:07
  TRACK 17 AUDIO
    TITLE "Хорошо!"
    PERFORMER "Lumen"
    FLAGS DCP
    INDEX 01 44:31:43
  TRACK 18 AUDIO
    TITLE "Урманга"
    PERFORMER "Lumen"
    FLAGS DCP
    INDEX 01 46:36:64
Лейбл: www records
Кат. номер:www-234CD/04
01. C4 (2:50)
02. С небес на землю (3:21)
03. Три пути (4:35)
04. Тишина внутри (2:10)
05. Навсегда (3:37)
06. Сколько (3:48)
07. Одной крови (3:15)
08. Мечта (3:36)
09. Змей (2:27)
10. Успокой меня (2:33)
11. Друзья (3:37)
12. До свиданья (3:38)

Код:

Exact Audio Copy V0.99 prebeta 5 from 4. May 2009

Отчёт EAC об извлечении, выполненном 16. октября 2010, 15:55

Lumen / Три Пути

Дисковод: Optiarc DVD RW AD-7203S   Adapter: 0  ID: 2

Режим чтения                 : Достоверность
Использование точного потока : Да
Отключение кэша аудио        : Да
Использование указателей C2  : Нет

Коррекция смещения при чтении                     : 48
Способность читать области Lead-in и Lead-out     : Нет
Заполнение пропущенных сэмплов тишиной            : Да
Удаление блоков с тишиной в начале и конце        : Нет
При вычислениях CRC использовались нулевые сэмплы : Да
Интерфейс                                         : Встроенный Win32-интерфейс для Win NT/2000

Выходной формат          : Пользовательский кодировщик
Выбранный битрейт        : 1024 kBit/s
Качество                 : Высокий
Добавление ID3-тэга      : Нет
Утилита сжатия           : C:\Program Files (x86)\Exact Audio Copy\Flac\flac.exe
Дополнительные параметры : -8 -V %s

TOC извлечённого CD

     Трек |   Старт  | Длительность | Начальный сектор | Конечный сектор
    ---------------------------------------------------------------------
       1  |  0:00.00 |    2:49.68   |           0      |      12742     
       2  |  2:49.68 |    3:20.42   |       12743      |      27784     
       3  |  6:10.35 |    4:35.35   |       27785      |      48444     
       4  | 10:45.70 |    2:09.70   |       48445      |      58189     
       5  | 12:55.65 |    3:36.41   |       58190      |      74430     
       6  | 16:32.31 |    3:48.00   |       74431      |      91530     
       7  | 20:20.31 |    3:14.70   |       91531      |     106150     
       8  | 23:35.26 |    3:35.69   |      106151      |     122344     
       9  | 27:11.20 |    2:27.14   |      122345      |     133383     
      10  | 29:38.34 |    2:32.46   |      133384      |     144829     
      11  | 32:11.05 |    3:37.21   |      144830      |     161125     
      12  | 35:48.26 |    3:38.22   |      161126      |     177497     

Характеристики диапазона извлечения и сообщения об ошибках

Выбранный диапазон

     Имя файла E:\Раздача\Музыка (LossLess)\Lumen (Дискография)\(02) 2004 -Три Пути\Lumen - Три Пути.wav

     Пиковый уровень 98.8 %
     Качество диапазона 99.9 %
     CRC теста C72F1CDF
     CRC копии C72F1CDF
     Копирование... OK

Ошибок не произошло

 
AccurateRip: сводка
 
Трек  1  точное извлечение (доверие 3)  [52E126EF]
Трек  2  точное извлечение (доверие 3)  [CF9BC2F2]
Трек  3  точное извлечение (доверие 3)  [C8936883]
Трек  4  точное извлечение (доверие 3)  [05038198]
Трек  5  точное извлечение (доверие 3)  [75980086]
Трек  6  точное извлечение (доверие 3)  [37BA992D]
Трек  7  точное извлечение (доверие 3)  [675B55BA]
Трек  8  точное извлечение (доверие 3)  [5ED8C416]
Трек  9  точное извлечение (доверие 3)  [93FC355D]
Трек 10  точное извлечение (доверие 3)  [40557D56]
Трек 11  точное извлечение (доверие 3)  [EC6E4736]
Трек 12  точное извлечение (доверие 3)  [FC3F9020]
 
Все треки извлечены точно

Конец отчёта

Код:

REM GENRE "Alt. Rock"
REM DATE 2004
REM DISCID 9C093E0C
REM COMMENT "ExactAudioCopy v0.99pb5"
PERFORMER "Lumen"
TITLE "Три Пути"
FILE "Lumen - Три Пути.flac" WAVE
  TRACK 01 AUDIO
    TITLE "C4"
    PERFORMER "Lumen"
    INDEX 01 00:00:00
  TRACK 02 AUDIO
    TITLE "С Небес На Землю"
    PERFORMER "Lumen"
    INDEX 01 02:49:68
  TRACK 03 AUDIO
    TITLE "Три Пути"
    PERFORMER "Lumen"
    INDEX 01 06:10:35
  TRACK 04 AUDIO
    TITLE "Тишина Внутри"
    PERFORMER "Lumen"
    INDEX 01 10:45:70
  TRACK 05 AUDIO
    TITLE "Навсегда"
    PERFORMER "Lumen"
    INDEX 01 12:55:65
  TRACK 06 AUDIO
    TITLE "Сколько"
    PERFORMER "Lumen"
    INDEX 01 16:32:31
  TRACK 07 AUDIO
    TITLE "Одной Крови"
    PERFORMER "Lumen"
    INDEX 01 20:20:31
  TRACK 08 AUDIO
    TITLE "Мечта"
    PERFORMER "Lumen"
    INDEX 01 23:35:26
  TRACK 09 AUDIO
    TITLE "Змей"
    PERFORMER "Lumen"
    INDEX 01 27:11:20
  TRACK 10 AUDIO
    TITLE "Успокой Меня"
    PERFORMER "Lumen"
    INDEX 01 29:38:34
  TRACK 11 AUDIO
    TITLE "Друзья"
    PERFORMER "Lumen"
    INDEX 01 32:11:05
  TRACK 12 AUDIO
    TITLE "До Свиданья"
    PERFORMER "Lumen"
    INDEX 01 35:48:26
Лейбл:www records
Кат. номер:www-298CD05
01. Три пути (4:24)
02. Кофе (3:09)
03. Бабочки (3:14)
04. Ну и пусть! (2:11)
05. Космонавт (2:34)
06. Хорошо! (2:00)
07. Дневник (2:26)
08. Выходной (2:25)
09. Урманга (2:48)
10. С небес на землю (3:14)
11. Сколько? (3:24)
12. Не спеши (3:52)
13. Тишина внутри (2:06)
14. Одной крови (3:20)
15. Мечта (3:43)
16. Sid & Nansy (3:59)
17. C-4 (2:44)
18. Fuck off! (2:30)
19. ...Не оставайтесь равнодушными!... (1:44)
20. 02 (Благовещенск) (3:36)
21. ...Спасибо!... (0:36)
22. Синяя птица (2:35)

Код:

Exact Audio Copy V0.99 prebeta 5 from 4. May 2009

Отчёт EAC об извлечении, выполненном 16. октября 2010, 19:27

Lumen / Одной Крови

Дисковод: Optiarc DVD RW AD-7203S   Adapter: 0  ID: 2

Режим чтения                 : Достоверность
Использование точного потока : Да
Отключение кэша аудио        : Да
Использование указателей C2  : Нет

Коррекция смещения при чтении                     : 48
Способность читать области Lead-in и Lead-out     : Нет
Заполнение пропущенных сэмплов тишиной            : Да
Удаление блоков с тишиной в начале и конце        : Нет
При вычислениях CRC использовались нулевые сэмплы : Да
Интерфейс                                         : Встроенный Win32-интерфейс для Win NT/2000

Выходной формат          : Пользовательский кодировщик
Выбранный битрейт        : 1024 kBit/s
Качество                 : Высокий
Добавление ID3-тэга      : Нет
Утилита сжатия           : C:\Program Files (x86)\Exact Audio Copy\Flac\flac.exe
Дополнительные параметры : -8 -V %s

TOC извлечённого CD

     Трек |   Старт  | Длительность | Начальный сектор | Конечный сектор
    ---------------------------------------------------------------------
       1  |  0:00.00 |    4:24.01   |           0      |      19800     
       2  |  4:24.01 |    3:09.05   |       19801      |      33980     
       3  |  7:33.06 |    3:14.20   |       33981      |      48550     
       4  | 10:47.26 |    2:11.09   |       48551      |      58384     
       5  | 12:58.35 |    2:33.43   |       58385      |      69902     
       6  | 15:32.03 |    1:59.63   |       69903      |      78890     
       7  | 17:31.66 |    2:26.30   |       78891      |      89870     
       8  | 19:58.21 |    2:24.41   |       89871      |     100711     
       9  | 22:22.62 |    2:48.36   |      100712      |     113347     
      10  | 25:11.23 |    3:13.39   |      113348      |     127861     
      11  | 28:24.62 |    3:24.01   |      127862      |     143162     
      12  | 31:48.63 |    3:51.58   |      143163      |     160545     
      13  | 35:40.46 |    2:06.11   |      160546      |     170006     
      14  | 37:46.57 |    3:20.15   |      170007      |     185021     
      15  | 41:06.72 |    3:43.00   |      185022      |     201746     
      16  | 44:49.72 |    3:58.45   |      201747      |     219641     
      17  | 48:48.42 |    2:43.41   |      219642      |     231907     
      18  | 51:32.08 |    2:30.19   |      231908      |     243176     
      19  | 54:02.27 |    1:43.61   |      243177      |     250962     
      20  | 55:46.13 |    3:36.32   |      250963      |     267194     
      21  | 59:22.45 |    0:36.27   |      267195      |     269921     
      22  | 59:58.72 |    2:35.16   |      269922      |     281562     
      23  | 65:06.13 |    3:32.13   |      292963      |     308875     

Характеристики диапазона извлечения и сообщения об ошибках

Выбранный диапазон

     Имя файла E:\Раздача\Музыка (LossLess)\Lumen (Дискография)\(03) 2005 - Одной Крови\Lumen - Одной Крови.wav

     Пиковый уровень 98.1 %
     Качество диапазона 100.0 %
     CRC теста 434818E5
     CRC копии 434818E5
     Копирование... OK

Ошибок не произошло

 
AccurateRip: сводка
 
Трек  1  точное извлечение (доверие 3)  [8D08BAE9]
Трек  2  точное извлечение (доверие 4)  [3EDE9D84]
Трек  3  точное извлечение (доверие 4)  [D92BA59C]
Трек  4  точное извлечение (доверие 4)  [C5755C0E]
Трек  5  точное извлечение (доверие 4)  [9297E2A7]
Трек  6  точное извлечение (доверие 4)  [BDEA45C2]
Трек  7  точное извлечение (доверие 4)  [C5209B16]
Трек  8  точное извлечение (доверие 4)  [1F995BC6]
Трек  9  точное извлечение (доверие 4)  [531CCC50]
Трек 10  точное извлечение (доверие 4)  [0D1C701F]
Трек 11  точное извлечение (доверие 4)  [C22B8AC2]
Трек 12  точное извлечение (доверие 4)  [8BBD94C0]
Трек 13  точное извлечение (доверие 4)  [CC21AA87]
Трек 14  точное извлечение (доверие 4)  [22A91E88]
Трек 15  точное извлечение (доверие 3)  [0C18E9F5]
Трек 16  точное извлечение (доверие 2)  [88FD6DB6]
Трек 17  точное извлечение (доверие 2)  [30534084]
Трек 18  точное извлечение (доверие 3)  [258E2A99]
Трек 19  точное извлечение (доверие 2)  [E20393DB]
Трек 20  точное извлечение (доверие 2)  [4A038C83]
Трек 21  точное извлечение (доверие 4)  [D4158813]
Трек 22  точное извлечение (доверие 3)  [81099914]
 
Все треки извлечены точно

Конец отчёта

Код:

REM GENRE "Alt. Rock"
REM DATE 2005
REM DISCID 39101617
REM COMMENT "ExactAudioCopy v0.99pb5"
PERFORMER "Lumen"
TITLE "Одной Крови"
FILE "Lumen - Одной Крови.flac" WAVE
  TRACK 01 AUDIO
    TITLE "Три Пути"
    PERFORMER "Lumen"
    FLAGS DCP
    INDEX 01 00:00:00
  TRACK 02 AUDIO
    TITLE "Кофе"
    PERFORMER "Lumen"
    FLAGS DCP
    INDEX 00 04:22:02
    INDEX 01 04:24:01
  TRACK 03 AUDIO
    TITLE "Бабочки"
    PERFORMER "Lumen"
    INDEX 00 07:31:07
    INDEX 01 07:33:06
  TRACK 04 AUDIO
    TITLE "Ну и Пусть!"
    PERFORMER "Lumen"
    FLAGS DCP
    INDEX 00 10:45:27
    INDEX 01 10:47:26
  TRACK 05 AUDIO
    TITLE "Космонавт"
    PERFORMER "Lumen"
    INDEX 00 12:56:36
    INDEX 01 12:58:35
  TRACK 06 AUDIO
    TITLE "Хорошо!"
    PERFORMER "Lumen"
    INDEX 00 15:30:04
    INDEX 01 15:32:03
  TRACK 07 AUDIO
    TITLE "Дневник"
    PERFORMER "Lumen"
    INDEX 00 17:29:67
    INDEX 01 17:31:66
  TRACK 08 AUDIO
    TITLE "Выходной"
    PERFORMER "Lumen"
    FLAGS DCP
    INDEX 00 19:56:22
    INDEX 01 19:58:21
  TRACK 09 AUDIO
    TITLE "Урманга"
    PERFORMER "Lumen"
    INDEX 00 22:20:63
    INDEX 01 22:22:62
  TRACK 10 AUDIO
    TITLE "С Небес На Землю"
    PERFORMER "Lumen"
    FLAGS DCP
    INDEX 00 25:09:24
    INDEX 01 25:11:23
  TRACK 11 AUDIO
    TITLE "Сколько?"
    PERFORMER "Lumen"
    INDEX 00 28:22:63
    INDEX 01 28:24:62
  TRACK 12 AUDIO
    TITLE "Не Спеши"
    PERFORMER "Lumen"
    INDEX 00 31:46:64
    INDEX 01 31:48:63
  TRACK 13 AUDIO
    TITLE "Тишина Внутри"
    PERFORMER "Lumen"
    INDEX 00 35:38:47
    INDEX 01 35:40:46
  TRACK 14 AUDIO
    TITLE "Одной Крови"
    PERFORMER "Lumen"
    INDEX 00 37:44:58
    INDEX 01 37:46:57
  TRACK 15 AUDIO
    TITLE "Мечта"
    PERFORMER "Lumen"
    INDEX 00 41:04:73
    INDEX 01 41:06:72
  TRACK 16 AUDIO
    TITLE "Sid & Nansy"
    PERFORMER "Lumen"
    INDEX 00 44:47:73
    INDEX 01 44:49:72
  TRACK 17 AUDIO
    TITLE "C4"
    PERFORMER "Lumen"
    INDEX 00 48:46:43
    INDEX 01 48:48:42
  TRACK 18 AUDIO
    TITLE "F... Off!"
    PERFORMER "Lumen"
    FLAGS DCP
    INDEX 00 51:30:09
    INDEX 01 51:32:08
  TRACK 19 AUDIO
    TITLE "'...Не Оставайтесь Равнодушными!...'"
    PERFORMER "Lumen"
    FLAGS DCP
    INDEX 00 54:00:28
    INDEX 01 54:02:27
  TRACK 20 AUDIO
    TITLE "02 (Благовещенск)"
    PERFORMER "Lumen"
    INDEX 00 55:44:14
    INDEX 01 55:46:13
  TRACK 21 AUDIO
    TITLE "'...Спасибо!...'"
    PERFORMER "Lumen"
    INDEX 00 59:20:46
    INDEX 01 59:22:45
  TRACK 22 AUDIO
    TITLE "Синяя Птица"
    PERFORMER "Lumen"
    FLAGS DCP
    INDEX 00 59:56:73
    INDEX 01 59:58:72
Лейбл:www records
Кат. номер:www-318CD/05
01. Между Строчек (4:08)
02. Детки (3:22)
03. Зубы (4:17)
04. Государство (2:39)
05. 02 (Благовещенск) feat. Cид (3:47)
06. Не Спеши (4:12)
07. В Бетонной Коробке (3:23)
08. Дыши (3:26)
09. 2000 Лет (2:41)
10. Назови Мне Своё Имя (4:06)
11. Никто Не Знает (3:37)
12. Свобода (3:36)
13. Вавилон (3:54)

Код:

Exact Audio Copy V0.99 prebeta 5 from 4. May 2009

Отчёт EAC об извлечении, выполненном 17. октября 2010, 15:31

Lumen / Свобода

Дисковод: Optiarc DVD RW AD-7203S   Adapter: 0  ID: 2

Режим чтения                 : Достоверность
Использование точного потока : Да
Отключение кэша аудио        : Да
Использование указателей C2  : Нет

Коррекция смещения при чтении                     : 48
Способность читать области Lead-in и Lead-out     : Нет
Заполнение пропущенных сэмплов тишиной            : Да
Удаление блоков с тишиной в начале и конце        : Нет
При вычислениях CRC использовались нулевые сэмплы : Да
Интерфейс                                         : Встроенный Win32-интерфейс для Win NT/2000

Выходной формат          : Пользовательский кодировщик
Выбранный битрейт        : 1024 kBit/s
Качество                 : Высокий
Добавление ID3-тэга      : Нет
Утилита сжатия           : C:\Program Files (x86)\Exact Audio Copy\Flac\flac.exe
Дополнительные параметры : -8 -V %s

TOC извлечённого CD

     Трек |   Старт  | Длительность | Начальный сектор | Конечный сектор
    ---------------------------------------------------------------------
       1  |  0:00.00 |    4:08.09   |           0      |      18608     
       2  |  4:08.09 |    3:21.43   |       18609      |      33726     
       3  |  7:29.52 |    4:16.42   |       33727      |      52968     
       4  | 11:46.19 |    2:39.07   |       52969      |      64900     
       5  | 14:25.26 |    3:46.52   |       64901      |      81902     
       6  | 18:12.03 |    4:11.68   |       81903      |     100795     
       7  | 22:23.71 |    3:22.63   |      100796      |     116008     
       8  | 25:46.59 |    3:25.62   |      116009      |     131445     
       9  | 29:12.46 |    2:40.43   |      131446      |     143488     
      10  | 31:53.14 |    4:05.56   |      143489      |     161919     
      11  | 35:58.70 |    3:37.23   |      161920      |     178217     
      12  | 39:36.18 |    3:35.62   |      178218      |     194404     
      13  | 43:12.05 |    3:53.60   |      194405      |     211939     

Характеристики диапазона извлечения и сообщения об ошибках

Выбранный диапазон

     Имя файла E:\Раздача\Музыка (LossLess)\Lumen (Дискография)\(04) 2005 - Свобода\Lumen - Свобода.wav

     Пиковый уровень 100.0 %
     Качество диапазона 99.9 %
     CRC теста 43040919
     CRC копии 43040919
     Копирование... OK

Ошибок не произошло

 
AccurateRip: сводка
 
Трек  1  точное извлечение (доверие 4)  [2DD1CDA3]
Трек  2  точное извлечение (доверие 4)  [12EE2F1F]
Трек  3  точное извлечение (доверие 4)  [E83B0724]
Трек  4  точное извлечение (доверие 4)  [B9FD3C26]
Трек  5  точное извлечение (доверие 4)  [660906F0]
Трек  6  точное извлечение (доверие 4)  [EC9D0B70]
Трек  7  точное извлечение (доверие 4)  [8B1BCB38]
Трек  8  точное извлечение (доверие 4)  [4E52ADA1]
Трек  9  точное извлечение (доверие 4)  [0040E280]
Трек 10  точное извлечение (доверие 4)  [D6F7B7AB]
Трек 11  точное извлечение (доверие 4)  [418EA752]
Трек 12  точное извлечение (доверие 4)  [D23923F8]
Трек 13  точное извлечение (доверие 4)  [A9F9E9B6]
 
Все треки извлечены точно

Конец отчёта

Код:

REM GENRE "Alt. Rock"
REM DATE 2005
REM DISCID B60B090D
REM COMMENT "ExactAudioCopy v0.99pb5"
PERFORMER "Lumen"
TITLE "Свобода"
FILE "Lumen - Свобода.flac" WAVE
  TRACK 01 AUDIO
    TITLE "Между Строчек"
    PERFORMER "Lumen"
    INDEX 01 00:00:00
  TRACK 02 AUDIO
    TITLE "Детки"
    PERFORMER "Lumen"
    INDEX 01 04:08:09
  TRACK 03 AUDIO
    TITLE "Зубы"
    PERFORMER "Lumen"
    INDEX 01 07:29:52
  TRACK 04 AUDIO
    TITLE "Государство"
    PERFORMER "Lumen"
    INDEX 01 11:46:19
  TRACK 05 AUDIO
    TITLE "02 (Благовещенск) feat. Cид"
    PERFORMER "Lumen"
    INDEX 01 14:25:26
  TRACK 06 AUDIO
    TITLE "Не Спеши"
    PERFORMER "Lumen"
    INDEX 01 18:12:03
  TRACK 07 AUDIO
    TITLE "В Бетонной Коробке"
    PERFORMER "Lumen"
    INDEX 01 22:23:71
  TRACK 08 AUDIO
    TITLE "Дыши"
    PERFORMER "Lumen"
    INDEX 01 25:46:59
  TRACK 09 AUDIO
    TITLE "2000 Лет"
    PERFORMER "Lumen"
    INDEX 01 29:12:46
  TRACK 10 AUDIO
    TITLE "Назови Мне Своё Имя"
    PERFORMER "Lumen"
    INDEX 01 31:53:14
  TRACK 11 AUDIO
    TITLE "Никто Не Знает"
    PERFORMER "Lumen"
    INDEX 01 35:58:70
  TRACK 12 AUDIO
    TITLE "Свобода"
    PERFORMER "Lumen"
    INDEX 01 39:36:18
  TRACK 13 AUDIO
    TITLE "Вавилон"
    PERFORMER "Lumen"
    INDEX 01 43:12:05
Лейбл:www records
Кат. номер:www-368CD/06
01. Intro (1:58)
02. В Бетонной Коробке (3:14)
03. C-4 (2:51)
04. Волк (2:52)
05. Свобода (3:22)
06. Не Зову (2:45)
07. Назови Мне Свое Имя (3:53)
08. Не Спеши (3:47)
09. Сколько (3:36)
10. Дыши (3:13)
11. Думаешь Нет - Говоришь Да (Наив Трибьют) (3:21)
12. Зубы (3:57)
13. Государство (2:30)
14. 02 (Благовещенск) (3:28)
15. 2000 Лет (2:30)
16. Небеса (4:56)
17. Sid & Nancy (3:43)
18. F--- Off! (2:23)
19. Харакири (3:06)

Код:

Exact Audio Copy V0.99 prebeta 5 from 4. May 2009

Отчёт EAC об извлечении, выполненном 17. октября 2010, 16:16

Lumen / Дыши

Дисковод: Optiarc DVD RW AD-7203S   Adapter: 0  ID: 2

Режим чтения                 : Достоверность
Использование точного потока : Да
Отключение кэша аудио        : Да
Использование указателей C2  : Нет

Коррекция смещения при чтении                     : 48
Способность читать области Lead-in и Lead-out     : Нет
Заполнение пропущенных сэмплов тишиной            : Да
Удаление блоков с тишиной в начале и конце        : Нет
При вычислениях CRC использовались нулевые сэмплы : Да
Интерфейс                                         : Встроенный Win32-интерфейс для Win NT/2000

Выходной формат          : Пользовательский кодировщик
Выбранный битрейт        : 1024 kBit/s
Качество                 : Высокий
Добавление ID3-тэга      : Нет
Утилита сжатия           : C:\Program Files (x86)\Exact Audio Copy\Flac\flac.exe
Дополнительные параметры : -8 -V %s

TOC извлечённого CD

     Трек |   Старт  | Длительность | Начальный сектор | Конечный сектор
    ---------------------------------------------------------------------
       1  |  0:00.00 |    1:58.24   |           0      |       8873     
       2  |  1:58.24 |    3:13.63   |        8874      |      23411     
       3  |  5:12.12 |    2:50.55   |       23412      |      36216     
       4  |  8:02.67 |    2:51.57   |       36217      |      49098     
       5  | 10:54.49 |    3:22.20   |       49099      |      64268     
       6  | 14:16.69 |    2:44.48   |       64269      |      76616     
       7  | 17:01.42 |    3:53.10   |       76617      |      94101     
       8  | 20:54.52 |    3:46.49   |       94102      |     111100     
       9  | 24:41.26 |    3:35.41   |      111101      |     127266     
      10  | 28:16.67 |    3:12.40   |      127267      |     141706     
      11  | 31:29.32 |    3:20.45   |      141707      |     156751     
      12  | 34:50.02 |    3:57.13   |      156752      |     174539     
      13  | 38:47.15 |    2:30.28   |      174540      |     185817     
      14  | 41:17.43 |    3:28.00   |      185818      |     201417     
      15  | 44:45.43 |    2:30.18   |      201418      |     212685     
      16  | 47:15.61 |    4:55.43   |      212686      |     234853     
      17  | 52:11.29 |    3:43.07   |      234854      |     251585     
      18  | 55:54.36 |    2:23.36   |      251586      |     262346     
      19  | 58:17.72 |    3:05.53   |      262347      |     276274     

Характеристики диапазона извлечения и сообщения об ошибках

Выбранный диапазон

     Имя файла E:\Раздача\Музыка (LossLess)\Lumen (Дискография)\(05) 2006 - Дыши\Lumen - Дыши.wav

     Пиковый уровень 100.0 %
     Качество диапазона 100.0 %
     CRC теста D9CE4234
     CRC копии D9CE4234
     Копирование... OK

Ошибок не произошло

 
AccurateRip: сводка
 
Трек  1  точное извлечение (доверие 8)  [B02BA5C1]
Трек  2  точное извлечение (доверие 8)  [E91D1218]
Трек  3  точное извлечение (доверие 8)  [67CDA89C]
Трек  4  точное извлечение (доверие 8)  [CA386678]
Трек  5  точное извлечение (доверие 8)  [6ED2AEBA]
Трек  6  точное извлечение (доверие 8)  [5D113B85]
Трек  7  точное извлечение (доверие 8)  [B82E0660]
Трек  8  точное извлечение (доверие 8)  [931F30C4]
Трек  9  точное извлечение (доверие 8)  [BC7CD637]
Трек 10  точное извлечение (доверие 8)  [B5BF19BE]
Трек 11  точное извлечение (доверие 8)  [DD6BC9DF]
Трек 12  точное извлечение (доверие 9)  [A6A457C9]
Трек 13  точное извлечение (доверие 8)  [2A1398AB]
Трек 14  точное извлечение (доверие 8)  [0F600106]
Трек 15  точное извлечение (доверие 8)  [464C07FD]
Трек 16  нет в базе данных
Трек 17  точное извлечение (доверие 8)  [38C1B0F0]
Трек 18  точное извлечение (доверие 9)  [909B9B62]
Трек 19  точное извлечение (доверие 8)  [2AADA9E3]
 
18 трек(и) скопированы точно
 1 трек(и) не содержатся в базе AccurateRip

Некоторые треки не прошли проверку на точность

Конец отчёта

Код:

REM GENRE "Alt. Rock"
REM DATE 2006
REM DISCID 250E6313
REM COMMENT "ExactAudioCopy v0.99pb5"
PERFORMER "Lumen"
TITLE "Дыши"
FILE "Lumen - Дыши.flac" WAVE
  TRACK 01 AUDIO
    TITLE "Intro"
    PERFORMER "Lumen"
    FLAGS DCP
    INDEX 01 00:00:00
  TRACK 02 AUDIO
    TITLE "В Бетонной Коробке"
    PERFORMER "Lumen"
    FLAGS DCP
    INDEX 01 01:58:24
  TRACK 03 AUDIO
    TITLE "C4"
    PERFORMER "Lumen"
    FLAGS DCP
    INDEX 01 05:12:12
  TRACK 04 AUDIO
    TITLE "Волк"
    PERFORMER "Lumen"
    FLAGS DCP
    INDEX 01 08:02:67
  TRACK 05 AUDIO
    TITLE "Свобода"
    PERFORMER "Lumen"
    FLAGS DCP
    INDEX 01 10:54:49
  TRACK 06 AUDIO
    TITLE "Не Зову"
    PERFORMER "Lumen"
    FLAGS DCP
    INDEX 01 14:16:69
  TRACK 07 AUDIO
    TITLE "Назови Мне Своё Имя"
    PERFORMER "Lumen"
    FLAGS DCP
    INDEX 01 17:01:42
  TRACK 08 AUDIO
    TITLE "Не Спеши"
    PERFORMER "Lumen"
    FLAGS DCP
    INDEX 01 20:54:52
  TRACK 09 AUDIO
    TITLE "Сколько"
    PERFORMER "Lumen"
    FLAGS DCP
    INDEX 01 24:41:26
  TRACK 10 AUDIO
    TITLE "Дыши"
    PERFORMER "Lumen"
    FLAGS DCP
    INDEX 01 28:16:67
  TRACK 11 AUDIO
    TITLE "Думаешь Нет - Говоришь Да"
    PERFORMER "Lumen"
    FLAGS DCP
    INDEX 01 31:29:32
  TRACK 12 AUDIO
    TITLE "Зубы"
    PERFORMER "Lumen"
    FLAGS DCP
    INDEX 01 34:50:02
  TRACK 13 AUDIO
    TITLE "Государство"
    PERFORMER "Lumen"
    FLAGS DCP
    INDEX 01 38:47:15
  TRACK 14 AUDIO
    TITLE "02 (Благовещенск)"
    PERFORMER "Lumen"
    FLAGS DCP
    INDEX 01 41:17:43
  TRACK 15 AUDIO
    TITLE "2000 Лет"
    PERFORMER "Lumen"
    FLAGS DCP
    INDEX 01 44:45:43
  TRACK 16 AUDIO
    TITLE "Небеса"
    PERFORMER "Lumen"
    FLAGS DCP
    INDEX 01 47:15:61
  TRACK 17 AUDIO
    TITLE "Sid & Nancy"
    PERFORMER "Lumen"
    FLAGS DCP
    INDEX 01 52:11:29
  TRACK 18 AUDIO
    TITLE "F... Off!"
    PERFORMER "Lumen"
    FLAGS DCP
    INDEX 01 55:54:36
  TRACK 19 AUDIO
    TITLE "Харакири"
    PERFORMER "Lumen"
    FLAGS DCP
    INDEX 01 58:17:72

Лейбл:www records
Кат. номер:www-345CD/06
01. Между Строчек (4:10)
02. Детки (3:24)
03. Зубы (4:19)
04. Государство (2:41)
05. 02 (Благовещенск) feat. Дима «Сид» Спирин (3:49)
06. Не смеши (4:14)
07. В бетонной коробке (3:25)
08. Дыши (3:28)
09. 2000 лет (2:43)
10. Назови мне свое имя (4:08)
11. Никто не знает (3:39)
12. Свобода (3:38)
13. Вавилон (3:57)
14. Думаешь Нет - Говоришь Да (4:00)
15. Не Зову (2:58)
16. Небеса (4:45)
17. Не зову (демо-версия) (2:52)
18. Небеса (демо-версия) (4:56)

Код:

Exact Audio Copy V0.99 prebeta 5 from 4. May 2009

Отчёт EAC об извлечении, выполненном 26. октября 2010, 15:07

Lumen / Свобода (Переиздание)

Дисковод: Optiarc DVD RW AD-7241S   Adapter: 0  ID: 3

Режим чтения                 : Достоверность
Использование точного потока : Да
Отключение кэша аудио        : Да
Использование указателей C2  : Нет

Коррекция смещения при чтении                     : 48
Способность читать области Lead-in и Lead-out     : Нет
Заполнение пропущенных сэмплов тишиной            : Да
Удаление блоков с тишиной в начале и конце        : Нет
При вычислениях CRC использовались нулевые сэмплы : Да
Интерфейс                                         : Встроенный Win32-интерфейс для Win NT/2000

Выходной формат          : Пользовательский кодировщик
Выбранный битрейт        : 1024 kBit/s
Качество                 : Высокий
Добавление ID3-тэга      : Нет
Утилита сжатия           : C:\Program Files (x86)\Exact Audio Copy\Flac\flac.exe
Дополнительные параметры : -8 -V -T "ARTIST=%a" -T "TITLE=%t" -T "ALBUM=%g" -T "DATE=%y" -T "TRACKNUMBER=%n" -T "GENRE=%m" -T "COMMENT=EAC FLAC -8" %s

TOC извлечённого CD

     Трек |   Старт  | Длительность | Начальный сектор | Конечный сектор
    ---------------------------------------------------------------------
       1  |  0:00.00 |    4:10.09   |           0      |      18758     
       2  |  4:10.09 |    3:23.43   |       18759      |      34026     
       3  |  7:33.52 |    4:18.42   |       34027      |      53418     
       4  | 11:52.19 |    2:41.07   |       53419      |      65500     
       5  | 14:33.26 |    3:48.52   |       65501      |      82652     
       6  | 18:22.03 |    4:13.68   |       82653      |     101695     
       7  | 22:35.71 |    3:24.63   |      101696      |     117058     
       8  | 26:00.59 |    3:27.62   |      117059      |     132645     
       9  | 29:28.46 |    2:42.43   |      132646      |     144838     
      10  | 32:11.14 |    4:07.56   |      144839      |     163419     
      11  | 36:18.70 |    3:39.23   |      163420      |     179867     
      12  | 39:58.18 |    3:37.62   |      179868      |     196204     
      13  | 43:36.05 |    3:56.58   |      196205      |     213962     
      14  | 47:32.63 |    4:00.21   |      213963      |     231983     
      15  | 51:33.09 |    2:57.41   |      231984      |     245299     
      16  | 54:30.50 |    4:44.39   |      245300      |     266638     
      17  | 59:15.14 |    2:52.30   |      266639      |     279568     
      18  | 62:07.44 |    4:55.40   |      279569      |     301733     

Характеристики диапазона извлечения и сообщения об ошибках

Выбранный диапазон

     Имя файла E:\Раздача\Музыка (LossLess)\Lumen (Дискография)\(05) 2006 - Свобода (Переиздание)\Lumen - Свобода (Переиздание).wav

     Пиковый уровень 100.0 %
     Качество диапазона 100.0 %
     CRC теста C64DF94E
     CRC копии C64DF94E
     Копирование... OK

Ошибок не произошло

 
AccurateRip: сводка
 
Трек  1  точное извлечение (доверие 3)  [4D23C36A]
Трек  2  точное извлечение (доверие 3)  [E31C59E5]
Трек  3  точное извлечение (доверие 3)  [1EE83022]
Трек  4  точное извлечение (доверие 3)  [08E96113]
Трек  5  точное извлечение (доверие 3)  [34F3B022]
Трек  6  точное извлечение (доверие 3)  [DB0B44AA]
Трек  7  точное извлечение (доверие 3)  [C99D9DA1]
Трек  8  точное извлечение (доверие 3)  [1297A491]
Трек  9  точное извлечение (доверие 3)  [4C7D19B0]
Трек 10  точное извлечение (доверие 3)  [C1C88EF6]
Трек 11  точное извлечение (доверие 3)  [6588563C]
Трек 12  точное извлечение (доверие 3)  [C8DCEC34]
Трек 13  точное извлечение (доверие 3)  [289F5483]
Трек 14  точное извлечение (доверие 3)  [CBF38583]
Трек 15  точное извлечение (доверие 3)  [97E0FB25]
Трек 16  точное извлечение (доверие 3)  [FC6D6471]
Трек 17  точное извлечение (доверие 3)  [5E550A71]
Трек 18  точное извлечение (доверие 2)  [8D10535F]
 
Все треки извлечены точно

Конец отчёта

Код:

REM GENRE "Alt. Rock"
REM DATE 2006
REM DISCID F90FB712
REM COMMENT "ExactAudioCopy v0.99pb5"
PERFORMER "Lumen"
TITLE "Свобода (Переиздание)"
FILE "Lumen - Свобода (Переиздание).flac" WAVE
  TRACK 01 AUDIO
    TITLE "Между Строчек"
    PERFORMER "Lumen"
    FLAGS DCP
    INDEX 01 00:00:00
  TRACK 02 AUDIO
    TITLE "Детки"
    PERFORMER "Lumen"
    FLAGS DCP
    INDEX 00 04:08:09
    INDEX 01 04:10:09
  TRACK 03 AUDIO
    TITLE "Зубы"
    PERFORMER "Lumen"
    FLAGS DCP
    INDEX 00 07:31:52
    INDEX 01 07:33:52
  TRACK 04 AUDIO
    TITLE "Государство"
    PERFORMER "Lumen"
    FLAGS DCP
    INDEX 00 11:50:19
    INDEX 01 11:52:19
  TRACK 05 AUDIO
    TITLE "02 (Благовещенск)"
    PERFORMER "Lumen"
    FLAGS DCP
    INDEX 00 14:31:26
    INDEX 01 14:33:26
  TRACK 06 AUDIO
    TITLE "Не Спеши"
    PERFORMER "Lumen"
    FLAGS DCP
    INDEX 00 18:20:03
    INDEX 01 18:22:03
  TRACK 07 AUDIO
    TITLE "В Бетонной Коробке"
    PERFORMER "Lumen"
    FLAGS DCP
    INDEX 00 22:33:71
    INDEX 01 22:35:71
  TRACK 08 AUDIO
    TITLE "Дыши"
    PERFORMER "Lumen"
    FLAGS DCP
    INDEX 00 25:58:59
    INDEX 01 26:00:59
  TRACK 09 AUDIO
    TITLE "2000 Лет"
    PERFORMER "Lumen"
    FLAGS DCP
    INDEX 00 29:26:46
    INDEX 01 29:28:46
  TRACK 10 AUDIO
    TITLE "Назови Мне Своё Имя"
    PERFORMER "Lumen"
    FLAGS DCP
    INDEX 00 32:09:14
    INDEX 01 32:11:14
  TRACK 11 AUDIO
    TITLE "Никто Не Знает"
    PERFORMER "Lumen"
    FLAGS DCP
    INDEX 00 36:16:70
    INDEX 01 36:18:70
  TRACK 12 AUDIO
    TITLE "Свобода"
    PERFORMER "Lumen"
    FLAGS DCP
    INDEX 00 39:56:18
    INDEX 01 39:58:18
  TRACK 13 AUDIO
    TITLE "Вавилон"
    PERFORMER "Lumen"
    FLAGS DCP
    INDEX 00 43:34:05
    INDEX 01 43:36:05
  TRACK 14 AUDIO
    TITLE "Думаешь Нет - Говоришь Да"
    PERFORMER "Lumen"
    FLAGS DCP
    INDEX 00 47:30:63
    INDEX 01 47:32:63
  TRACK 15 AUDIO
    TITLE "Не Зову"
    PERFORMER "Lumen"
    FLAGS DCP
    INDEX 00 51:31:09
    INDEX 01 51:33:09
  TRACK 16 AUDIO
    TITLE "Небеса"
    PERFORMER "Lumen"
    FLAGS DCP
    INDEX 00 54:28:50
    INDEX 01 54:30:50
  TRACK 17 AUDIO
    TITLE "Не Зову (Demo)"
    PERFORMER "Lumen"
    FLAGS DCP
    INDEX 00 59:13:14
    INDEX 01 59:15:14
  TRACK 18 AUDIO
    TITLE "Небеса (Demo)"
    PERFORMER "Lumen"
    FLAGS DCP
    INDEX 00 62:05:44
    INDEX 01 62:07:44

Лейбл:www records
Кат. номер:www-600CD/07
01. Сколько? (3:50)
02. Sid & Nancy (live) (4:01)
03. Кофе (live) (3:11)
04. C4 (2:52)
05. Друзья (3:39)
06. Государство (2:41)
07. Мечта (3:38)
08. Дневник (live) (2:28)
09. Не спеши (4:14)
10. Волк (live) (2:54)
11. Космонавт (live) (2:36)
12. Харакири (live) (3:08)
13. Навсегда (3:39)
14. Дыши (3:28)
15. Детки (3:24)
16. Свобода (3:06)

Код:

Exact Audio Copy V0.99 prebeta 5 from 4. May 2009

Отчёт EAC об извлечении, выполненном 26. октября 2010, 16:04

Lumen / The Best

Дисковод: Optiarc DVD RW AD-7203S   Adapter: 0  ID: 2

Режим чтения                 : Достоверность
Использование точного потока : Да
Отключение кэша аудио        : Да
Использование указателей C2  : Нет

Коррекция смещения при чтении                     : 48
Способность читать области Lead-in и Lead-out     : Нет
Заполнение пропущенных сэмплов тишиной            : Да
Удаление блоков с тишиной в начале и конце        : Нет
При вычислениях CRC использовались нулевые сэмплы : Да
Интерфейс                                         : Встроенный Win32-интерфейс для Win NT/2000

Выходной формат          : Пользовательский кодировщик
Выбранный битрейт        : 1024 kBit/s
Качество                 : Высокий
Добавление ID3-тэга      : Нет
Утилита сжатия           : C:\Program Files (x86)\Exact Audio Copy\Flac\flac.exe
Дополнительные параметры : -8 -V -T "ARTIST=%a" -T "TITLE=%t" -T "ALBUM=%g" -T "DATE=%y" -T "TRACKNUMBER=%n" -T "GENRE=%m" -T "COMMENT=EAC FLAC -8" %s

TOC извлечённого CD

     Трек |   Старт  | Длительность | Начальный сектор | Конечный сектор
    ---------------------------------------------------------------------
       1  |  0:00.00 |    3:33.08   |           0      |      15982     
       2  |  3:33.08 |    3:50.00   |       15983      |      33232     
       3  |  7:23.08 |    4:00.45   |       33233      |      51277     
       4  | 11:23.53 |    3:11.05   |       51278      |      65607     
       5  | 14:34.58 |    2:51.68   |       65608      |      78500     
       6  | 17:26.51 |    3:39.21   |       78501      |      94946     
       7  | 21:05.72 |    2:41.07   |       94947      |     107028     
       8  | 23:47.04 |    3:37.69   |      107029      |     123372     
       9  | 27:24.73 |    2:28.30   |      123373      |     134502     
      10  | 29:53.28 |    4:13.68   |      134503      |     153545     
      11  | 34:07.21 |    2:53.57   |      153546      |     166577     
      12  | 37:01.03 |    2:35.43   |      166578      |     178245     
      13  | 39:36.46 |    3:07.53   |      178246      |     192323     
      14  | 42:44.24 |    3:38.41   |      192324      |     208714     
      15  | 46:22.65 |    3:27.62   |      208715      |     224301     
      16  | 49:50.52 |    3:23.43   |      224302      |     239569     
      17  | 53:14.20 |    3:35.63   |      239570      |     255757     

Характеристики диапазона извлечения и сообщения об ошибках

Выбранный диапазон

     Имя файла E:\Раздача\Музыка (LossLess)\Lumen (Дискография)\(08) 2007 - The Best\Lumen - The Best.wav

     Пиковый уровень 100.0 %
     Качество диапазона 100.0 %
     CRC теста D3818C8F
     CRC копии D3818C8F
     Копирование... OK

Ошибок не произошло

 
AccurateRip: сводка
 
Трек  2  точное извлечение (доверие 1)  [BF81729E]
Трек  3  точное извлечение (доверие 1)  [EEB90476]
Трек  4  точное извлечение (доверие 1)  [73C65EED]
Трек  5  точное извлечение (доверие 1)  [C5934D6B]
Трек  6  точное извлечение (доверие 1)  [F138DF3E]
Трек  7  точное извлечение (доверие 1)  [1C1BEC25]
Трек  8  точное извлечение (доверие 1)  [DCB0392E]
Трек  9  точное извлечение (доверие 1)  [0F8B8031]
Трек 10  точное извлечение (доверие 1)  [850A3EF5]
Трек 11  точное извлечение (доверие 1)  [04FE2006]
Трек 12  точное извлечение (доверие 1)  [48D17E6E]
Трек 13  точное извлечение (доверие 1)  [2D7AA77E]
Трек 14  точное извлечение (доверие 1)  [F968C196]
Трек 15  точное извлечение (доверие 1)  [219B4A6E]
Трек 16  точное извлечение (доверие 1)  [E8E74E12]
Трек 17  нет в базе данных
 
15 трек(и) скопированы точно
 1 трек(и) не содержатся в базе AccurateRip

Некоторые треки не прошли проверку на точность

Конец отчёта

Код:

REM GENRE "Alt. Rock"
REM DATE 2007
REM DISCID 110D5211
REM COMMENT "ExactAudioCopy v0.99pb5"
PERFORMER "Lumen"
TITLE "The Best"
    PERFORMER "Lumen"
FILE "Lumen - The Best.flac" WAVE
  TRACK 01 AUDIO
    TITLE "Сколько"
    PERFORMER "Lumen"
    FLAGS DCP
    INDEX 01 00:00:00
  TRACK 02 AUDIO
    TITLE "Sid & Nancy (Live)"
    PERFORMER "Lumen"
    FLAGS DCP
    INDEX 00 03:48:00
    INDEX 01 03:50:00
  TRACK 03 AUDIO
    TITLE "Кофе (Live)"
    PERFORMER "Lumen"
    FLAGS DCP
    INDEX 00 07:48:45
    INDEX 01 07:50:45
  TRACK 04 AUDIO
    TITLE "C4"
    PERFORMER "Lumen"
    FLAGS DCP
    INDEX 00 10:59:50
    INDEX 01 11:01:50
  TRACK 05 AUDIO
    TITLE "Друзья"
    PERFORMER "Lumen"
    FLAGS DCP
    INDEX 00 13:51:43
    INDEX 01 13:53:43
  TRACK 06 AUDIO
    TITLE "Государство"
    PERFORMER "Lumen"
    FLAGS DCP
    INDEX 00 17:30:64
    INDEX 01 17:32:64
  TRACK 07 AUDIO
    TITLE "Мечта"
    PERFORMER "Lumen"
    FLAGS DCP
    INDEX 00 20:11:71
    INDEX 01 20:13:71
  TRACK 08 AUDIO
    TITLE "Дневник (Live)"
    PERFORMER "Lumen"
    FLAGS DCP
    INDEX 00 23:49:65
    INDEX 01 23:51:65
  TRACK 09 AUDIO
    TITLE "Не Спеши"
    PERFORMER "Lumen"
    FLAGS DCP
    INDEX 00 26:18:20
    INDEX 01 26:20:20
  TRACK 10 AUDIO
    TITLE "Волк (Live)"
    PERFORMER "Lumen"
    FLAGS DCP
    INDEX 00 30:32:13
    INDEX 01 30:34:13
  TRACK 11 AUDIO
    TITLE "Космонавт (Live)"
    PERFORMER "Lumen"
    FLAGS DCP
    INDEX 00 33:25:70
    INDEX 01 33:27:70
  TRACK 12 AUDIO
    TITLE "Харакири (Live)"
    PERFORMER "Lumen"
    FLAGS DCP
    INDEX 00 36:01:38
    INDEX 01 36:03:38
  TRACK 13 AUDIO
    TITLE "Навсегда"
    PERFORMER "Lumen"
    FLAGS DCP
    INDEX 00 39:09:16
    INDEX 01 39:11:16
  TRACK 14 AUDIO
    TITLE "Дыши"
    PERFORMER "Lumen"
    FLAGS DCP
    INDEX 00 42:47:57
    INDEX 01 42:49:57
  TRACK 15 AUDIO
    TITLE "Детки"
    PERFORMER "Lumen"
    FLAGS DCP
    INDEX 00 46:15:44
    INDEX 01 46:17:44
  TRACK 16 AUDIO
    TITLE "Свобода"
    PERFORMER "Lumen"
    FLAGS DCP
    INDEX 00 49:39:12
    INDEX 01 49:41:12
Лейбл:Никитин
Кат. номер:Lumen CD02/07
01. Intro (1:29)
02. Иди в отмах (3:37)
03. 6 миллиардов (3:28)
04. Далеко (3:15)
05. Буря (3:38)
06. Тень (3:35)
07. Хамелеон (2:59)
08. F... off (2:20)
09. Sid & Nancy (3:44)
10. Осеннее небо (4:34)
11. Думаешь нет - говоришь да (3:29)
12. Иначе! (2:34)
13. Пора орать (3:26)
14. Хватит! (3:17)
15. Ложь (2:39)
16. Пока ты спал (3:16)
17. Гореть (5:19)

Код:

Exact Audio Copy V0.99 prebeta 5 from 4. May 2009

Отчёт EAC об извлечении, выполненном 26. октября 2010, 15:49

Lumen / Буря

Дисковод: Optiarc DVD RW AD-7241S   Adapter: 0  ID: 3

Режим чтения                 : Достоверность
Использование точного потока : Да
Отключение кэша аудио        : Да
Использование указателей C2  : Нет

Коррекция смещения при чтении                     : 48
Способность читать области Lead-in и Lead-out     : Нет
Заполнение пропущенных сэмплов тишиной            : Да
Удаление блоков с тишиной в начале и конце        : Нет
При вычислениях CRC использовались нулевые сэмплы : Да
Интерфейс                                         : Встроенный Win32-интерфейс для Win NT/2000

Выходной формат          : Пользовательский кодировщик
Выбранный битрейт        : 1024 kBit/s
Качество                 : Высокий
Добавление ID3-тэга      : Нет
Утилита сжатия           : C:\Program Files (x86)\Exact Audio Copy\Flac\flac.exe
Дополнительные параметры : -8 -V -T "ARTIST=%a" -T "TITLE=%t" -T "ALBUM=%g" -T "DATE=%y" -T "TRACKNUMBER=%n" -T "GENRE=%m" -T "COMMENT=EAC FLAC -8" %s

TOC извлечённого CD

     Трек |   Старт  | Длительность | Начальный сектор | Конечный сектор
    ---------------------------------------------------------------------
       1  |  0:00.00 |    1:29.05   |           0      |       6679     
       2  |  1:29.05 |    3:37.25   |        6680      |      22979     
       3  |  5:06.30 |    3:27.39   |       22980      |      38543     
       4  |  8:33.69 |    3:14.52   |       38544      |      53145     
       5  | 11:48.46 |    3:37.57   |       53146      |      69477     
       6  | 15:26.28 |    3:34.48   |       69478      |      85575     
       7  | 19:01.01 |    2:59.29   |       85576      |      99029     
       8  | 22:00.30 |    2:20.25   |       99030      |     109554     
       9  | 24:20.55 |    3:43.53   |      109555      |     126332     
      10  | 28:04.33 |    4:33.40   |      126333      |     146847     
      11  | 32:37.73 |    3:28.55   |      146848      |     162502     
      12  | 36:06.53 |    2:33.67   |      162503      |     174044     
      13  | 38:40.45 |    3:25.47   |      174045      |     189466     
      14  | 42:06.17 |    3:17.00   |      189467      |     204241     
      15  | 45:23.17 |    2:39.07   |      204242      |     216173     
      16  | 48:02.24 |    3:16.09   |      216174      |     230882     
      17  | 51:18.33 |    5:39.73   |      230883      |     256380     

Характеристики диапазона извлечения и сообщения об ошибках

Выбранный диапазон

     Имя файла E:\Раздача\Музыка (LossLess)\Lumen (Дискография)\(07) 2007 - Буря\Lumen - Буря.wav

     Пиковый уровень 100.0 %
     Качество диапазона 100.0 %
     CRC теста 0AD62718
     CRC копии 0AD62718
     Копирование... OK

Ошибок не произошло

 
AccurateRip: сводка
 
Трек  1  точное извлечение (доверие 6)  [DCBD84C5]
Трек  2  точное извлечение (доверие 6)  [5E14E975]
Трек  3  точное извлечение (доверие 6)  [DEA06718]
Трек  4  точное извлечение (доверие 6)  [BEAE34BF]
Трек  5  точное извлечение (доверие 6)  [996A0770]
Трек  6  точное извлечение (доверие 6)  [D751C1BC]
Трек  7  точное извлечение (доверие 6)  [525A0E0A]
Трек  8  точное извлечение (доверие 6)  [60E882C3]
Трек  9  точное извлечение (доверие 6)  [017B5206]
Трек 10  точное извлечение (доверие 6)  [E61CA8C0]
Трек 11  точное извлечение (доверие 6)  [9961439B]
Трек 12  точное извлечение (доверие 6)  [72150CE9]
Трек 13  точное извлечение (доверие 6)  [3E914939]
Трек 14  точное извлечение (доверие 6)  [5099B38D]
Трек 15  точное извлечение (доверие 6)  [061FB076]
Трек 16  точное извлечение (доверие 6)  [DF2038AB]
Трек 17  точное извлечение (доверие 6)  [91AA35E0]
 
Все треки извлечены точно

Конец отчёта

Код:

REM GENRE "Alt. Rock"
REM DATE 2007
REM DISCID E40D5A11
REM COMMENT "ExactAudioCopy v0.99pb5"
PERFORMER "Lumen"
TITLE "Буря"
FILE "Lumen - Буря.flac" WAVE
  TRACK 01 AUDIO
    TITLE "Intro"
    PERFORMER "Lumen"
    INDEX 01 00:00:00
  TRACK 02 AUDIO
    TITLE "Иди в Отмах"
    PERFORMER "Lumen"
    INDEX 01 01:29:05
  TRACK 03 AUDIO
    TITLE "6 Миллиардов"
    PERFORMER "Lumen"
    INDEX 01 05:06:30
  TRACK 04 AUDIO
    TITLE "Далеко"
    PERFORMER "Lumen"
    INDEX 01 08:33:69
  TRACK 05 AUDIO
    TITLE "Буря"
    PERFORMER "Lumen"
    INDEX 01 11:48:46
  TRACK 06 AUDIO
    TITLE "Тень"
    PERFORMER "Lumen"
    INDEX 01 15:26:28
  TRACK 07 AUDIO
    TITLE "Хамелеон"
    PERFORMER "Lumen"
    INDEX 01 19:01:01
  TRACK 08 AUDIO
    TITLE "F... Off!"
    PERFORMER "Lumen"
    INDEX 01 22:00:30
  TRACK 09 AUDIO
    TITLE "Sid & Nancy"
    PERFORMER "Lumen"
    INDEX 01 24:20:55
  TRACK 10 AUDIO
    TITLE "Осеннее Небо"
    PERFORMER "Lumen"
    INDEX 01 28:04:33
  TRACK 11 AUDIO
    TITLE "Думаешь Нет - Говоришь Да"
    PERFORMER "Lumen"
    INDEX 01 32:37:73
  TRACK 12 AUDIO
    TITLE "Иначе!"
    PERFORMER "Lumen"
    INDEX 01 36:06:53
  TRACK 13 AUDIO
    TITLE "Пора Орать"
    PERFORMER "Lumen"
    INDEX 01 38:40:45
  TRACK 14 AUDIO
    TITLE "Хватит!"
    PERFORMER "Lumen"
    INDEX 01 42:06:17
  TRACK 15 AUDIO
    TITLE "Ложь"
    PERFORMER "Lumen"
    INDEX 01 45:23:17
  TRACK 16 AUDIO
    TITLE "Пока Ты Спал"
    PERFORMER "Lumen"
    INDEX 01 48:02:24
  TRACK 17 AUDIO
    TITLE "Гореть"
    PERFORMER "Lumen"
    INDEX 01 51:18:33
Лейбл:Никитин
Кат. номер: Lumen01/07
01. 6 миллиардов (3:28)
02. Буря (3:44)
03. Далеко (3:29)
04. Иди в отмах (3:35)
05. Ложь (2:52)
06. Тень (3:42)
07. Хватит! (3:26)
08. Хамелеон (4:36)
09. Пока ты спал (3:16)
10. Пора орать (3:48)
11. Иначе! (2:41)
12. Гореть (5:19)

Код:

Exact Audio Copy V0.99 prebeta 5 from 4. May 2009

Отчёт EAC об извлечении, выполненном 17. октября 2010, 15:59

Lumen / Правда?

Дисковод: Optiarc DVD RW AD-7203S   Adapter: 0  ID: 2

Режим чтения                 : Достоверность
Использование точного потока : Да
Отключение кэша аудио        : Да
Использование указателей C2  : Нет

Коррекция смещения при чтении                     : 48
Способность читать области Lead-in и Lead-out     : Нет
Заполнение пропущенных сэмплов тишиной            : Да
Удаление блоков с тишиной в начале и конце        : Нет
При вычислениях CRC использовались нулевые сэмплы : Да
Интерфейс                                         : Встроенный Win32-интерфейс для Win NT/2000

Выходной формат          : Пользовательский кодировщик
Выбранный битрейт        : 1024 kBit/s
Качество                 : Высокий
Добавление ID3-тэга      : Нет
Утилита сжатия           : C:\Program Files (x86)\Exact Audio Copy\Flac\flac.exe
Дополнительные параметры : -8 -V %s

TOC извлечённого CD

     Трек |   Старт  | Длительность | Начальный сектор | Конечный сектор
    ---------------------------------------------------------------------
       1  |  0:00.00 |    3:27.58   |           0      |      15582     
       2  |  3:27.58 |    3:43.70   |       15583      |      32377     
       3  |  7:11.53 |    3:29.05   |       32378      |      48057     
       4  | 10:40.58 |    3:34.72   |       48058      |      64179     
       5  | 14:15.55 |    2:51.47   |       64180      |      77051     
       6  | 17:07.27 |    3:41.67   |       77052      |      93693     
       7  | 20:49.19 |    3:26.07   |       93694      |     109150     
       8  | 24:15.26 |    4:35.63   |      109151      |     129838     
       9  | 28:51.14 |    3:15.48   |      129839      |     144511     
      10  | 32:06.62 |    3:48.36   |      144512      |     161647     
      11  | 35:55.23 |    2:41.29   |      161648      |     173751     
      12  | 38:36.52 |    5:19.15   |      173752      |     197691     

Характеристики диапазона извлечения и сообщения об ошибках

Выбранный диапазон

     Имя файла E:\Раздача\Музыка (LossLess)\Lumen (Дискография)\(09) 2007 - Правда\Lumen - Правда.wav

     Пиковый уровень 98.8 %
     Качество диапазона 100.0 %
     CRC теста FDD09A20
     CRC копии FDD09A20
     Копирование... OK

Ошибок не произошло

 
AccurateRip: сводка
 
Трек  1  точное извлечение (доверие 11)  [43874600]
Трек  2  точное извлечение (доверие 10)  [FBB01A3C]
Трек  3  точное извлечение (доверие 11)  [5689BAEA]
Трек  4  точное извлечение (доверие 11)  [2E269CA8]
Трек  5  точное извлечение (доверие 11)  [916138F1]
Трек  6  точное извлечение (доверие 11)  [250295BE]
Трек  7  точное извлечение (доверие 11)  [A0BEB171]
Трек  8  точное извлечение (доверие 11)  [E691A6F6]
Трек  9  точное извлечение (доверие 11)  [C0E6FBDA]
Трек 10  точное извлечение (доверие 11)  [D39BE5A5]
Трек 11  точное извлечение (доверие 11)  [E62B67C1]
Трек 12  точное извлечение (доверие 10)  [92A9CA16]
 
Все треки извлечены точно

Конец отчёта

Код:

REM GENRE "Alt. Rock"
REM DATE 2007
REM DISCID 9C0A4B0C
REM COMMENT "ExactAudioCopy v0.99pb5"
PERFORMER "Lumen"
TITLE "Правда?"
FILE "Lumen - Правда.flac" WAVE
  TRACK 01 AUDIO
    TITLE "6 Миллиардов"
    PERFORMER "Lumen"
    INDEX 01 00:00:00
  TRACK 02 AUDIO
    TITLE "Буря"
    PERFORMER "Lumen"
    INDEX 01 03:27:58
  TRACK 03 AUDIO
    TITLE "Далеко"
    PERFORMER "Lumen"
    INDEX 01 07:11:53
  TRACK 04 AUDIO
    TITLE "Иди в Отмах"
    PERFORMER "Lumen"
    INDEX 00 10:39:46
    INDEX 01 10:40:58
  TRACK 05 AUDIO
    TITLE "Ложь"
    PERFORMER "Lumen"
    INDEX 01 14:15:55
  TRACK 06 AUDIO
    TITLE "Тень"
    PERFORMER "Lumen"
    INDEX 00 17:04:43
    INDEX 01 17:07:27
  TRACK 07 AUDIO
    TITLE "Хватит!"
    PERFORMER "Lumen"
    INDEX 01 20:49:19
  TRACK 08 AUDIO
    TITLE "Хамелеон"
    PERFORMER "Lumen"
    INDEX 01 24:15:26
  TRACK 09 AUDIO
    TITLE "Пока Ты Спал"
    PERFORMER "Lumen"
    INDEX 01 28:51:14
  TRACK 10 AUDIO
    TITLE "Пора Орать"
    PERFORMER "Lumen"
    INDEX 01 32:06:62
  TRACK 11 AUDIO
    TITLE "Иначе!"
    PERFORMER "Lumen"
    INDEX 01 35:55:23
  TRACK 12 AUDIO
    TITLE "Гореть"
    PERFORMER "Lumen"
    INDEX 00 38:34:70
    INDEX 01 38:36:52
Лейбл:Монолит
Кат. номер:Lumen CD03/09
01. Последний шанс (2:41)
02. Вся вера и любовь этого мира (4:10)
03. Гонка (3:16)
04. Лабиринт (4:24)
05. Слова (2:45)
06. Беги (5:03)
07. Не надо снов (3:19)
08. Осеннее небо (4:48)
09. Паспорт (2:46)
10. Дотянуться до звезды (3:08)
11. Другой мир (3:23)
12. Секунда (3:49)
13. Ржавчина (4:10)
14. Когда... (4:05)

Код:

Exact Audio Copy V0.99 prebeta 5 from 4. May 2009

Отчёт EAC об извлечении, выполненном 26. октября 2010, 14:51

Lumen / МИР

Дисковод: Optiarc DVD RW AD-7203S   Adapter: 0  ID: 2

Режим чтения                 : Достоверность
Использование точного потока : Да
Отключение кэша аудио        : Да
Использование указателей C2  : Нет

Коррекция смещения при чтении                     : 48
Способность читать области Lead-in и Lead-out     : Нет
Заполнение пропущенных сэмплов тишиной            : Да
Удаление блоков с тишиной в начале и конце        : Нет
При вычислениях CRC использовались нулевые сэмплы : Да
Интерфейс                                         : Встроенный Win32-интерфейс для Win NT/2000

Выходной формат          : Пользовательский кодировщик
Выбранный битрейт        : 1024 kBit/s
Качество                 : Высокий
Добавление ID3-тэга      : Нет
Утилита сжатия           : C:\Program Files (x86)\Exact Audio Copy\Flac\flac.exe
Дополнительные параметры : -8 -V -T "ARTIST=%a" -T "TITLE=%t" -T "ALBUM=%g" -T "DATE=%y" -T "TRACKNUMBER=%n" -T "GENRE=%m" -T "COMMENT=EAC FLAC -8" %s

TOC извлечённого CD

     Трек |   Старт  | Длительность | Начальный сектор | Конечный сектор
    ---------------------------------------------------------------------
       1  |  0:00.00 |    2:40.69   |           0      |      12068     
       2  |  2:40.69 |    4:09.40   |       12069      |      30783     
       3  |  6:50.34 |    3:15.60   |       30784      |      45468     
       4  | 10:06.19 |    4:23.70   |       45469      |      65263     
       5  | 14:30.14 |    2:44.50   |       65264      |      77613     
       6  | 17:14.64 |    5:03.25   |       77614      |     100363     
       7  | 22:18.14 |    3:19.12   |      100364      |     115300     
       8  | 25:37.26 |    4:47.48   |      115301      |     136873     
       9  | 30:24.74 |    2:46.03   |      136874      |     149326     
      10  | 33:11.02 |    3:08.03   |      149327      |     163429     
      11  | 36:19.05 |    3:23.32   |      163430      |     178686     
      12  | 39:42.37 |    3:48.39   |      178687      |     195825     
      13  | 43:31.01 |    4:09.70   |      195826      |     214570     
      14  | 47:40.71 |    4:04.70   |      214571      |     232940     

Характеристики диапазона извлечения и сообщения об ошибках

Выбранный диапазон

     Имя файла E:\Раздача\Музыка (LossLess)\Lumen (Дискография)\(10) 2009 - МИР\Lumen - МИР.wav

     Пиковый уровень 100.0 %
     Качество диапазона 100.0 %
     CRC теста E7B75B61
     CRC копии E7B75B61
     Копирование... OK

Ошибок не произошло

 
AccurateRip: сводка
 
Трек  1  точное извлечение (доверие 9)  [0E36B35E]
Трек  2  точное извлечение (доверие 9)  [59366219]
Трек  3  точное извлечение (доверие 9)  [0D2E3D71]
Трек  4  точное извлечение (доверие 8)  [CC91D00E]
Трек  5  точное извлечение (доверие 8)  [6BA20835]
Трек  6  точное извлечение (доверие 8)  [B5C6C818]
Трек  7  точное извлечение (доверие 8)  [558AC306]
Трек  8  точное извлечение (доверие 8)  [32FF0328]
Трек  9  точное извлечение (доверие 8)  [6D8A4170]
Трек 10  точное извлечение (доверие 8)  [A904FBB2]
Трек 11  точное извлечение (доверие 8)  [D87F2AF0]
Трек 12  точное извлечение (доверие 8)  [BCC87F0F]
Трек 13  точное извлечение (доверие 9)  [49FE3EBE]
Трек 14  точное извлечение (доверие 9)  [3E42A7C1]
 
Все треки извлечены точно

Конец отчёта

Код:

REM GENRE "Alt. Rock"
REM DATE 2009
REM DISCID B70C210E
REM COMMENT "ExactAudioCopy v0.99pb5"
PERFORMER "Lumen"
TITLE "МИР"
FILE "Lumen - МИР.flac" WAVE
  TRACK 01 AUDIO
    TITLE "Последний Шанс"
    PERFORMER "Lumen"
    FLAGS DCP
    INDEX 01 00:00:00
  TRACK 02 AUDIO
    TITLE "Вся Вера и Любовь Этого Мира"
    PERFORMER "Lumen"
    FLAGS DCP
    INDEX 01 02:40:69
  TRACK 03 AUDIO
    TITLE "Гонка"
    PERFORMER "Lumen"
    FLAGS DCP
    INDEX 01 06:50:34
  TRACK 04 AUDIO
    TITLE "Лабиринт"
    PERFORMER "Lumen"
    FLAGS DCP
    INDEX 00 10:05:25
    INDEX 01 10:06:19
  TRACK 05 AUDIO
    TITLE "Слова"
    PERFORMER "Lumen"
    FLAGS DCP
    INDEX 00 14:29:63
    INDEX 01 14:30:14
  TRACK 06 AUDIO
    TITLE "Беги"
    PERFORMER "Lumen"
    FLAGS DCP
    INDEX 01 17:14:64
  TRACK 07 AUDIO
    TITLE "Не Надо Снов"
    PERFORMER "Lumen"
    FLAGS DCP
    INDEX 01 22:18:14
  TRACK 08 AUDIO
    TITLE "Осеннее Небо"
    PERFORMER "Lumen"
    FLAGS DCP
    INDEX 01 25:37:26
  TRACK 09 AUDIO
    TITLE "Паспорт"
    PERFORMER "Lumen"
    FLAGS DCP
    INDEX 01 30:24:74
  TRACK 10 AUDIO
    TITLE "Дотянуться До Звезды"
    PERFORMER "Lumen"
    FLAGS DCP
    INDEX 01 33:11:02
  TRACK 11 AUDIO
    TITLE "Другой Мир"
    PERFORMER "Lumen"
    FLAGS DCP
    INDEX 01 36:19:05
  TRACK 12 AUDIO
    TITLE "Секунда"
    PERFORMER "Lumen"
    FLAGS DCP
    INDEX 00 39:41:53
    INDEX 01 39:42:37
  TRACK 13 AUDIO
    TITLE "Ржавчина"
    PERFORMER "Lumen"
    FLAGS DCP
    INDEX 01 43:31:01
  TRACK 14 AUDIO
    TITLE "Когда..."
    PERFORMER "Lumen"
    FLAGS DCP
    INDEX 00 47:37:48
    INDEX 01 47:40:71
Лейбл:Lumen
Кат. номер: CD 04/11
CD 1
01. Intro (Тула) (2:54)
02. Syd & Nancy (Екатеринбург) (3:38)
03. Одной Крови (Иваново) (3:22)
04. Дотянуться До Звезды (Санкт - Петербург) (3:03)
05. Гонка (Томск) (3:21)
06. Нули И Единицы (Могилёв) (2:57)
07. Сколько? (Донецк) (3:57)
08. Слова (Ставрополь) (2:47)
09. Пора Орать! (Омск) (3:32)
10. Хватит! (Казань) (3:29)
11. Вся Вера И Любовь Этого Мира (Воронеж) (3:44)
CD 2
01. Лабиринт (Красноярск) (4:21)
02. Секунда (Самара) (3:43)
03. Не Надо Снов (Нижний Новгород) (3:20)
04. Тень (Новособирск) (3:44)
05. На Части (Минск) (4:37)
06. С4 (Краснодар) (3:20)
07. Далеко (Ижевск) (3:27)
08. F... Off! (Киев) (2:26)
09. Пока Ты Спал (Архангельск) (3:16)
10. Мама,Мы Все Тяжело Болны (Уфа) (3:53)
11. Паспорт (Ростов-на-Дону) (2:46)
12. Государство (Рязань) (2:45)
13. Марш Согласных (Вологда) (3:46)
14. Гореть (Москва) (6:17)
15. 6 Миллиардов (Яровлавль) (3:35)
16. Когда... (Пермь) (4:51)

Код:

Exact Audio Copy V1.0 beta 1 from 15. November 2010

Отчёт EAC об извлечении, выполненном 22. апреля 2011, 14:40

Lumen / Лабиринт (CD1)

Дисковод: Optiarc DVD RW AD-7203S   Adapter: 0  ID: 4

Режим чтения                 : Достоверность
Использование точного потока : Да
Отключение кэша аудио        : Да
Использование указателей C2  : Нет

Коррекция смещения при чтении                     : 48
Способность читать области Lead-in и Lead-out     : Нет
Заполнение пропущенных сэмплов тишиной            : Да
Удаление блоков с тишиной в начале и конце        : Нет
При вычислениях CRC использовались нулевые сэмплы : Да
Интерфейс                                         : Встроенный Win32-интерфейс для Win NT/2000

Выходной формат          : Пользовательский кодировщик
Выбранный битрейт        : 1024 kBit/s
Качество                 : Высокий
Добавление ID3-тега      : Нет
Утилита сжатия           : C:\Program Files (x86)\Exact Audio Copy\Flac\flac.exe
Дополнительные параметры : -8 -V -T "ARTIST=%a" -T "TITLE=%t" -T "ALBUM=%g" -T "DATE=%y" -T "TRACKNUMBER=%n" -T "GENRE=%m" -T "COMMENT=EAC FLAC -8" %s

TOC извлечённого CD

     Трек |   Старт  | Длительность | Начальный сектор | Конечный сектор
    ---------------------------------------------------------------------
       1  |  0:00.00 |    2:53.71   |           0      |      13045     
       2  |  2:53.71 |    3:38.06   |       13046      |      29401     
       3  |  6:32.02 |    3:21.53   |       29402      |      44529     
       4  |  9:53.55 |    3:03.17   |       44530      |      58271     
       5  | 12:56.72 |    3:20.39   |       58272      |      73310     
       6  | 16:17.36 |    2:57.05   |       73311      |      86590     
       7  | 19:14.41 |    3:56.43   |       86591      |     104333     
       8  | 23:11.09 |    2:46.70   |      104334      |     116853     
       9  | 25:58.04 |    3:32.11   |      116854      |     132764     
      10  | 29:30.15 |    3:28.72   |      132765      |     148436     
      11  | 32:59.12 |    3:43.74   |      148437      |     165235     

Характеристики диапазона извлечения и сообщения об ошибках

Выбранный диапазон

     Имя файла E:\Раздача\Музыка (LossLess)\Lumen (Дискография)\(11) 2011 - Лабиринт\CD1\Lumen - Лабиринт (CD1).wav

     Пиковый уровень 100.0 %
     Скорость извлечения 0.3 X
     Качество диапазона 100.0 %
     CRC теста ED3EC779
     CRC копии ED3EC779
     Копирование... OK

Ошибок не произошло

 
AccurateRip: сводка
 
Трек  1  отсутствует в базе данных
Трек  2  отсутствует в базе данных
Трек  3  отсутствует в базе данных
Трек  4  отсутствует в базе данных
Трек  5  отсутствует в базе данных
Трек  6  отсутствует в базе данных
Трек  7  отсутствует в базе данных
Трек  8  отсутствует в базе данных
Трек  9  отсутствует в базе данных
Трек 10  отсутствует в базе данных
Трек 11  отсутствует в базе данных
 
Ни одного трека нет в базе AccurateRip

Конец отчёта

==== Контрольная сумма отчёта C181BD68DC0F674B83BE533522B9757FC28392119C8D44E0F8CB6C749D15B92C ====

Код:

Exact Audio Copy V1.0 beta 1 from 15. November 2010

Отчёт EAC об извлечении, выполненном 22. апреля 2011, 15:18

Lumen / Лабиринт (CD2)

Дисковод: Optiarc DVD RW AD-7203S   Adapter: 0  ID: 4

Режим чтения                 : Достоверность
Использование точного потока : Да
Отключение кэша аудио        : Да
Использование указателей C2  : Нет

Коррекция смещения при чтении                     : 48
Способность читать области Lead-in и Lead-out     : Нет
Заполнение пропущенных сэмплов тишиной            : Да
Удаление блоков с тишиной в начале и конце        : Нет
При вычислениях CRC использовались нулевые сэмплы : Да
Интерфейс                                         : Встроенный Win32-интерфейс для Win NT/2000

Выходной формат          : Пользовательский кодировщик
Выбранный битрейт        : 1024 kBit/s
Качество                 : Высокий
Добавление ID3-тега      : Нет
Утилита сжатия           : C:\Program Files (x86)\Exact Audio Copy\Flac\flac.exe
Дополнительные параметры : -8 -V -T "ARTIST=%a" -T "TITLE=%t" -T "ALBUM=%g" -T "DATE=%y" -T "TRACKNUMBER=%n" -T "GENRE=%m" -T "COMMENT=EAC FLAC -8" %s

TOC извлечённого CD

     Трек |   Старт  | Длительность | Начальный сектор | Конечный сектор
    ---------------------------------------------------------------------
       1  |  0:00.00 |    4:21.01   |           0      |      19575     
       2  |  4:21.01 |    3:42.55   |       19576      |      36280     
       3  |  8:03.56 |    3:20.18   |       36281      |      51298     
       4  | 11:23.74 |    3:44.07   |       51299      |      68105     
       5  | 15:08.06 |    4:37.05   |       68106      |      88885     
       6  | 19:45.11 |    3:20.03   |       88886      |     103888     
       7  | 23:05.14 |    3:27.22   |      103889      |     119435     
       8  | 26:32.36 |    2:25.55   |      119436      |     130365     
       9  | 28:58.16 |    3:16.29   |      130366      |     145094     
      10  | 32:14.45 |    3:52.52   |      145095      |     162546     
      11  | 36:07.22 |    2:45.39   |      162547      |     174960     
      12  | 38:52.61 |    2:44.50   |      174961      |     187310     
      13  | 41:37.36 |    3:46.08   |      187311      |     204268     
      14  | 45:23.44 |    6:16.54   |      204269      |     232522     
      15  | 51:40.23 |    3:34.73   |      232523      |     248645     
      16  | 55:15.21 |    4:51.05   |      248646      |     270475     

Характеристики диапазона извлечения и сообщения об ошибках

Выбранный диапазон

     Имя файла E:\Раздача\Музыка (LossLess)\Lumen (Дискография)\(11) 2011 - Лабиринт\CD2\Lumen - Лабиринт (CD2).wav

     Пиковый уровень 100.0 %
     Скорость извлечения 0.3 X
     Качество диапазона 100.0 %
     CRC теста 757DC43E
     CRC копии 757DC43E
     Копирование... OK

Ошибок не произошло

 
AccurateRip: сводка
 
Трек  1  отсутствует в базе данных
Трек  2  отсутствует в базе данных
Трек  3  отсутствует в базе данных
Трек  4  отсутствует в базе данных
Трек  5  отсутствует в базе данных
Трек  6  отсутствует в базе данных
Трек  7  отсутствует в базе данных
Трек  8  отсутствует в базе данных
Трек  9  отсутствует в базе данных
Трек 10  отсутствует в базе данных
Трек 11  отсутствует в базе данных
Трек 12  отсутствует в базе данных
Трек 13  отсутствует в базе данных
Трек 14  отсутствует в базе данных
Трек 15  отсутствует в базе данных
Трек 16  отсутствует в базе данных
 
Ни одного трека нет в базе AccurateRip

Конец отчёта

==== Контрольная сумма отчёта 4CF4978ABF62B876B9BE9186BC3D4CEC5C973554713075A29C3E843C640642CF ====

Код:

REM GENRE Rock
REM DATE 2011
REM DISCID AE089B0B
REM COMMENT "ExactAudioCopy v1.0b1"
PERFORMER "Lumen"
TITLE "Лабиринт (CD1)"
FILE "Lumen - Лабиринт (CD1).flac" WAVE
  TRACK 01 AUDIO
    TITLE "Intro (Тула)"
    PERFORMER "Lumen"
    FLAGS DCP
    INDEX 01 00:00:00
  TRACK 02 AUDIO
    TITLE "Syd & Nancy (Екатеринбург)"
    PERFORMER "Lumen"
    FLAGS DCP
    INDEX 01 02:53:71
  TRACK 03 AUDIO
    TITLE "Одной Крови (Иваново)"
    PERFORMER "Lumen"
    FLAGS DCP
    INDEX 01 06:32:02
  TRACK 04 AUDIO
    TITLE "Дотянуться До Звезды (Санкт - Петербург)"
    PERFORMER "Lumen"
    FLAGS DCP
    INDEX 01 09:53:55
  TRACK 05 AUDIO
    TITLE "Гонка (Томск)"
    PERFORMER "Lumen"
    FLAGS DCP
    INDEX 01 12:56:72
  TRACK 06 AUDIO
    TITLE "Нули И Единицы (Могилёв)"
    PERFORMER "Lumen"
    FLAGS DCP
    INDEX 01 16:17:36
  TRACK 07 AUDIO
    TITLE "Сколько? (Донецк)"
    PERFORMER "Lumen"
    FLAGS DCP
    INDEX 01 19:14:41
  TRACK 08 AUDIO
    TITLE "Слова (Ставрополь)"
    PERFORMER "Lumen"
    FLAGS DCP
    INDEX 01 23:11:09
  TRACK 09 AUDIO
    TITLE "Пора Орать! (Омск)"
    PERFORMER "Lumen"
    FLAGS DCP
    INDEX 01 25:58:04
  TRACK 10 AUDIO
    TITLE "Хватит! (Казань)"
    PERFORMER "Lumen"
    FLAGS DCP
    INDEX 01 29:30:15
  TRACK 11 AUDIO
    TITLE "Вся Вера И Любовь Этого Мира (Воронеж)"
    PERFORMER "Lumen"
    FLAGS DCP
    INDEX 01 32:59:12

Код:

REM GENRE Rock
REM DATE 2011
REM DISCID EB0E1610
REM COMMENT "ExactAudioCopy v1.0b1"
PERFORMER "Lumen"
TITLE "Лабиринт (CD2)"
FILE "Lumen - Лабиринт (CD2).flac" WAVE
  TRACK 01 AUDIO
    TITLE "Лабиринт (Красноярск)"
    PERFORMER "Lumen"
    FLAGS DCP
    INDEX 01 00:00:00
  TRACK 02 AUDIO
    TITLE "Секунда (Самара)"
    PERFORMER "Lumen"
    FLAGS DCP
    INDEX 01 04:21:01
  TRACK 03 AUDIO
    TITLE "Не Надо Снов (Нижний Новгород)"
    PERFORMER "Lumen"
    FLAGS DCP
    INDEX 01 08:03:56
  TRACK 04 AUDIO
    TITLE "Тень (Новособирск)"
    PERFORMER "Lumen"
    FLAGS DCP
    INDEX 01 11:23:74
  TRACK 05 AUDIO
    TITLE "На Части (Минск)"
    PERFORMER "Lumen"
    FLAGS DCP
    INDEX 01 15:08:06
  TRACK 06 AUDIO
    TITLE "С4 (Краснодар)"
    PERFORMER "Lumen"
    FLAGS DCP
    INDEX 01 19:45:11
  TRACK 07 AUDIO
    TITLE "Далеко (Ижевск)"
    PERFORMER "Lumen"
    FLAGS DCP
    INDEX 01 23:05:14
  TRACK 08 AUDIO
    TITLE "F... Off! (Киев)"
    PERFORMER "Lumen"
    FLAGS DCP
    INDEX 01 26:32:36
  TRACK 09 AUDIO
    TITLE "Пока Ты Спал (Архангельск)"
    PERFORMER "Lumen"
    FLAGS DCP
    INDEX 01 28:58:16
  TRACK 10 AUDIO
    TITLE "Мама,Мы Все Тяжело Болны (Уфа)"
    PERFORMER "Lumen"
    FLAGS DCP
    INDEX 01 32:14:45
  TRACK 11 AUDIO
    TITLE "Паспорт (Ростов-на-Дону)"
    PERFORMER "Lumen"
    FLAGS DCP
    INDEX 01 36:07:22
  TRACK 12 AUDIO
    TITLE "Государство (Рязань)"
    PERFORMER "Lumen"
    FLAGS DCP
    INDEX 01 38:52:61
  TRACK 13 AUDIO
    TITLE "Марш Согласных (Вологда)"
    PERFORMER "Lumen"
    FLAGS DCP
    INDEX 01 41:37:36
  TRACK 14 AUDIO
    TITLE "Гореть (Москва)"
    PERFORMER "Lumen"
    FLAGS DCP
    INDEX 01 45:23:44
  TRACK 15 AUDIO
    TITLE "6 Миллиардов (Яровлавль)"
    PERFORMER "Lumen"
    FLAGS DCP
    INDEX 01 51:40:23
  TRACK 16 AUDIO
    TITLE "Когда... (Пермь)"
    PERFORMER "Lumen"
    FLAGS DCP
    INDEX 01 55:15:21

info [Профиль]  [ЛС] 

post 21-Окт-2010 12:57 (спустя 49 минут) [-]0[+]

Топик был перенесен из форума Оформление раздач в форум Rосk, Punk, Alternative (losslеss)

Oneguns
 

Resistance

Пол: Пол:Муж

Стаж: 12 лет

Сообщений: 3640

Россия
Рейтинг

post 21-Окт-2010 12:57 (спустя 50 минут) [-]0[+]

[Цитировать] 

Последний альбом перекодировал с потрекового флака в макаку.
info [Профиль]  [ЛС] 

Advanced

Стаж: 11 лет

Сообщений: 11

Предупреждений: 1

Рейтинг

post 21-Окт-2010 19:25 (спустя 6 часов) [-]0[+]

[Цитировать] 

Моя любимая группа
info [Профиль]  [ЛС] 

Melhior

Пол: Пол:Муж

Стаж: 11 лет

Сообщений: 710

Украина
Рейтинг

post 21-Окт-2010 20:17 (спустя 52 минуты) [-]0[+]

[Цитировать] 

спасибо,обажаю эту группу)
info [Профиль]  [ЛС] 

lost1994

Пол: Пол:Муж

Стаж: 11 лет

Сообщений: 243

Россия
Рейтинг

post 21-Окт-2010 20:25 (спустя 8 минут) [-]-1[+]

[Цитировать] 

вот как моя радача так никто не качает, а как еще кто, так "любимая группа"... не честно! а за раздачу спасибо))) только все равно никак не могу понять чем слушать данный формат)))
info [Профиль]  [ЛС] 

Bulykin17

Пол: Пол:Муж

Стаж: 12 лет

Сообщений: 346

США
Рейтинг

post 21-Окт-2010 20:27 (спустя 2 минуты) [-]0[+]

[Цитировать] 

Спасибо.Особо с ними не знаком,но они выделяются среди наших,остальные группы для меня полный шлак. Краснею Сид и Нэнси нравится Улыбаюсь
info [Профиль]  [ЛС] 

lost1994

Пол: Пол:Муж

Стаж: 11 лет

Сообщений: 243

Россия
Рейтинг

post 21-Окт-2010 20:34 (спустя 6 минут) [-]0[+]

[Цитировать] 

сид и ненси всем нравится. а если вдуматься, то она ваще ниачем!! многие их песни имеют более глубокий смысл)))
info [Профиль]  [ЛС] 

Resistance

Пол: Пол:Муж

Стаж: 12 лет

Сообщений: 3640

Россия
Рейтинг

post 21-Окт-2010 20:37 (спустя 2 минуты) [-]0[+]

[Цитировать] 

lost1994
Как можно сравнивать дискографию в лосе и концерт?

добавлено спустя 40 секунд:

И вы знаете кто такие были Сид и Нэнси?
info [Профиль]  [ЛС] 

lost1994

Пол: Пол:Муж

Стаж: 11 лет

Сообщений: 243

Россия
Рейтинг

post 21-Окт-2010 20:39 (спустя 2 минуты) [-]0[+]

[Цитировать] 

какая разница какой формат?? а песни на этом концерте звучат круче любой студийки)))ИМХО Сид и Ненси?? конечн знаю)) Басист Sex Pistols ну и девушка его)) он ее убил, а потом сам в тюрьме умер от передоза героином)))
info [Профиль]  [ЛС] 

Resistance

Пол: Пол:Муж

Стаж: 12 лет

Сообщений: 3640

Россия
Рейтинг

post 21-Окт-2010 20:44 (спустя 5 минут) [-]0[+]

[Цитировать] 

lost1994
Мдаааа, вы хоть разницу между лосем и мп3 понимаете? И прекратите рекламировать свою раздачу и внимательно посмотрите альбомы и поймете что первое предложение ваше бессмысленно и необоснованно.
info [Профиль]  [ЛС] 

lost1994

Пол: Пол:Муж

Стаж: 11 лет

Сообщений: 243

Россия
Рейтинг

post 21-Окт-2010 20:47 (спустя 2 минуты) [-]-1[+]

[Цитировать] 

вот все указывают на мое незнание. на всех раздачах. и хоть бы кто объяснил в чем разница)))
info [Профиль]  [ЛС] 

Resistance

Пол: Пол:Муж

Стаж: 12 лет

Сообщений: 3640

Россия
Рейтинг

post 21-Окт-2010 20:54 (спустя 7 минут) [-]0[+]

[Цитировать] 

lost1994
Вас в гугле забанили?

добавлено спустя 12 секунд:

Читайте - http://ru.wikipedia.org/wiki/Lossless
info [Профиль]  [ЛС] 

lost1994

Пол: Пол:Муж

Стаж: 11 лет

Сообщений: 243

Россия
Рейтинг

post 21-Окт-2010 21:09 (спустя 15 минут) [-]0[+]

[Цитировать] 

короче, это влияет на качество насколько я понял. но, блин, с моими колонками, хоть AMR)))
info [Профиль]  [ЛС] 

Resistance

Пол: Пол:Муж

Стаж: 12 лет

Сообщений: 3640

Россия
Рейтинг

post 21-Окт-2010 21:36 (спустя 26 минут) [-]0[+]

[Цитировать] 

lost1994
Прекратите флудить.
info [Профиль]  [ЛС] 

Resistance

Пол: Пол:Муж

Стаж: 12 лет

Сообщений: 3640

Россия
Рейтинг

post 24-Ноя-2010 22:30 (спустя 1 месяц 3 дня) [-]0[+]

[Цитировать] 

Раздача обновлена! Теперь в раздаче все идеальные рипы и добавлены ковры.
За материал благодарю Voodookasahn с рутрекера.
info [Профиль]  [ЛС] 

Морг

Пол: Пол:Муж

Стаж: 11 лет

Сообщений: 107

Россия
Рейтинг

post 25-Ноя-2010 20:41 (спустя 22 часа) [-]0[+]

[Цитировать] 

Спасибо) 2го декабря собираюсь на их концерт Улыбаюсь (Самара)
info [Профиль]  [ЛС] 

Resistance

Пол: Пол:Муж

Стаж: 12 лет

Сообщений: 3640

Россия
Рейтинг

post 19-Дек-2011 18:55 (спустя 1 год) [-]0[+]

[Цитировать] 

Раздача обновлена! В раздачу добавлен альбом 2011 - Лабиринт
info [Профиль]  [ЛС] 

MaxRobocop

Пол: Пол:Муж

Стаж: 8 лет 8 месяцев

Сообщений: 39

Россия
Рейтинг

post 14-Апр-2013 23:44 (спустя 1 год 3 месяца) [-]0[+]

[Цитировать] 

самые любимые
info [Профиль]  [ЛС] 

Roman_Che

Пол: Пол:Муж

Стаж: 7 лет 1 месяц

Сообщений: 33

Россия
Рейтинг

post 17-Мар-2015 04:13 (спустя 1 год 11 месяцев) [-]0[+]

[Цитировать] 

А можно где-нибудь достать все тоже самое, только потреково? Не все песни я одинаково люблю, а хранить целый альбом в телефоне, ради 3-5 песен - как-то не хочется.
info [Профиль]  [ЛС] 

nepirat

Пол: Пол:Муж

Стаж: 8 лет 10 месяцев

Сообщений: 2

Гаити
Рейтинг

post 30-Май-2016 22:59 (спустя 1 год 2 месяца) [-]0[+]

[Цитировать] 

сид ау

_________________
смекаешь?
info [Профиль]  [ЛС] 

81maz

Пол: Пол:Муж

Стаж: 10 лет

Сообщений: 18

Украина
Рейтинг

post 24-Ноя-2016 23:04 (спустя 5 месяцев 25 дней) [-]0[+]

[Цитировать] 

Resistance
Встань,пожалуйста,на раздачу kolob_102
info [Профиль]  [ЛС] 

Exanimis

Пол: Пол:Муж

Стаж: 1 год 6 месяцев

Сообщений: 5

Россия
Рейтинг

post 01-Мар-2021 09:08 (спустя 4 года 3 месяца) [-]0[+]

[Цитировать] 

Нарооод, встаньте на раздачу пожалуйста...
info [Профиль]  [ЛС] 

mathew_911

Пол: Пол:Муж

Стаж: 2 года 1 месяц

Сообщений: 1

Россия
Рейтинг

post 30-Сен-2021 22:58 (спустя 6 месяцев 29 дней) [-]0[+]

[Цитировать] 

Спасибо огромное!

добавлено спустя 2 минуты 39 секунд:

Блин. Раздайте кто нибудь. Пожалуйста!
info [Профиль]  [ЛС] 
Показать сообщения:    
Ответить на тему

Текущее время: 02-Дек 05:08

Часовой пояс: GMT + 4



Вы не можете начинать темы
Вы не можете отвечать на сообщения
Вы не можете редактировать свои сообщения
Вы не можете удалять свои сообщения
Вы не можете голосовать в опросах
Вы не можете прикреплять файлы к сообщениям
Вы не можете скачивать файлы