Ошибка

(Score) Final Fantasy VII Remake Intergrade (Original Soundtrack) (by Nobuo Uematsu, Shotaro Shima, Yoshinori Nakamura, Masashi Hamauzu, Yoshitaka Suzuki, Mitsuto Suzuki & VA) - 2021 г., FLAC (tracks), lossless

Ответить на тему
 
Автор Сообщение

Seymur339

Пол: Пол:Муж

Стаж: 2 года

Сообщений: 436

Россия
Рейтинг

post 22-Июн-2022 01:27 0[+]

[Цитировать] 


Final Fantasy VII Remake Intergrade
Original Soundtrack

Жанр: Score
Год выпуска: Jun 23, 2021
Композиторы: Nobuo Uematsu, Shotaro Shima, Yoshinori Nakamura, Masashi Hamauzu, Yoshitaka Suzuki, Mitsuto Suzuki, Shootie HG, Tsuyoshi Sekito, George Kano, A5SEMBLER, Nozomi Toki, Ryo Furukawa
Аранжировка: Shotaro Shima, Yoshinori Nakamura, Yoshitaka Suzuki, Mitsuto Suzuki, Shootie HG, Tsuyoshi Sekito, George Kano, Naoyuki Honzawa, Kengo Tokusashi, Ryo Furukawa, Masashi Hamauzu, TOMISIRO
Контейнер: FLAC
Тип рипа: tracks
Битрейт аудио: lossless
Издатель: SQUARE ENIX MUSIC
Ссылка на официальность: vgmdb
Номер издания: SQEX-10806
Продолжительность: 03:49:07
Носитель: CD
Источник: fffcvn
Наличие сканов в содержимом раздачи: Только обложка альбома
--------------------------------------------------------------------------------------
DISC 1 (29 / 1:16:45)
--------------------------------------------------------------------------------------
01. Your Girl Finally Made It (2:26)
02. Descendant of Shinobi (3:21)
03. Descendant of Shinobi - Battle Edit (3:23)
04. No Pom (1:56)
05. Gotta Do Something! (1:41)
06. Ninjas Are Insane (1:20)
07. Avalanche HQ's Theme (3:03)
08. Fort Condor (3:30)
09. Fort Condor - Press the Advantage! (2:18)
10. Fort Condor - Hold the Line! (2:22)
11. Fort Condor - Sudden Death (2:14)
12. Fort Condor - Victory (1:03)
13. Fort Condor - Defeat (1:08)
14. Ramuh, Lord of Levin (4:24)
15. Sonon's Theme (4:09)
16. A Hero Lost (3:47)
17. Lackey Beatdown (1:22)
18. The Happy Turtle Fight Song (3:59)
19. Shinra's Victim (2:21)
20. The Runaround Pt. I (2:36)
21. The Runaround - Drum Solo (2:09)
22. The Runaround Pt. II (3:41)
23. The Runaround Pt. III (4:12)
24. The Runaround Pt. IV (2:19)
25. The Runaround Pt. V (2:14)
26. Quiet as a Mouse (1:05)
27. Good Morning, Levrikon? (4:01)
28. Main Pillar Maintenance (2:25)
29. Hey, You! Evildoers! (2:30)
--------------------------------------------------------------------------------------
DISC 2 (29 / 1:16:25)
--------------------------------------------------------------------------------------
01. The Gigantipede (6:09)
02. The Ws Have It (1:32)
03. Revenge Sworn (1:17)
04. Shinra's Theme - On Schedule (1:57)
05. Salt in the Wound (1:52)
06. Melphie and Sonon (1:09)
07. Advanced Weaponry (4:14)
08. Scarlet's Welcome (3:55)
09. Rolling Out the Red Carpet (1:13)
10. Materia Production (2:03)
11. Materia Production - Battle Edit (2:15)
12. The Shadow of Materia (3:14)
13. Cruelty Personified (1:45)
14. No Escape (3:07)
15. Fighting Spirit (3:35)
16. Sadistic Test Run (1:17)
17. The Crimson Mare (5:38)
18. Win or Lose (1:00)
19. Weiss and Nero (1:31)
20. Unexpected Threat (1:10)
21. Deepground SOLDIERs (3:03)
22. Commence the Cleansing (1:18)
23. Pain Sensation Level: Max (4:02)
24. Diabolic Creation (4:28)
25. Murmurs from the Darkness (2:26)
26. Prelude to Death (1:24)
27. Dissonance (4:05)
28. Chaotic Pulsars (1:00)
29. Nero the Sable (5:00)
--------------------------------------------------------------------------------------
DISC 3 (28 / 1:15:59)
--------------------------------------------------------------------------------------
01. The Abyss (0:35)
02. Chorus of Pain, Dance of Death (5:14)
03. The Throes of Rapture (0:36)
04. Seeing Melphie Again (4:24)
05. Facing Disaster (1:08)
06. The Sky's the Limit (1:19)
07. The Journey Continues - Good-bye, City of Mako (5:21)
08. Beyond Simulation (1:16)
09. Weiss the Immaculate (6:05)
10. Corrupter of the Immaculate (0:47)
11. The Happy Turtle Jingle (3:33)
12. Why Can't I Be a Turtle? (4:58)
13. Turtle Doo-wop (3:07)
14. The Happy Turtle Jingle ft. Old Snapper (3:32)
15. Give In to the Riptide (2:10)
16. You, Me (Sun, Surf, and Beach) (4:08)
17. Technologic Terrapin (2:15)
18. Turtle Flyer Fanfare (0:10)
19. Extravagant Turtle Flyer Fanfare (0:16)
20. The Happy Turtle Jingle (3:33)
21. Why Can't I Be a Turtle? (4:58)
22. Turtle Doo-wop (3:07)
23. The Happy Turtle Jingle ft. Old Snapper (3:32)
24. Give In to the Riptide (3:26)
25. You, Me (Sun, Surf, and Beach) (4:08)
26. Technologic Terrapin (2:15)
27. Turtle Flyer Fanfare (0:10)
28. Extravagant Turtle Flyer Fanfare (0:12)
 
AUDIOCHECKER v2.0 beta (build 457) - by Dester - opdester@freemail.hu
~~~~~~~~~~~~~~~~~~~~~~~~~~~~~~~~~~
-=== НЕ РЕДАКТИРУЙТЕ ЭТОТ ФАЙЛ! ===-

Путь: ...\DISC 1

01 -=- 01 Your Girl Finally Made It.flac -=- CDDA (100%)
02 -=- 02 Descendant of Shinobi.flac -=- CDDA (100%)
03 -=- 03 Descendant of Shinobi - Battle Edit.flac -=- CDDA (100%)
04 -=- 04 No Pom.flac -=- CDDA (99%)
05 -=- 05 Gotta Do Something!.flac -=- CDDA (99%)
06 -=- 06 Ninjas Are Insane.flac -=- CDDA (100%)
07 -=- 07 Avalanche HQ's Theme.flac -=- CDDA (99%)
08 -=- 08 Fort Condor.flac -=- CDDA (100%)
09 -=- 09 Fort Condor - Press the Advantage!.flac -=- CDDA (100%)
10 -=- 10 Fort Condor - Hold the Line!.flac -=- CDDA (100%)
11 -=- 11 Fort Condor - Sudden Death.flac -=- CDDA (100%)
12 -=- 12 Fort Condor - Victory.flac -=- CDDA (99%)
13 -=- 13 Fort Condor - Defeat.flac -=- CDDA (100%)
14 -=- 14 Ramuh, Lord of Levin.flac -=- CDDA (100%)
15 -=- 15 Sonon's Theme.flac -=- CDDA (99%)
16 -=- 16 A Hero Lost.flac -=- CDDA (87%)
17 -=- 17 Lackey Beatdown.flac -=- CDDA (100%)
18 -=- 18 The Happy Turtle Fight Song.flac -=- CDDA (100%)
19 -=- 19 Shinra's Victim.flac -=- CDDA (100%)
20 -=- 20 The Runaround Pt. I.flac -=- CDDA (100%)
21 -=- 21 The Runaround - Drum Solo.flac -=- CDDA (100%)
22 -=- 22 The Runaround Pt. II.flac -=- CDDA (100%)
23 -=- 23 The Runaround Pt. III.flac -=- CDDA (99%)
24 -=- 24 The Runaround Pt. IV.flac -=- CDDA (100%)
25 -=- 25 The Runaround Pt. V.flac -=- CDDA (100%)
26 -=- 26 Quiet as a Mouse.flac -=- CDDA (100%)
27 -=- 27 Good Morning, Levrikon.flac -=- CDDA (100%)
28 -=- 28 Main Pillar Maintenance.flac -=- CDDA (100%)
29 -=- 29 Hey, You! Evildoers!.flac -=- CDDA (100%)

Сводка 99,34% CDDA

112399684
 
AUDIOCHECKER v2.0 beta (build 457) - by Dester - opdester@freemail.hu
~~~~~~~~~~~~~~~~~~~~~~~~~~~~~~~~~~
-=== НЕ РЕДАКТИРУЙТЕ ЭТОТ ФАЙЛ! ===-

Путь: ...\DISC 2

01 -=- 01 The Gigantipede.flac -=- CDDA (100%)
02 -=- 02 The Ws Have It.flac -=- CDDA (100%)
03 -=- 03 Revenge Sworn.flac -=- CDDA (100%)
04 -=- 04 Shinra's Theme - On Schedule.flac -=- CDDA (100%)
05 -=- 05 Salt in the Wound.flac -=- CDDA (99%)
06 -=- 06 Melphie and Sonon.flac -=- CDDA (100%)
07 -=- 07 Advanced Weaponry.flac -=- CDDA (100%)
08 -=- 08 Scarlet's Welcome.flac -=- CDDA (100%)
09 -=- 09 Rolling Out the Red Carpet.flac -=- CDDA (100%)
10 -=- 10 Materia Production.flac -=- MPEG (93%)
11 -=- 11 Materia Production - Battle Edit.flac -=- CDDA (100%)
12 -=- 12 The Shadow of Materia.flac -=- CDDA (99%)
13 -=- 13 Cruelty Personified.flac -=- CDDA (100%)
14 -=- 14 No Escape.flac -=- CDDA (100%)
15 -=- 15 Fighting Spirit.flac -=- CDDA (100%)
16 -=- 16 Sadistic Test Run.flac -=- CDDA (99%)
17 -=- 17 The Crimson Mare.flac -=- CDDA (99%)
18 -=- 18 Win or Lose.flac -=- CDDA (100%)
19 -=- 19 Weiss and Nero.flac -=- CDDA (100%)
20 -=- 20 Unexpected Threat.flac -=- CDDA (100%)
21 -=- 21 Deepground SOLDIERs.flac -=- CDDA (100%)
22 -=- 22 Commence the Cleansing.flac -=- CDDA (100%)
23 -=- 23 Pain Sensation Level- Max.flac -=- CDDA (100%)
24 -=- 24 Diabolic Creation.flac -=- CDDA (100%)
25 -=- 25 Murmurs from the Darkness.flac -=- CDDA (100%)
26 -=- 26 Prelude to Death.flac -=- CDDA (100%)
27 -=- 27 Dissonance.flac -=- CDDA (99%)
28 -=- 28 Chaotic Pulsars.flac -=- CDDA (100%)
29 -=- 29 Nero the Sable.flac -=- CDDA (99%)

Сводка 96,59% CDDA

168389860
 
AUDIOCHECKER v2.0 beta (build 457) - by Dester - opdester@freemail.hu
~~~~~~~~~~~~~~~~~~~~~~~~~~~~~~~~~~
-=== НЕ РЕДАКТИРУЙТЕ ЭТОТ ФАЙЛ! ===-

Путь: ...\DISC 3

01 -=- 01 The Abyss.flac -=- CDDA (99%)
02 -=- 02 Chorus of Pain, Dance of Death.flac -=- CDDA (100%)
03 -=- 03 The Throes of Rapture.flac -=- CDDA (100%)
04 -=- 04 Seeing Melphie Again.flac -=- CDDA (100%)
05 -=- 05 Facing Disaster.flac -=- CDDA (100%)
06 -=- 06 The Sky's the Limit.flac -=- CDDA (99%)
07 -=- 07 The Journey Continues - Good-bye, City of Mako.flac -=- CDDA (100%)
08 -=- 08 Beyond Simulation.flac -=- CDDA (99%)
09 -=- 09 Weiss the Immaculate.flac -=- CDDA (99%)
10 -=- 10 Corrupter of the Immaculate.flac -=- CDDA (100%)
11 -=- 11 The Happy Turtle Jingle.flac -=- CDDA (100%)
12 -=- 12 Why Can't I Be a Turtle.flac -=- CDDA (100%)
13 -=- 13 Turtle Doo-wop.flac -=- CDDA (100%)
14 -=- 14 The Happy Turtle Jingle ft. Old Snapper.flac -=- CDDA (100%)
15 -=- 15 Give In to the Riptide.flac -=- CDDA (100%)
16 -=- 16 You, Me (Sun, Surf, and Beach).flac -=- CDDA (100%)
17 -=- 17 Technologic Terrapin.flac -=- CDDA (100%)
18 -=- 18 Turtle Flyer Fanfare.flac -=- CDDA (100%)
19 -=- 19 Extravagant Turtle Flyer Fanfare.flac -=- CDDA (100%)
20 -=- 20 The Happy Turtle Jingle.flac -=- CDDA (100%)
21 -=- 21 Why Can't I Be a Turtle.flac -=- CDDA (100%)
22 -=- 22 Turtle Doo-wop.flac -=- CDDA (100%)
23 -=- 23 The Happy Turtle Jingle ft. Old Snapper.flac -=- CDDA (100%)
24 -=- 24 Give In to the Riptide.flac -=- CDDA (100%)
25 -=- 25 You, Me (Sun, Surf, and Beach).flac -=- CDDA (100%)
26 -=- 26 Technologic Terrapin.flac -=- CDDA (99%)
27 -=- 27 Turtle Flyer Fanfare.flac -=- CDDA (100%)
28 -=- 28 Extravagant Turtle Flyer Fanfare.flac -=- CDDA (100%)

Сводка 99,82% CDDA

121528356
 
foobar2000 1.5.5 / Замер динамического диапазона (DR) 1.1.1
Дата отчёта: 2022-06-21 01:20:26

--------------------------------------------------------------------------------
Анализ: George Kano, Mitsuto Suzuki / Final Fantasy VII Remake Intergrade (Original Soundtrack) (1)
Mitsuto Suzuki, Tsuyoshi Sekito / Final Fantasy VII Remake Intergrade (Original Soundtrack) (2-5)
Mitsuto Suzuki / Final Fantasy VII Remake Intergrade (Original Soundtrack) (6)
Naoyuki Honzawa / Final Fantasy VII Remake Intergrade (Original Soundtrack) (7-10)
Shootie HG, Mitsuto Suzuki / Final Fantasy VII Remake Intergrade (Original Soundtrack) (11)
Shotaro Shima / Final Fantasy VII Remake Intergrade (Original Soundtrack) (12-19)
Yoshinori Nakamura / Final Fantasy VII Remake Intergrade (Original Soundtrack) (20-22)
Yoshitaka Suzuki / Final Fantasy VII Remake Intergrade (Original Soundtrack) (23-29)
--------------------------------------------------------------------------------

DR Пики RMS Продолжительность трека
--------------------------------------------------------------------------------
DR9 0.00 дБ -10.33 дБ 2:08 21-The Runaround - Drum Solo
DR7 -0.03 дБ -8.24 дБ 2:35 20-The Runaround Pt. I
DR7 -0.04 дБ -8.50 дБ 3:40 22-The Runaround Pt. II
DR8 0.00 дБ -8.34 дБ 4:12 23-The Runaround Pt. III
DR8 -1.60 дБ -12.86 дБ 2:19 24-The Runaround Pt. IV
DR9 -0.16 дБ -12.05 дБ 1:21 17-Lackey Beatdown
DR10 0.00 дБ -11.62 дБ 2:14 25-The Runaround Pt. V
DR15 0.00 дБ -18.50 дБ 1:04 26-Quiet as a Mouse
DR7 0.00 дБ -8.04 дБ 4:01 27-Good Morning, Levrikon?
DR11 0.00 дБ -13.42 дБ 2:24 28-Main Pillar Maintenance
DR5 -0.06 дБ -6.95 дБ 3:58 18-The Happy Turtle Fight Song
DR8 -0.16 дБ -13.09 дБ 2:25 01-Your Girl Finally Made It
DR7 -0.16 дБ -9.17 дБ 3:20 02-Descendant of Shinobi
DR7 -0.16 дБ -8.99 дБ 3:23 03-Descendant of Shinobi - Battle Edit
DR7 -0.16 дБ -9.67 дБ 1:55 04-No Pom
DR8 -0.16 дБ -11.13 дБ 1:40 05-Gotta Do Something!
DR9 -0.16 дБ -12.22 дБ 4:09 15-Sonon's Theme
DR13 -0.16 дБ -16.22 дБ 3:47 16-A Hero Lost
DR7 -0.16 дБ -10.73 дБ 2:30 29-Hey, You! Evildoers!
DR12 -0.52 дБ -18.03 дБ 1:19 06-Ninjas Are Insane
DR8 0.00 дБ -10.66 дБ 3:03 07-Avalanche HQ's Theme
DR7 -0.16 дБ -10.45 дБ 2:20 19-Shinra's Victim
DR8 -0.16 дБ -9.98 дБ 3:30 08-Fort Condor
DR7 -0.16 дБ -8.63 дБ 2:18 09-Fort Condor - Press the Advantage!
DR8 -0.16 дБ -9.95 дБ 2:22 10-Fort Condor - Hold the Line!
DR7 -0.16 дБ -8.69 дБ 2:14 11-Fort Condor - Sudden Death
DR10 -0.16 дБ -13.79 дБ 1:03 12-Fort Condor - Victory
DR9 -0.18 дБ -11.44 дБ 1:08 13-Fort Condor - Defeat
DR7 -0.16 дБ -7.96 дБ 4:23 14-Ramuh, Lord of Levin
--------------------------------------------------------------------------------

Количество треков: 29
Реальные значения DR: DR8

Частота: 44100 Гц
Каналов: 2
Разрядность: 16
Битрейт: 963 кбит/с
Кодек: FLAC
================================================================================
 
foobar2000 1.5.5 / Замер динамического диапазона (DR) 1.1.1
Дата отчёта: 2022-06-21 01:21:27

--------------------------------------------------------------------------------
Анализ: Kengo Tokusashi, Mitsuto Suzuki / Final Fantasy VII Remake Intergrade (Original Soundtrack) (1-2)
Masashi Hamauzu / Final Fantasy VII Remake Intergrade (Original Soundtrack) (3-6)
Mitsuto Suzuki / Final Fantasy VII Remake Intergrade (Original Soundtrack) (7-8)
Ryo Furukawa / Final Fantasy VII Remake Intergrade (Original Soundtrack) (9-11)
Shotaro Shima / Final Fantasy VII Remake Intergrade (Original Soundtrack) (12-18)
Yoshinori Nakamura / Final Fantasy VII Remake Intergrade (Original Soundtrack) (19-25)
Yoshitaka Suzuki / Final Fantasy VII Remake Intergrade (Original Soundtrack) (26-29)
--------------------------------------------------------------------------------

DR Пики RMS Продолжительность трека
--------------------------------------------------------------------------------
DR7 -0.16 дБ -9.53 дБ 1:12 09-Rolling Out the Red Carpet
DR7 -0.16 дБ -9.94 дБ 3:14 12-The Shadow of Materia
DR9 -1.19 дБ -14.54 дБ 1:24 26-Prelude to Death
DR7 -0.16 дБ -9.91 дБ 4:04 27-Dissonance
DR10 -0.06 дБ -13.72 дБ 1:00 28-Chaotic Pulsars
DR8 -0.16 дБ -11.14 дБ 5:00 29-Nero the Sable
DR10 0.00 дБ -12.41 дБ 2:02 10-Materia Production
DR7 0.00 дБ -9.45 дБ 2:14 11-Materia Production - Battle Edit
DR8 0.00 дБ -10.11 дБ 4:01 23-Pain Sensation Level: Max
DR6 -0.16 дБ -7.89 дБ 4:28 24-Diabolic Creation
DR10 -0.18 дБ -13.83 дБ 2:26 25-Murmurs from the Darkness
DR7 -0.16 дБ -8.51 дБ 6:09 01-The Gigantipede
DR10 -0.18 дБ -14.04 дБ 1:16 03-Revenge Sworn
DR8 -0.16 дБ -11.11 дБ 1:57 04-Shinra's Theme - On Schedule
DR6 0.00 дБ -11.38 дБ 1:51 05-Salt in the Wound
DR11 -0.16 дБ -17.07 дБ 1:08 06-Melphie and Sonon
DR8 -0.16 дБ -10.14 дБ 4:14 07-Advanced Weaponry
DR8 0.00 дБ -9.62 дБ 3:55 08-Scarlet's Welcome
DR7 -0.36 дБ -8.30 дБ 1:31 02-The Ws Have It
DR9 -0.16 дБ -12.60 дБ 1:45 13-Cruelty Personified
DR8 -0.16 дБ -9.65 дБ 3:07 14-No Escape
DR5 -0.16 дБ -7.11 дБ 3:34 15-Fighting Spirit
DR7 -0.16 дБ -10.87 дБ 1:09 20-Unexpected Threat
DR7 -0.16 дБ -8.68 дБ 3:03 21-Deepground SOLDIERs
DR9 -0.06 дБ -12.13 дБ 1:17 22-Commence the Cleansing
DR7 -0.06 дБ -10.64 дБ 1:16 16-Sadistic Test Run
DR6 -0.16 дБ -7.12 дБ 5:38 17-The Crimson Mare
DR7 -0.16 дБ -9.60 дБ 0:59 18-Win or Lose
DR9 -0.26 дБ -12.67 дБ 1:30 19-Weiss and Nero
--------------------------------------------------------------------------------

Количество треков: 29
Реальные значения DR: DR8

Частота: 44100 Гц
Каналов: 2
Разрядность: 16
Битрейт: 631 кбит/с
Кодек: FLAC
================================================================================
 
foobar2000 1.5.5 / Замер динамического диапазона (DR) 1.1.1
Дата отчёта: 2022-06-21 01:21:53

--------------------------------------------------------------------------------
Анализ: Kengo Tokusashi / Final Fantasy VII Remake Intergrade (Original Soundtrack) (1-2)
Masashi Hamauzu / Final Fantasy VII Remake Intergrade (Original Soundtrack) (3-6)
Mitsuto Suzuki, Tsuyoshi Sekito / Final Fantasy VII Remake Intergrade (Original Soundtrack) (7-10)
Mitsuto Suzuki / Final Fantasy VII Remake Intergrade (Original Soundtrack) (11-17)
Shootie HG / Final Fantasy VII Remake Intergrade (Original Soundtrack) (18)
Shotaro Shima / Final Fantasy VII Remake Intergrade (Original Soundtrack) (19-23)
TOMISIRO / Final Fantasy VII Remake Intergrade (Original Soundtrack) (24-27)
Yoshitaka Suzuki / Final Fantasy VII Remake Intergrade (Original Soundtrack) (28)
--------------------------------------------------------------------------------

DR Пики RMS Продолжительность трека
--------------------------------------------------------------------------------
DR6 -0.66 дБ -11.93 дБ 0:15 19-Extravagant Turtle Flyer Fanfare
DR9 -0.84 дБ -10.27 дБ 0:11 28-Extravagant Turtle Flyer Fanfare
DR8 -2.08 дБ -17.39 дБ 0:35 01-The Abyss
DR7 -0.16 дБ -10.04 дБ 5:13 02-Chorus of Pain, Dance of Death
DR10 -0.16 дБ -14.93 дБ 0:36 03-The Throes of Rapture
DR7 -0.16 дБ -9.54 дБ 6:05 09-Weiss the Immaculate
DR7 0.00 дБ -8.85 дБ 3:32 14-The Happy Turtle Jingle ft. Old Snapper
DR8 0.00 дБ -9.24 дБ 4:07 16-You, Me (Sun, Surf, and Beach)
DR7 0.00 дБ -8.79 дБ 3:32 23-The Happy Turtle Jingle ft. Old Snapper
DR8 0.00 дБ -9.35 дБ 4:07 25-You, Me (Sun, Surf, and Beach)
DR8 0.00 дБ -8.81 дБ 3:32 11-The Happy Turtle Jingle
DR7 0.00 дБ -7.81 дБ 4:57 12-Why Can't I Be a Turtle?
DR6 -0.16 дБ -7.37 дБ 2:09 15-Give In to the Riptide
DR10 -2.64 дБ -13.32 дБ 0:09 18-Turtle Flyer Fanfare
DR8 0.00 дБ -8.94 дБ 3:32 20-The Happy Turtle Jingle
DR7 0.00 дБ -7.71 дБ 4:57 21-Why Can't I Be a Turtle?
DR11 -2.82 дБ -13.86 дБ 0:09 27-Turtle Flyer Fanfare
DR7 -0.16 дБ -7.91 дБ 3:25 24-Give In to the Riptide
DR8 -0.16 дБ -13.59 дБ 4:23 04-Seeing Melphie Again
DR6 -0.16 дБ -10.33 дБ 1:08 05-Facing Disaster
DR10 -0.16 дБ -16.25 дБ 1:18 06-The Sky's the Limit
DR12 -0.16 дБ -17.38 дБ 5:21 07-The Journey Continues - Good-bye, City of Mako
DR9 -0.01 дБ -12.77 дБ 0:46 10-Corrupter of the Immaculate
DR7 -0.33 дБ -9.08 дБ 3:06 13-Turtle Doo-wop
DR8 -0.54 дБ -10.37 дБ 2:14 17-Technologic Terrapin
DR7 -0.46 дБ -9.09 дБ 3:06 22-Turtle Doo-wop
DR8 -0.67 дБ -10.37 дБ 2:15 26-Technologic Terrapin
DR10 -0.72 дБ -13.45 дБ 1:16 08-Beyond Simulation
--------------------------------------------------------------------------------

Количество треков: 28
Реальные значения DR: DR8

Частота: 44100 Гц
Каналов: 2
Разрядность: 16
Битрейт: 662 кбит/с
Кодек: FLAC
================================================================================
info [Профиль]  [ЛС] 
Показать сообщения:    
Ответить на тему

Текущее время: 30-Июн 06:02

Часовой пояс: GMT + 4



Вы не можете начинать темы
Вы не можете отвечать на сообщения
Вы не можете редактировать свои сообщения
Вы не можете удалять свои сообщения
Вы не можете голосовать в опросах
Вы не можете прикреплять файлы к сообщениям
Вы не можете скачивать файлы