Ошибка

(Abstract Hip-Hop, Big Dada) Roots Manuva - 4everevolution - 2011, FLAC (tracks+.cue), lossless

Ответить на тему
 
Автор Сообщение

nemesises

Пол: Пол:Муж

Стаж: 9 лет 1 месяц

Сообщений: 24

Украина
Рейтинг

post 19-Май-2013 00:27 0[+]

[Цитировать] 

Roots Manuva - 4everevolution

Жанр: Abstract Hip-Hop
Страна-производитель диска: UK
Год издания диска: 2011
Издатель (лейбл): Big Dada
Номер по каталогу: BD190
Страна: UK
Аудиокодек: FLAC (*.flac)
Тип рипа: tracks+.cue
Битрейт аудио: lossless
Продолжительность: 01:05:25
Источник (релизер): what.cd (evensteven)
Наличие сканов в содержимом раздачи: нет

Треклист:
01. First Growth (3:10)
02. Here We Go Again (3:59)
03. Skid Valley (2:47)
04. Who Goes There? (2:55)
05. Watch Me Dance (4:06)
06. Revelation (4:18)
07. Wha' Mek? (4:41)
08. Takes Time (3:14)
09. Beyond This World (2:34)
10. Go Champ (2:20)
11. Get the Get (2:42)
12. Crow Bars (2:55)
13. The Throes of It (7:04)
14. Noddy (3:51)
15. Much Too Plush (3:14)
16. The Path (3:14)
17. Banana Skank (2:36)

CD Bonus Tracks:
18. Snake Bite (Bonus Track) (2:32)
19. Bust It (Bonus Track) (2:53)

Код:

Exact Audio Copy V1.0 beta 3 from 29. August 2011

EAC extraction logfile from 3. October 2011, 11:28

Roots Manuva / 4everevolution

Used drive  : PLEXTOR DVDR   PX-760A   Adapter: 3  ID: 0

Read mode               : Secure
Utilize accurate stream : Yes
Defeat audio cache      : Yes
Make use of C2 pointers : No

Read offset correction                      : 30
Overread into Lead-In and Lead-Out          : Yes
Fill up missing offset samples with silence : Yes
Delete leading and trailing silent blocks   : No
Null samples used in CRC calculations       : Yes
Used interface                              : Native Win32 interface for Win NT & 2000
Gap handling                                : Appended to previous track

Used output format              : User Defined Encoder
Selected bitrate                : 1024 kBit/s
Quality                         : High
Add ID3 tag                     : No
Command line compressor         : C:\Program Files (x86)\Exact Audio Copy\Flac\flac.exe
Additional command line options : -8 -V -T "ARTIST=%artist%" -T "TITLE=%title%" -T "ALBUM=%albumtitle%" -T "DATE=%year%" -T "TRACKNUMBER=%tracknr%" -T "GENRE=%genre%" -T "PERFORMER=%albuminterpret%" -T "COMPOSER=%composer%" %haslyrics%--tag-from-file=LYRICS="%lyricsfile%"%haslyrics% -T "ALBUMARTIST=%albumartist%" -T "ALBUM ARTIST=%albumartist%" -T "DISCNUMBER=%cdnumber%" -T "TOTALDISCS=%totalcds%" -T "TOTALTRACKS=%numtracks%" -T "COMMENT=%comment%" %source% -o %dest%

TOC of the extracted CD

     Track |   Start  |  Length  | Start sector | End sector
    ---------------------------------------------------------
        1  |  0:00.00 |  3:08.28 |         0    |    14127
        2  |  3:08.28 |  3:59.12 |     14128    |    32064
        3  |  7:07.40 |  2:46.25 |     32065    |    44539
        4  |  9:53.65 |  2:55.30 |     44540    |    57694
        5  | 12:49.20 |  4:05.50 |     57695    |    76119
        6  | 16:54.70 |  4:17.33 |     76120    |    95427
        7  | 21:12.28 |  4:40.62 |     95428    |   116489
        8  | 25:53.15 |  3:13.53 |    116490    |   131017
        9  | 29:06.68 |  2:33.35 |    131018    |   142527
       10  | 31:40.28 |  2:19.72 |    142528    |   153024
       11  | 34:00.25 |  2:41.65 |    153025    |   165164
       12  | 36:42.15 |  2:54.50 |    165165    |   178264
       13  | 39:36.65 |  7:03.70 |    178265    |   210059
       14  | 46:40.60 |  3:51.08 |    210060    |   227392
       15  | 50:31.68 |  3:13.20 |    227393    |   241887
       16  | 53:45.13 |  3:14.42 |    241888    |   256479
       17  | 56:59.55 |  2:55.28 |    256480    |   269632
       18  | 59:55.08 |  2:31.67 |    269633    |   281024
       19  | 62:27.00 |  2:52.68 |    281025    |   293992

Track  1

     Filename C:\EACRips\01 First Growth.wav

     Pre-gap length  0:00:02.00

     Peak level 89.0 %
     Extraction speed 2.1 X
     Track quality 100.0 %
     Test CRC 0EE51DE3
     Copy CRC 0EE51DE3
     Track not present in AccurateRip database
     Copy OK

Track  2

     Filename C:\EACRips\02 Here We Go Again.wav

     Peak level 89.0 %
     Extraction speed 2.2 X
     Track quality 100.0 %
     Test CRC A9D0BC72
     Copy CRC A9D0BC72
     Track not present in AccurateRip database
     Copy OK

Track  3

     Filename C:\EACRips\03 Skid Valley.wav

     Pre-gap length  0:00:00.62

     Peak level 98.0 %
     Extraction speed 1.3 X
     Track quality 99.9 %
     Test CRC 9D880691
     Copy CRC 9D880691
     Track not present in AccurateRip database
     Copy OK

Track  4

     Filename C:\EACRips\04 Who Goes There.wav

     Pre-gap length  0:00:00.06

     Peak level 98.0 %
     Extraction speed 2.1 X
     Track quality 100.0 %
     Test CRC BE51298C
     Copy CRC BE51298C
     Track not present in AccurateRip database
     Copy OK

Track  5

     Filename C:\EACRips\05 Watch Me Dance.wav

     Pre-gap length  0:00:00.73

     Peak level 88.9 %
     Extraction speed 1.5 X
     Track quality 99.9 %
     Test CRC 36EE7831
     Copy CRC 36EE7831
     Track not present in AccurateRip database
     Copy OK

Track  6

     Filename C:\EACRips\06 Revelation.wav

     Peak level 98.0 %
     Extraction speed 2.2 X
     Track quality 100.0 %
     Test CRC BFF01F3A
     Copy CRC BFF01F3A
     Track not present in AccurateRip database
     Copy OK

Track  7

     Filename C:\EACRips\07 Wha' Mek.wav

     Pre-gap length  0:00:00.44

     Peak level 98.0 %
     Extraction speed 1.6 X
     Track quality 99.9 %
     Test CRC 7E1BC4D6
     Copy CRC 7E1BC4D6
     Track not present in AccurateRip database
     Copy OK

Track  8

     Filename C:\EACRips\08 Takes Time To.wav

     Pre-gap length  0:00:00.26

     Peak level 98.0 %
     Extraction speed 2.1 X
     Track quality 100.0 %
     Test CRC 4E9056BB
     Copy CRC 4E9056BB
     Track not present in AccurateRip database
     Copy OK

Track  9

     Filename C:\EACRips\09 Beyond This World.wav

     Pre-gap length  0:00:00.77

     Peak level 89.1 %
     Extraction speed 2.0 X
     Track quality 100.0 %
     Test CRC 03EB5770
     Copy CRC 03EB5770
     Track not present in AccurateRip database
     Copy OK

Track 10

     Filename C:\EACRips\10 Go Champ.wav

     Pre-gap length  0:00:00.30

     Peak level 94.4 %
     Extraction speed 1.9 X
     Track quality 100.0 %
     Test CRC 02CF5A5F
     Copy CRC 02CF5A5F
     Track not present in AccurateRip database
     Copy OK

Track 11

     Filename C:\EACRips\11 Get The Get.wav

     Pre-gap length  0:00:00.16

     Peak level 98.0 %
     Extraction speed 2.0 X
     Track quality 100.0 %
     Test CRC D217B184
     Copy CRC D217B184
     Track not present in AccurateRip database
     Copy OK

Track 12

     Filename C:\EACRips\12 Crow Bars.wav

     Pre-gap length  0:00:01.16

     Peak level 98.0 %
     Extraction speed 2.0 X
     Track quality 100.0 %
     Test CRC 21767316
     Copy CRC 21767316
     Track not present in AccurateRip database
     Copy OK

Track 13

     Filename C:\EACRips\13 In The Throes Of It.wav

     Peak level 98.0 %
     Extraction speed 1.8 X
     Track quality 99.9 %
     Test CRC D93CE970
     Copy CRC D93CE970
     Track not present in AccurateRip database
     Copy OK

Track 14

     Filename C:\EACRips\14 Noddy.wav

     Pre-gap length  0:00:00.49

     Peak level 98.0 %
     Extraction speed 2.1 X
     Track quality 100.0 %
     Test CRC F449E6DB
     Copy CRC F449E6DB
     Track not present in AccurateRip database
     Copy OK

Track 15

     Filename C:\EACRips\15 Much Too Plush.wav

     Pre-gap length  0:00:01.13

     Peak level 98.0 %
     Extraction speed 2.1 X
     Track quality 100.0 %
     Test CRC E2011345
     Copy CRC E2011345
     Track not present in AccurateRip database
     Copy OK

Track 16

     Filename C:\EACRips\16 The Path.wav

     Pre-gap length  0:00:00.46

     Peak level 98.0 %
     Extraction speed 1.4 X
     Track quality 99.9 %
     Test CRC C4ED42A0
     Copy CRC C4ED42A0
     Track not present in AccurateRip database
     Copy OK

Track 17

     Filename C:\EACRips\17 Banana Skank.wav

     Pre-gap length  0:00:01.06

     Peak level 89.1 %
     Extraction speed 2.0 X
     Track quality 100.0 %
     Test CRC D0350BBE
     Copy CRC D0350BBE
     Track not present in AccurateRip database
     Copy OK

Track 18

     Filename C:\EACRips\18 Snakebite.wav

     Pre-gap length  0:00:19.77

     Peak level 98.0 %
     Extraction speed 2.0 X
     Track quality 100.0 %
     Test CRC 0EC773F6
     Copy CRC 0EC773F6
     Track not present in AccurateRip database
     Copy OK

Track 19

     Filename C:\EACRips\19 Bust It.wav

     Pre-gap length  0:00:01.66

     Peak level 98.0 %
     Extraction speed 2.4 X
     Track quality 100.0 %
     Test CRC 52D24179
     Copy CRC 52D24179
     Track not present in AccurateRip database
     Copy OK

None of the tracks are present in the AccurateRip database

No errors occurred

End of status report

---- CUETools DB Plugin V2.1.3

[CTDB TOCID: qRpKHT4fMHDsCzuOOhTDqlH7SEc-] disk not present in database, Submit result: qRpKHT4fMHDsCzuOOhTDqlH7SEc- has been uploaded

==== Log checksum E25C92144A75DE35C08922EF03E0AC5661FBEA9AA7771DE9BC4CEAF27BAA405E ====

Код:

REM GENRE Hip-Hop
REM DATE 2011
REM DISCID 040F4F13
REM COMMENT "ExactAudioCopy v1.0b3"
PERFORMER "Roots Manuva"
TITLE "4everevolution"
FILE "01 First Growth.wav" WAVE
  TRACK 01 AUDIO
    TITLE "First Growth"
    PERFORMER "Roots Manuva"
    ISRC GBCFB1102701
    INDEX 01 00:00:00
FILE "02 Here We Go Again.wav" WAVE
  TRACK 02 AUDIO
    TITLE "Here We Go Again"
    PERFORMER "Roots Manuva"
    ISRC GBCFB1102702
    INDEX 01 00:00:00
  TRACK 03 AUDIO
    TITLE "Skid Valley"
    PERFORMER "Roots Manuva"
    ISRC GBCFB1102703
    INDEX 00 03:58:40
FILE "03 Skid Valley.wav" WAVE
    INDEX 01 00:00:00
  TRACK 04 AUDIO
    TITLE "Who Goes There?"
    PERFORMER "Roots Manuva"
    ISRC GBCFB1102704
    INDEX 00 02:46:20
FILE "04 Who Goes There.wav" WAVE
    INDEX 01 00:00:00
  TRACK 05 AUDIO
    TITLE "Watch Me Dance"
    PERFORMER "Roots Manuva"
    ISRC GBCFB1102705
    INDEX 00 02:54:50
FILE "05 Watch Me Dance.wav" WAVE
    INDEX 01 00:00:00
FILE "06 Revelation.wav" WAVE
  TRACK 06 AUDIO
    TITLE "Revelation"
    PERFORMER "Roots Manuva"
    ISRC GBCFB1102706
    INDEX 01 00:00:00
  TRACK 07 AUDIO
    TITLE "Wha' Mek"
    PERFORMER "Roots Manuva"
    ISRC GBCFB1102707
    INDEX 00 04:17:00
FILE "07 Wha' Mek.wav" WAVE
    INDEX 01 00:00:00
  TRACK 08 AUDIO
    TITLE "Takes Time To"
    PERFORMER "Roots Manuva"
    ISRC GBCFB1102708
    INDEX 00 04:40:42
FILE "08 Takes Time To.wav" WAVE
    INDEX 01 00:00:00
  TRACK 09 AUDIO
    TITLE "Beyond This World"
    PERFORMER "Roots Manuva"
    ISRC GBCFB1102709
    INDEX 00 03:12:70
FILE "09 Beyond This World.wav" WAVE
    INDEX 01 00:00:00
  TRACK 10 AUDIO
    TITLE "Go Champ"
    PERFORMER "Roots Manuva"
    ISRC GBCFB1102710
    INDEX 00 02:33:12
FILE "10 Go Champ.wav" WAVE
    INDEX 01 00:00:00
  TRACK 11 AUDIO
    TITLE "Get The Get"
    PERFORMER "Roots Manuva"
    ISRC GBCFB1102711
    INDEX 00 02:19:60
FILE "11 Get The Get.wav" WAVE
    INDEX 01 00:00:00
  TRACK 12 AUDIO
    TITLE "Crow Bars"
    PERFORMER "Roots Manuva"
    ISRC GBCFB1102712
    INDEX 00 02:40:53
FILE "12 Crow Bars.wav" WAVE
    INDEX 01 00:00:00
FILE "13 In The Throes Of It.wav" WAVE
  TRACK 13 AUDIO
    TITLE "In The Throes Of It"
    PERFORMER "Roots Manuva"
    ISRC GBCFB1102713
    INDEX 01 00:00:00
  TRACK 14 AUDIO
    TITLE "Noddy"
    PERFORMER "Roots Manuva"
    ISRC GBCFB1102714
    INDEX 00 07:03:33
FILE "14 Noddy.wav" WAVE
    INDEX 01 00:00:00
  TRACK 15 AUDIO
    TITLE "Much Too Plush"
    PERFORMER "Roots Manuva"
    ISRC GBCFB1102715
    INDEX 00 03:49:73
FILE "15 Much Too Plush.wav" WAVE
    INDEX 01 00:00:00
  TRACK 16 AUDIO
    TITLE "The Path"
    PERFORMER "Roots Manuva"
    ISRC GBCFB1102716
    INDEX 00 03:12:60
FILE "16 The Path.wav" WAVE
    INDEX 01 00:00:00
  TRACK 17 AUDIO
    TITLE "Banana Skank"
    PERFORMER "Roots Manuva"
    ISRC GBCFB1102717
    INDEX 00 03:13:37
FILE "17 Banana Skank.wav" WAVE
    INDEX 01 00:00:00
  TRACK 18 AUDIO
    TITLE "Snakebite"
    PERFORMER "Roots Manuva"
    ISRC GBCFB1102721
    INDEX 00 02:35:45
FILE "18 Snakebite.wav" WAVE
    INDEX 01 00:00:00
  TRACK 19 AUDIO
    TITLE "Bust It"
    PERFORMER "Roots Manuva"
    ISRC GBCFB1102722
    INDEX 00 02:30:17
FILE "19 Bust It.wav" WAVE
    INDEX 01 00:00:00

info [Профиль]  [ЛС] 

post 19-Май-2013 00:46 (спустя 19 минут) [-]0[+]

Топик был перенесен из форума Анонсы в форум Зарубежный Rap, Hip-Hop, R'n'B (lossless)

The Buzzhorn
 
Показать сообщения:    
Ответить на тему

Текущее время: 28-Май 18:08

Часовой пояс: GMT + 4



Вы не можете начинать темы
Вы не можете отвечать на сообщения
Вы не можете редактировать свои сообщения
Вы не можете удалять свои сообщения
Вы не можете голосовать в опросах
Вы не можете прикреплять файлы к сообщениям
Вы не можете скачивать файлы