Ошибка

(Breakbeat, Trip Hop, Breaks, Future Jazz, Downtempo) The London Funk Allstars - Flesh Eating Disco Zombies versus The Bionic Hookers From Mars - 1996, FLAC (tracks+.cue)+cover, lossless

Ответить на тему
 
Автор Сообщение

Fobosov

Пол: Пол:Муж

Стаж: 9 лет 6 месяцев

Сообщений: 73

Предупреждений: 1

Украина
Рейтинг

post 03-Май-2013 14:07 0[+]

[Цитировать] 

The London Funk Allstars - Flesh Eating Disco Zombies versus The Bionic Hookers From Mars

pic="http://s001.youpic.su/pictures/1367524800/3568d16054410db9198ae25e95560008.jpeg"


Жанр: Breakbeat, Trip Hop, Breaks, Future Jazz, Downtempo
Год издания данного носителя: 1996
Страна-производитель носителя: UK
Лейбл: Ninja Tune
Каталоговый номер: ZEN CD24
Аудио кодек: FLAC
Тип рипа: tracks+.cue
Битрейт аудио: lossless
Продолжительность: 01:19:00
Источник (релизер): what.cd (patchwork_ninja)
Полиграфия: Присутствует
Треклист:
01. Introduction (1:56)
02. Old Skool Reunion (3:24)
03. There's Only One F In Funk (6:17)
04. Way Out (6:30)
05. Junkies Bad Trip (5:07)
06. Allstars Theme (7:53)
07. Love is What We Need (4:56)
08. Knee Deep In The Beats Pt. 1 (4:29)
09. Never Can Get Enough (6:16)
10. Flesh Eating Disco Zombies versus The Bionic Hoookers From Mars (6:11)
11. U. J. (6:26)
12. Mad Love (5:48)
13. The Chase (6:23)
14. Give it to Me Raw (3:22)
15. How To Be a Ninja in One Easy Lesson (4:04)
Exact Audio Copy V0.99 prebeta 5 from 4. May 2009 

EAC extraction logfile from 18. August 2011, 20:12

The London Funk Allstars / Flesh Eating Disco Zombies versus The Bionic Hookers From Mars

Used drive : SONY DVD RW DRU-V200S Adapter: 0 ID: 0

Read mode : Secure
Utilize accurate stream : Yes
Defeat audio cache : Yes
Make use of C2 pointers : No

Read offset correction : 48
Overread into Lead-In and Lead-Out : No
Fill up missing offset samples with silence : Yes
Delete leading and trailing silent blocks : No
Null samples used in CRC calculations : Yes
Used interface : Native Win32 interface for Win NT & 2000
Gap handling : Appended to previous track

Used output format : User Defined Encoder
Selected bitrate : 768 kBit/s
Quality : High
Add ID3 tag : No
Command line compressor : C:Program FilesExact Audio CopyFLACFLAC.EXE
Additional command line options : -8 -V -T "ARTIST=%a" -T "TITLE=%t" -T "ALBUM=%g" -T "DATE=%y" -T "TRACKNUMBER=%n" -T "GENRE=%m" -T "COMMENT=%e" %s -o %d

TOC of the extracted CD

Track | Start | Length | Start sector | End sector
---------------------------------------------------------
1 | 0:00.00 | 1:56.15 | 0 | 8714
2 | 1:56.15 | 3:23.50 | 8715 | 23989
3 | 5:19.65 | 6:17.17 | 23990 | 52281
4 | 11:37.07 | 6:29.50 | 52282 | 81506
5 | 18:06.57 | 5:07.05 | 81507 | 104536
6 | 23:13.62 | 7:52.58 | 104537 | 139994
7 | 31:06.45 | 4:55.40 | 139995 | 162159
8 | 36:02.10 | 4:28.70 | 162160 | 182329
9 | 40:31.05 | 6:15.57 | 182330 | 210511
10 | 46:46.62 | 6:11.35 | 210512 | 238371
11 | 52:58.22 | 6:25.60 | 238372 | 267306
12 | 59:24.07 | 5:47.55 | 267307 | 293386
13 | 65:11.62 | 6:23.10 | 293387 | 322121
14 | 71:34.72 | 3:22.15 | 322122 | 337286
15 | 74:57.12 | 4:03.45 | 337287 | 355556

Track 1

Filename Z:МузыкаNinjaTuneLondodFunkAllstars[Album][1996][ZENCD24] London Funk Allstars - Flesh Eating Disco Zombies Vs. The Bionic Hookers From Mars [flac]�1. The London Funk Allstars - Introduction.wav

Pre-gap length 0:00:02.00

Peak level 87.8 %
Track quality 99.9 %
Test CRC BC53C583
Copy CRC BC53C583
Cannot be verified as accurate (confidence 2) [98FCF5BD], AccurateRip returned [D62EAA05]
Copy OK

Track 2

Filename Z:МузыкаNinjaTuneLondodFunkAllstars[Album][1996][ZENCD24] London Funk Allstars - Flesh Eating Disco Zombies Vs. The Bionic Hookers From Mars [flac]�2. The London Funk Allstars - Old Skool Reunion.wav

Pre-gap length 0:00:01.05

Peak level 84.3 %
Track quality 100.0 %
Test CRC 95D100D9
Copy CRC 95D100D9
Cannot be verified as accurate (confidence 2) [28F369C2], AccurateRip returned [E807E3DA]
Copy OK

Track 3

Filename Z:МузыкаNinjaTuneLondodFunkAllstars[Album][1996][ZENCD24] London Funk Allstars - Flesh Eating Disco Zombies Vs. The Bionic Hookers From Mars [flac]�3. The London Funk Allstars - There's Only One F In Funk.wav

Peak level 86.3 %
Track quality 99.9 %
Test CRC FC7FD5E1
Copy CRC FC7FD5E1
Cannot be verified as accurate (confidence 2) [3206F5F6], AccurateRip returned [1932FEC6]
Copy OK

Track 4

Filename Z:МузыкаNinjaTuneLondodFunkAllstars[Album][1996][ZENCD24] London Funk Allstars - Flesh Eating Disco Zombies Vs. The Bionic Hookers From Mars [flac]�4. The London Funk Allstars - Way Out.wav

Peak level 86.2 %
Track quality 100.0 %
Test CRC EAEE33FB
Copy CRC EAEE33FB
Cannot be verified as accurate (confidence 2) [37228B6A], AccurateRip returned [E406ABF2]
Copy OK

Track 5

Filename Z:МузыкаNinjaTuneLondodFunkAllstars[Album][1996][ZENCD24] London Funk Allstars - Flesh Eating Disco Zombies Vs. The Bionic Hookers From Mars [flac]�5. The London Funk Allstars - Junkies Bad Trip.wav

Pre-gap length 0:00:01.10

Peak level 78.9 %
Track quality 100.0 %
Test CRC 1E5441A3
Copy CRC 1E5441A3
Cannot be verified as accurate (confidence 2) [154904E4], AccurateRip returned [B0AC1964]
Copy OK

Track 6

Filename Z:МузыкаNinjaTuneLondodFunkAllstars[Album][1996][ZENCD24] London Funk Allstars - Flesh Eating Disco Zombies Vs. The Bionic Hookers From Mars [flac]�6. The London Funk Allstars - Allstars Theme.wav

Pre-gap length 0:00:01.02

Peak level 82.7 %
Track quality 100.0 %
Test CRC 03DFFCE1
Copy CRC 03DFFCE1
Cannot be verified as accurate (confidence 2) [98599F49], AccurateRip returned [76225991]
Copy OK

Track 7

Filename Z:МузыкаNinjaTuneLondodFunkAllstars[Album][1996][ZENCD24] London Funk Allstars - Flesh Eating Disco Zombies Vs. The Bionic Hookers From Mars [flac]�7. The London Funk Allstars - Love is What We Need.wav

Peak level 76.7 %
Track quality 99.9 %
Test CRC A3E812B3
Copy CRC A3E812B3
Cannot be verified as accurate (confidence 2) [98410F89], AccurateRip returned [377BA010]
Copy OK

Track 8

Filename Z:МузыкаNinjaTuneLondodFunkAllstars[Album][1996][ZENCD24] London Funk Allstars - Flesh Eating Disco Zombies Vs. The Bionic Hookers From Mars [flac]�8. The London Funk Allstars - Knee Deep In The Beats Pt. 1.wav

Copy aborted

Track 9

Copy aborted

Track 10

Copy aborted

Track 11

Pre-gap length 0:00:02.22

Copy aborted

Track 12

Pre-gap length 0:00:02.10

Copy aborted

Track 13

Pre-gap length 0:00:01.60

Copy aborted

Track 14

Pre-gap length 0:00:01.02

Copy aborted

Track 15

Copy aborted

7 track(s) could not be verified as accurate
8 track(s) canceled

No tracks could be verified as accurate

There were errors

End of status report

------------------------------------------------------------

Exact Audio Copy V0.99 prebeta 5 from 4. May 2009

EAC extraction logfile from 18. August 2011, 21:35

The London Funk Allstars / Flesh Eating Disco Zombies versus The Bionic Hookers From Mars

Used drive : SONY DVD RW DRU-V200S Adapter: 0 ID: 0

Read mode : Secure
Utilize accurate stream : Yes
Defeat audio cache : Yes
Make use of C2 pointers : No

Read offset correction : 48
Overread into Lead-In and Lead-Out : No
Fill up missing offset samples with silence : Yes
Delete leading and trailing silent blocks : No
Null samples used in CRC calculations : Yes
Used interface : Native Win32 interface for Win NT & 2000
Gap handling : Appended to previous track

Used output format : User Defined Encoder
Selected bitrate : 768 kBit/s
Quality : High
Add ID3 tag : No
Command line compressor : C:Program FilesExact Audio CopyFLACFLAC.EXE
Additional command line options : -8 -V -T "ARTIST=%a" -T "TITLE=%t" -T "ALBUM=%g" -T "DATE=%y" -T "TRACKNUMBER=%n" -T "GENRE=%m" -T "COMMENT=%e" %s -o %d

TOC of the extracted CD

Track | Start | Length | Start sector | End sector
---------------------------------------------------------
1 | 0:00.00 | 1:56.15 | 0 | 8714
2 | 1:56.15 | 3:23.50 | 8715 | 23989
3 | 5:19.65 | 6:17.17 | 23990 | 52281
4 | 11:37.07 | 6:29.50 | 52282 | 81506
5 | 18:06.57 | 5:07.05 | 81507 | 104536
6 | 23:13.62 | 7:52.58 | 104537 | 139994
7 | 31:06.45 | 4:55.40 | 139995 | 162159
8 | 36:02.10 | 4:28.70 | 162160 | 182329
9 | 40:31.05 | 6:15.57 | 182330 | 210511
10 | 46:46.62 | 6:11.35 | 210512 | 238371
11 | 52:58.22 | 6:25.60 | 238372 | 267306
12 | 59:24.07 | 5:47.55 | 267307 | 293386
13 | 65:11.62 | 6:23.10 | 293387 | 322121
14 | 71:34.72 | 3:22.15 | 322122 | 337286
15 | 74:57.12 | 4:03.45 | 337287 | 355556

Track 1

Filename Z:МузыкаNinjaTuneLondodFunkAllstars[Album][1996][ZENCD24] London Funk Allstars - Flesh Eating Disco Zombies Vs. The Bionic Hookers From Mars [flac]�1. The London Funk Allstars - Introduction.wav

Pre-gap length 0:00:02.00

Peak level 87.8 %
Track quality 99.9 %
Test CRC BC53C583
Copy CRC BC53C583
Cannot be verified as accurate (confidence 2) [98FCF5BD], AccurateRip returned [D62EAA05]
Copy OK

Track 2

Filename Z:МузыкаNinjaTuneLondodFunkAllstars[Album][1996][ZENCD24] London Funk Allstars - Flesh Eating Disco Zombies Vs. The Bionic Hookers From Mars [flac]�2. The London Funk Allstars - Old Skool Reunion.wav

Pre-gap length 0:00:01.05

Peak level 84.3 %
Track quality 100.0 %
Test CRC 95D100D9
Copy CRC 95D100D9
Cannot be verified as accurate (confidence 2) [28F369C2], AccurateRip returned [E807E3DA]
Copy OK

Track 3

Filename Z:МузыкаNinjaTuneLondodFunkAllstars[Album][1996][ZENCD24] London Funk Allstars - Flesh Eating Disco Zombies Vs. The Bionic Hookers From Mars [flac]�3. The London Funk Allstars - There's Only One F In Funk.wav

Peak level 86.3 %
Track quality 99.9 %
Test CRC FC7FD5E1
Copy CRC FC7FD5E1
Cannot be verified as accurate (confidence 2) [3206F5F6], AccurateRip returned [1932FEC6]
Copy OK

Track 4

Filename Z:МузыкаNinjaTuneLondodFunkAllstars[Album][1996][ZENCD24] London Funk Allstars - Flesh Eating Disco Zombies Vs. The Bionic Hookers From Mars [flac]�4. The London Funk Allstars - Way Out.wav

Peak level 86.2 %
Track quality 100.0 %
Test CRC EAEE33FB
Copy CRC EAEE33FB
Cannot be verified as accurate (confidence 2) [37228B6A], AccurateRip returned [E406ABF2]
Copy OK

Track 5

Filename Z:МузыкаNinjaTuneLondodFunkAllstars[Album][1996][ZENCD24] London Funk Allstars - Flesh Eating Disco Zombies Vs. The Bionic Hookers From Mars [flac]�5. The London Funk Allstars - Junkies Bad Trip.wav

Pre-gap length 0:00:01.10

Peak level 78.9 %
Track quality 100.0 %
Test CRC 1E5441A3
Copy CRC 1E5441A3
Cannot be verified as accurate (confidence 2) [154904E4], AccurateRip returned [B0AC1964]
Copy OK

Track 6

Filename Z:МузыкаNinjaTuneLondodFunkAllstars[Album][1996][ZENCD24] London Funk Allstars - Flesh Eating Disco Zombies Vs. The Bionic Hookers From Mars [flac]�6. The London Funk Allstars - Allstars Theme.wav

Pre-gap length 0:00:01.02

Peak level 82.7 %
Track quality 100.0 %
Test CRC 03DFFCE1
Copy CRC 03DFFCE1
Cannot be verified as accurate (confidence 2) [98599F49], AccurateRip returned [76225991]
Copy OK

Track 7

Filename Z:МузыкаNinjaTuneLondodFunkAllstars[Album][1996][ZENCD24] London Funk Allstars - Flesh Eating Disco Zombies Vs. The Bionic Hookers From Mars [flac]�7. The London Funk Allstars - Love is What We Need.wav

Peak level 76.7 %
Track quality 99.9 %
Test CRC A3E812B3
Copy CRC A3E812B3
Cannot be verified as accurate (confidence 2) [98410F89], AccurateRip returned [377BA010]
Copy OK

Track 8

Filename Z:МузыкаNinjaTuneLondodFunkAllstars[Album][1996][ZENCD24] London Funk Allstars - Flesh Eating Disco Zombies Vs. The Bionic Hookers From Mars [flac]�8. The London Funk Allstars - Knee Deep In The Beats Pt. 1.wav

Peak level 87.1 %
Track quality 100.0 %
Test CRC 82C125D8
Copy CRC 82C125D8
Cannot be verified as accurate (confidence 2) [2812BA10], AccurateRip returned [C4DB9F79]
Copy OK

Track 9

Filename Z:МузыкаNinjaTuneLondodFunkAllstars[Album][1996][ZENCD24] London Funk Allstars - Flesh Eating Disco Zombies Vs. The Bionic Hookers From Mars [flac]�9. The London Funk Allstars - Never Can Get Enough.wav

Peak level 83.3 %
Track quality 100.0 %
Test CRC 55E48245
Copy CRC 55E48245
Cannot be verified as accurate (confidence 2) [741673CD], AccurateRip returned [C1F2955D]
Copy OK

Track 10

Filename Z:МузыкаNinjaTuneLondodFunkAllstars[Album][1996][ZENCD24] London Funk Allstars - Flesh Eating Disco Zombies Vs. The Bionic Hookers From Mars [flac]10. The London Funk Allstars - Flesh Eating Disco Zombies versus The Bionic Hoookers From M

Peak level 92.1 %
Track quality 100.0 %
Test CRC 4C2AD32D
Copy CRC 4C2AD32D
Cannot be verified as accurate (confidence 2) [D2364A40], AccurateRip returned [06C88110]
Copy OK

Track 11

Filename Z:МузыкаNinjaTuneLondodFunkAllstars[Album][1996][ZENCD24] London Funk Allstars - Flesh Eating Disco Zombies Vs. The Bionic Hookers From Mars [flac]11. The London Funk Allstars - U. J..wav

Pre-gap length 0:00:02.22

Peak level 91.2 %
Track quality 100.0 %
Test CRC 7E956E2F
Copy CRC 7E956E2F
Cannot be verified as accurate (confidence 2) [CE5D5EDB], AccurateRip returned [10D89503]
Copy OK

Track 12

Filename Z:МузыкаNinjaTuneLondodFunkAllstars[Album][1996][ZENCD24] London Funk Allstars - Flesh Eating Disco Zombies Vs. The Bionic Hookers From Mars [flac]12. The London Funk Allstars - Mad Love.wav

Pre-gap length 0:00:02.10

Peak level 89.5 %
Track quality 100.0 %
Test CRC 0C95E234
Copy CRC 0C95E234
Cannot be verified as accurate (confidence 2) [5CD9E75D], AccurateRip returned [633AFD05]
Copy OK

Track 13

Filename Z:МузыкаNinjaTuneLondodFunkAllstars[Album][1996][ZENCD24] London Funk Allstars - Flesh Eating Disco Zombies Vs. The Bionic Hookers From Mars [flac]13. The London Funk Allstars - The Chase.wav

Pre-gap length 0:00:01.60

Peak level 91.8 %
Track quality 99.9 %
Test CRC B07B90CD
Copy CRC B07B90CD
Cannot be verified as accurate (confidence 2) [43D1AEFE], AccurateRip returned [01D95976]
Copy OK

Track 14

Filename Z:МузыкаNinjaTuneLondodFunkAllstars[Album][1996][ZENCD24] London Funk Allstars - Flesh Eating Disco Zombies Vs. The Bionic Hookers From Mars [flac]14. The London Funk Allstars - Give it to Me Raw.wav

Pre-gap length 0:00:01.02

Peak level 89.9 %
Track quality 100.0 %
Test CRC 54BB530E
Copy CRC 54BB530E
Cannot be verified as accurate (confidence 2) [5D1F4049], AccurateRip returned [5E58E9A1]
Copy OK

Track 15

Filename Z:МузыкаNinjaTuneLondodFunkAllstars[Album][1996][ZENCD24] London Funk Allstars - Flesh Eating Disco Zombies Vs. The Bionic Hookers From Mars [flac]15. The London Funk Allstars - How To Be a Ninja in One Easy Lesson.wav

Peak level 91.5 %
Track quality 100.0 %
Test CRC F6392B17
Copy CRC F6392B17
Track not present in AccurateRip database
Copy OK

14 track(s) could not be verified as accurate
1 track(s) not present in the AccurateRip database

No tracks could be verified as accurate
You may have a different pressing from the one(s) in the database

No errors occurred

End of status report
REM GENRE Trip-Hop 
REM DATE 1996
REM DISCID EE12840F
REM COMMENT "ExactAudioCopy v0.99pb5"
PERFORMER "The London Funk Allstars"
TITLE "Flesh Eating Disco Zombies versus The Bionic Hookers From Mars"
FILE "01. The London Funk Allstars - Introduction.wav" WAVE
TRACK 01 AUDIO
TITLE "Introduction"
PERFORMER "The London Funk Allstars"
INDEX 01 00:00:00
TRACK 02 AUDIO
TITLE "Old Skool Reunion"
PERFORMER "The London Funk Allstars"
INDEX 00 01:55:10
FILE "02. The London Funk Allstars - Old Skool Reunion.wav" WAVE
INDEX 01 00:00:00
FILE "03. The London Funk Allstars - There's Only One F In Funk.wav" WAVE
TRACK 03 AUDIO
TITLE "There's Only One F In Funk"
PERFORMER "The London Funk Allstars"
INDEX 01 00:00:00
FILE "04. The London Funk Allstars - Way Out.wav" WAVE
TRACK 04 AUDIO
TITLE "Way Out"
PERFORMER "The London Funk Allstars"
INDEX 01 00:00:00
TRACK 05 AUDIO
TITLE "Junkies Bad Trip"
PERFORMER "The London Funk Allstars"
INDEX 00 06:28:40
FILE "05. The London Funk Allstars - Junkies Bad Trip.wav" WAVE
INDEX 01 00:00:00
TRACK 06 AUDIO
TITLE "Allstars Theme"
PERFORMER "The London Funk Allstars"
INDEX 00 05:06:03
FILE "06. The London Funk Allstars - Allstars Theme.wav" WAVE
INDEX 01 00:00:00
FILE "07. The London Funk Allstars - Love is What We Need.wav" WAVE
TRACK 07 AUDIO
TITLE "Love is What We Need"
PERFORMER "The London Funk Allstars"
INDEX 01 00:00:00
FILE "08. The London Funk Allstars - Knee Deep In The Beats Pt. 1.wav" WAVE
TRACK 08 AUDIO
TITLE "Knee Deep In The Beats Pt. 1"
PERFORMER "The London Funk Allstars"
INDEX 01 00:00:00
FILE "09. The London Funk Allstars - Never Can Get Enough.wav" WAVE
TRACK 09 AUDIO
TITLE "Never Can Get Enough"
PERFORMER "The London Funk Allstars"
INDEX 01 00:00:00
FILE "10. The London Funk Allstars - Flesh Eating Disco Zombies versus The Bionic Hoookers From Mars.wav" WAVE
TRACK 10 AUDIO
TITLE "Flesh Eating Disco Zombies versus The Bionic Hoookers From Mars"
PERFORMER "The London Funk Allstars"
INDEX 01 00:00:00
TRACK 11 AUDIO
TITLE "U. J."
PERFORMER "The London Funk Allstars"
INDEX 00 06:09:13
FILE "11. The London Funk Allstars - U. J..wav" WAVE
INDEX 01 00:00:00
TRACK 12 AUDIO
TITLE "Mad Love"
PERFORMER "The London Funk Allstars"
INDEX 00 06:23:50
FILE "12. The London Funk Allstars - Mad Love.wav" WAVE
INDEX 01 00:00:00
TRACK 13 AUDIO
TITLE "The Chase"
PERFORMER "The London Funk Allstars"
INDEX 00 05:45:70
FILE "13. The London Funk Allstars - The Chase.wav" WAVE
INDEX 01 00:00:00
TRACK 14 AUDIO
TITLE "Give it to Me Raw"
PERFORMER "The London Funk Allstars"
INDEX 00 06:22:08
FILE "14. The London Funk Allstars - Give it to Me Raw.wav" WAVE
INDEX 01 00:00:00
FILE "15. The London Funk Allstars - How To Be a Ninja in One Easy Lesson.wav" WAVE
TRACK 15 AUDIO
TITLE "How To Be a Ninja in One Easy Lesson"
PERFORMER "The London Funk Allstars"
INDEX 01 00:00:00


info [Профиль]  [ЛС] 

Tycuk

Стаж: 9 лет 5 месяцев

Сообщений: 16

Рейтинг

post 07-Май-2013 19:06 (спустя 4 дня) [-]0[+]

[Цитировать] 

этой музыке по-моему баса не хватает и лишнее пищание
info [Профиль]  [ЛС] 
Показать сообщения:    
Ответить на тему

Текущее время: 26-Май 22:15

Часовой пояс: GMT + 4



Вы не можете начинать темы
Вы не можете отвечать на сообщения
Вы не можете редактировать свои сообщения
Вы не можете удалять свои сообщения
Вы не можете голосовать в опросах
Вы не можете прикреплять файлы к сообщениям
Вы не можете скачивать файлы