Ошибка

(Goa Trance) Mindsphere - Patience For Heaven (2012), FLAC (tracks+,cue), Lossless

Ответить на тему
 
Автор Сообщение

Psyhedelic

Пол: Пол:Муж

Стаж: 9 лет 6 месяцев

Сообщений: 610

Россия
Рейтинг

post 05-Мар-2013 14:08 1[+]

[Цитировать] 

Mindsphere - Patience For Heaven


pic="http://i53.fastpic.ru/big/2013/0305/f6/6e08b8cc0813d7feaef5f404b595d9f6.jpg"


Жанр: Goa Trance
Год издания данного носителя: 2012
Страна-производитель носителя: Belgium
Лейбл: Suntrip Records
Каталоговый номер: SUNCD26
Аудио кодек: FLAC
Тип рипа: tracks+.cue
Битрейт аудио: lossless
Продолжительность: 02:34:10
Источник (релизер): http://www.suntriprecords.com
Полиграфия: Отсутствует
Треклист:

CD1: Patience For Heaven
1. Shape Of Imagination (8:19)
2. World Is Yours (8:32)
3. Cosmos Evolution (7:59)
4. All Alone (8:45)
5. Ornementation (7:55)
6. In To Reality (8:22)
7. Spirits of Devotion (9:15)
8. Patience For Heaven (7:09)
9a. Circled (7:29)
9b. Untitled (2:55)

CD2: Inner Cyclone
1. Painful Stories (11:00)
2. Mindrama (9:54)
3. We Have A Dream (7:46)
4. Wasted Years (8:51)
5. Operation Side (10:35)
6. To Infinity (9:30)
7. Inner Cyclone (11:12)
8. Fusion (7:33)

Код:

Exact Audio Copy V1.0 beta 3 from 29. August 2011

 Отчёт EAC об извлечении, выполненном 13. ноября 2012, 21:30
 Exact Audio Copy V1.0 beta 3 from 29. August 2011

 Отчёт EAC об извлечении, выполненном 13. ноября 2012, 22:29

 Mindsphere / Patience For Heaven CD1

 Дисковод: PIONEER DVD-RW DVR-110D Adapter: 5 ID: 1

 Режим чтения : Достоверность
 Использование точного потока : Да
 Отключение кэша аудио : Да
 Использование указателей C2 : Нет

 Коррекция смещения при чтении : 48
 Способность читать области Lead-in и Lead-out : Нет
 Заполнение пропущенных сэмплов тишиной : Да
 Удаление блоков с тишиной в начале и конце : Нет
 При вычислениях CRC использовались нулевые сэмплы : Да
 Интерфейс : Встроенный Win32-интерфейс для Win NT/2000

 Выходной формат : Пользовательский кодировщик
 Выбранный битрейт : 128 kBit/s
 Качество : Высокий
 Добавление ID3-тега : Нет
 Утилита сжатия : C:\Program Files\Exact Audio Copy\Flac\flac.exe
 Дополнительные параметры : -V -8 -T "Date=%year%" -T "Genre=%genre%" %source%

 TOC извлечённого CD

 Трек | Старт | Длительность | Начальный сектор | Конечный сектор
 ---------------------------------------------------------------------
 1 | 0:00.00 | 8:21.35 | 0 | 37609
 2 | 8:21.35 | 8:34.48 | 37610 | 76207
 3 | 16:56.08 | 8:01.47 | 76208 | 112329
 4 | 24:57.55 | 8:47.12 | 112330 | 151866
 5 | 33:44.67 | 7:57.71 | 151867 | 187712
 6 | 41:42.63 | 8:24.30 | 187713 | 225542
 7 | 50:07.18 | 9:17.67 | 225543 | 267384
 8 | 59:25.10 | 7:11.50 | 267385 | 299759
 9 | 66:36.60 | 11:23.15 | 299760 | 350999

 Характеристики диапазона извлечения и сообщения об ошибках

 Выбранный диапазон

 Имя файла C:\Documents and Settings\QJ\Рабочий стол\Mindsphere - Patience For Heaven CD1\Mindsphere - Patience For Heaven CD1.wav

 Пиковый уровень 95.4 %
 Скорость извлечения 3.0 X
 Качество диапазона 99.9 %
 CRC теста 4F0C8EAC
 CRC копии 4F0C8EAC
 Копирование... OK

 Ошибок не произошло

 AccurateRip: сводка

 Трек 1 отсутствует в базе данных
 Трек 2 отсутствует в базе данных
 Трек 3 отсутствует в базе данных
 Трек 4 отсутствует в базе данных
 Трек 5 отсутствует в базе данных
 Трек 6 отсутствует в базе данных
 Трек 7 отсутствует в базе данных
 Трек 8 отсутствует в базе данных
 Трек 9 отсутствует в базе данных

 Ни одного трека нет в базе AccurateRip

 Конец отчёта

 ==== Контрольная сумма отчёта 06EABD3B2705624D4FB7D6CE157695A2F739F9DB21801D7EAF225627759C1A6E ====

Код:

-----------------------
 DON'T MODIFY THIS FILE
 -----------------------
 PERFORMER: auCDtect Task Manager, ver. 1.5.1RC4 build 1.5.1.5
 Copyright (c) 2008-2010 y-soft. All rights reserved
http://y-soft.org

 ANALYZER: auCDtect: CD records authenticity detector, version 0.8.2
 Copyright (c) 2004 Oleg Berngardt. All rights reserved.
 Copyright (c) 2004 Alexander Djourik. All rights reserved.

 FILE: Mindsphere - Patience For Heaven CD1.flac
 Size: 579927804 Hash: 5F36A16A022A772B9741F97D8AEC109A Accuracy: -m0
 Conclusion: CDDA 100%
 Signature: 92EE8C8B52F357A6EDEA01DC8761D66FE101776C

Код:

REM GENRE "Goa Trance"
 REM DATE 2012
 REM DISCID 7E124809
 REM COMMENT "ExactAudioCopy v1.0b3"
 CATALOG 5060147128666
 PERFORMER "Mindsphere"
 TITLE "Patience For Heaven CD1"
 FILE "Mindsphere - Patience For Heaven CD1.flac" WAVE
 TRACK 01 AUDIO
 TITLE "Shape Of Imagination"
 PERFORMER "Mindsphere"
 INDEX 01 00:00:00
 TRACK 02 AUDIO
 TITLE "Worlds Is Yours"
 PERFORMER "Mindsphere"
 INDEX 00 08:19:35
 INDEX 01 08:21:35
 TRACK 03 AUDIO
 TITLE "Cosmos Evolution"
 PERFORMER "Mindsphere"
 INDEX 00 16:54:08
 INDEX 01 16:56:08
 TRACK 04 AUDIO
 TITLE "All Alone"
 PERFORMER "Mindsphere"
 INDEX 00 24:55:55
 INDEX 01 24:57:55
 TRACK 05 AUDIO
 TITLE "Ornamentation"
 PERFORMER "Mindsphere"
 INDEX 00 33:42:67
 INDEX 01 33:44:67
 TRACK 06 AUDIO
 TITLE "In To Reality"
 PERFORMER "Mindsphere"
 INDEX 00 41:40:63
 INDEX 01 41:42:63
 TRACK 07 AUDIO
 TITLE "Spirits Of Devotion"
 PERFORMER "Mindsphere"
 INDEX 00 50:05:18
 INDEX 01 50:07:18
 TRACK 08 AUDIO
 TITLE "Patience For Heaven"
 PERFORMER "Mindsphere"
 INDEX 00 59:23:10
 INDEX 01 59:25:10
 TRACK 09 AUDIO
 TITLE "Circled"
 PERFORMER "Mindsphere"
 INDEX 00 66:34:60
 INDEX 01 66:36:60

Код:

Exact Audio Copy V1.0 beta 3 from 29. August 2011

 Отчёт EAC об извлечении, выполненном 13. ноября 2012, 23:10

 Mindsphere / Patience For Heaven CD2

 Дисковод: PIONEER DVD-RW DVR-110D Adapter: 5 ID: 1

 Режим чтения : Достоверность
 Использование точного потока : Да
 Отключение кэша аудио : Да
 Использование указателей C2 : Нет

 Коррекция смещения при чтении : 48
 Способность читать области Lead-in и Lead-out : Нет
 Заполнение пропущенных сэмплов тишиной : Да
 Удаление блоков с тишиной в начале и конце : Нет
 При вычислениях CRC использовались нулевые сэмплы : Да
 Интерфейс : Встроенный Win32-интерфейс для Win NT/2000

 Выходной формат : Пользовательский кодировщик
 Выбранный битрейт : 128 kBit/s
 Качество : Высокий
 Добавление ID3-тега : Нет
 Утилита сжатия : C:\Program Files\Exact Audio Copy\Flac\flac.exe
 Дополнительные параметры : -V -8 -T "Date=%year%" -T "Genre=%genre%" %source%

 TOC извлечённого CD

 Трек | Старт | Длительность | Начальный сектор | Конечный сектор
 ---------------------------------------------------------------------
 1 | 0:00.00 | 11:02.04 | 0 | 49653
 2 | 11:02.04 | 9:56.54 | 49654 | 94407
 3 | 20:58.58 | 7:48.72 | 94408 | 129579
 4 | 28:47.55 | 8:53.68 | 129580 | 169622
 5 | 37:41.48 | 10:37.44 | 169623 | 217441
 6 | 48:19.17 | 9:32.19 | 217442 | 260360
 7 | 57:51.36 | 11:14.60 | 260361 | 310970
 8 | 69:06.21 | 7:33.69 | 310971 | 345014

 Характеристики диапазона извлечения и сообщения об ошибках

 Выбранный диапазон

 Имя файла C:\Documents and Settings\QJ\Рабочий стол\Mindsphere - Patience For Heaven CD2\Mindsphere - Patience For Heaven CD2.wav

 Пиковый уровень 95.4 %
 Скорость извлечения 8.2 X
 Качество диапазона 99.9 %
 CRC теста F9F0DE68
 CRC копии F9F0DE68
 Копирование... OK

 Ошибок не произошло

 AccurateRip: сводка

 Трек 1 отсутствует в базе данных
 Трек 2 отсутствует в базе данных
 Трек 3 отсутствует в базе данных
 Трек 4 отсутствует в базе данных
 Трек 5 отсутствует в базе данных
 Трек 6 отсутствует в базе данных
 Трек 7 отсутствует в базе данных
 Трек 8 отсутствует в базе данных

 Ни одного трека нет в базе AccurateRip

 Конец отчёта

 ==== Контрольная сумма отчёта BB648CAD54D0958F9D958CE2F0620632B6732DD52B8B080D88C1A202CFEF973F ====

Код:

-----------------------
 DON'T MODIFY THIS FILE
 -----------------------
 PERFORMER: auCDtect Task Manager, ver. 1.5.1RC4 build 1.5.1.5
 Copyright (c) 2008-2010 y-soft. All rights reserved
http://y-soft.org

 ANALYZER: auCDtect: CD records authenticity detector, version 0.8.2
 Copyright (c) 2004 Oleg Berngardt. All rights reserved.
 Copyright (c) 2004 Alexander Djourik. All rights reserved.

 FILE: Mindsphere - Patience For Heaven CD2.flac
 Size: 592435524 Hash: 33B1768898C79DBEB8FBB86496C9A990 Accuracy: -m0
 Conclusion: CDDA 100%
 Signature: D81F3789316308BDBC7AB29034275F61DAD08C22

Код:

REM GENRE "Goa Trance"
 REM DATE 2012
 REM DISCID 6911F808
 REM COMMENT "ExactAudioCopy v1.0b3"
 CATALOG 5060147128666
 PERFORMER "Mindsphere"
 TITLE "Patience For Heaven CD2"
 FILE "Mindsphere - Patience For Heaven CD2.flac" WAVE
 TRACK 01 AUDIO
 TITLE "Painful Stories"
 PERFORMER "Mindsphere"
 INDEX 01 00:00:00
 TRACK 02 AUDIO
 TITLE "Mindrama"
 PERFORMER "Mindsphere"
 INDEX 00 11:00:04
 INDEX 01 11:02:04
 TRACK 03 AUDIO
 TITLE "We Have A Dream"
 PERFORMER "Mindsphere"
 INDEX 00 20:56:58
 INDEX 01 20:58:58
 TRACK 04 AUDIO
 TITLE "Wasted Years"
 PERFORMER "Mindsphere"
 INDEX 00 28:45:55
 INDEX 01 28:47:55
 TRACK 05 AUDIO
 TITLE "Operation Side"
 PERFORMER "Mindsphere"
 INDEX 00 37:39:48
 INDEX 01 37:41:48
 TRACK 06 AUDIO
 TITLE "To Infinity"
 PERFORMER "Mindsphere"
 INDEX 00 48:17:17
 INDEX 01 48:19:17
 TRACK 07 AUDIO
 TITLE "Inner Cyclone"
 PERFORMER "Mindsphere"
 INDEX 00 57:49:36
 INDEX 01 57:51:36
 TRACK 08 AUDIO
 TITLE "Fusion"
 PERFORMER "Mindsphere"
 INDEX 00 69:04:21
 INDEX 01 69:06:21
info [Профиль]  [ЛС] 
Показать сообщения:    
Ответить на тему

Текущее время: 19-Май 22:30

Часовой пояс: GMT + 4



Вы не можете начинать темы
Вы не можете отвечать на сообщения
Вы не можете редактировать свои сообщения
Вы не можете удалять свои сообщения
Вы не можете голосовать в опросах
Вы не можете прикреплять файлы к сообщениям
Вы не можете скачивать файлы