Ошибка

(Hip-Hop) Wiz Khalifa - O.N.I.F.C. [Deluxe Edition] - 2012, FLAC (tracks+.cue), lossless

Ответить на тему
 
Автор Сообщение

kossmos

Пол: Пол:Муж

Стаж: 12 лет

Сообщений: 269

Украина
Рейтинг

post 05-Дек-2012 02:24 0[+]

[Цитировать] 

Wiz Khalifa - O.N.I.F.C. [Deluxe Edition]


pic="http://img837.imageshack.us/img837/4994/6474841c48e50078cb81e91.jpg"


Жанр: Hip-Hop
Год издания данного носителя: 2012
Лейбл: Atlantic
Аудио кодек: FLAC
Тип рипа: tracks+.cue
Битрейт аудио: lossless
Продолжительность: 01:25:16
Источник (релизер): Scene (PERFECT)
Полиграфия: Отсутствует
1. Intro 0:40
2. Paperbond 3:28
3. Bluffin 5:32
4. Let It Go (Feat. Akon) 4:18
5. The Bluff (Feat. Cam'ron) 3:48
6. Work Hard, Play Hard 3:39
7. Got Everything (Feat. Courtney Noelle) 3:14
8. Fall Asleep 3:48
9. Time 3:56
10. It's Nothin (Feat. 2 Chainz) 3:47
11. Rise Above (Feat. Pharrell, Tuki Carter & 4:31
Amber Rose
12. Initiation (Feat. Lola Monroe) 4:29
13. Up In It 3:44
14. No Limit 9:27
15. The Plan (Feat. Juicy J) 4:54
16. Remember You (Feat. The Weeknd) 4:50
17. Medicated (Feat. Chevy Woods & Juicy J) 5:31
1. Bout Me (Feat. Problem & Iamsu) 3:28
2. Stackin 3:45
3. Mary 3x 4:19
Exact Audio Copy V1.0 beta 3 from 29. August 2011 

EAC extraction logfile from 4. December 2012, 13:25

Wiz Khalifa / O.N.I.F.C.

Used drive : PLDS DVD+-RW DS-8A5SH Adapter: 1 ID: 0

Read mode : Secure
Utilize accurate stream : Yes
Defeat audio cache : Yes
Make use of C2 pointers : No

Read offset correction : 6
Overread into Lead-In and Lead-Out : No
Fill up missing offset samples with silence : Yes
Delete leading and trailing silent blocks : No
Null samples used in CRC calculations : Yes
Used interface : Native Win32 interface for Win NT & 2000
Gap handling : Appended to previous track

Used output format : User Defined Encoder
Selected bitrate : 32 kBit/s
Quality : High
Add ID3 tag : No
Command line compressor : C:\Program Files (x86)\FLAC\flac.exe
Additional command line options : -T "artist=%artist%" -T "title=%title%" -T "album=%albumtitle%" -T "date=%year%" -T "tracknumber=%tracknr%" -T "genre=%genre%" -8 --verify %source%

TOC of the extracted CD

Track | Start | Length | Start sector | End sector
---------------------------------------------------------
1 | 0:00.00 | 0:40.03 | 0 | 3002
2 | 0:40.03 | 3:28.38 | 3003 | 18640
3 | 4:08.41 | 5:32.45 | 18641 | 43585
4 | 9:41.11 | 4:18.71 | 43586 | 63006
5 | 14:00.07 | 3:48.38 | 63007 | 80144
6 | 17:48.45 | 3:39.02 | 80145 | 96571
7 | 21:27.47 | 3:14.21 | 96572 | 111142
8 | 24:41.68 | 3:48.18 | 111143 | 128260
9 | 28:30.11 | 3:56.16 | 128261 | 145976
10 | 32:26.27 | 3:47.62 | 145977 | 163063
11 | 36:14.14 | 4:31.59 | 163064 | 183447
12 | 40:45.73 | 4:29.17 | 183448 | 203639
13 | 45:15.15 | 3:44.58 | 203640 | 220497
14 | 48:59.73 | 9:27.33 | 220498 | 263055
15 | 58:27.31 | 4:54.02 | 263056 | 285107
16 | 63:21.33 | 4:50.06 | 285108 | 306863
17 | 68:11.39 | 5:31.01 | 306864 | 331689

Track 1

Filename G:\Wiz\101-Wiz_Khalifa-Intro.wav

Pre-gap length 0:00:02.00

Peak level 99.8 %
Extraction speed 1.6 X
Track quality 100.0 %
Test CRC 3DF311C4
Copy CRC 3DF311C4
Track not present in AccurateRip database
Copy OK

Track 2

Filename G:\Wiz\102-Wiz_Khalifa-Paperbond.wav

Peak level 99.8 %
Extraction speed 2.5 X
Track quality 99.9 %
Test CRC B7EFD8BC
Copy CRC B7EFD8BC
Track not present in AccurateRip database
Copy OK

Track 3

Filename G:\Wiz\103-Wiz_Khalifa-Bluffin.wav

Peak level 99.8 %
Extraction speed 3.4 X
Track quality 100.0 %
Test CRC ACDCF9E7
Copy CRC ACDCF9E7
Track not present in AccurateRip database
Copy OK

Track 4

Filename G:\Wiz\104-Wiz_Khalifa-Let_It_Go_(Feat._Akon).wav

Peak level 99.8 %
Extraction speed 3.2 X
Track quality 99.9 %
Test CRC 50F95ECC
Copy CRC 50F95ECC
Track not present in AccurateRip database
Copy OK

Track 5

Filename G:\Wiz\105-Wiz_Khalifa-The_Bluff_(Feat._Cam'ron).wav

Peak level 99.8 %
Extraction speed 3.7 X
Track quality 100.0 %
Test CRC 6A03FB83
Copy CRC 6A03FB83
Track not present in AccurateRip database
Copy OK

Track 6

Filename G:\Wiz\106-Wiz_Khalifa-Work_Hard,_Play_Hard.wav

Peak level 99.8 %
Extraction speed 3.9 X
Track quality 100.0 %
Test CRC 052D5729
Copy CRC 052D5729
Track not present in AccurateRip database
Copy OK

Track 7

Filename G:\Wiz\107-Wiz_Khalifa-Got_Everything_(Feat._Courtney_Noelle).wav

Peak level 99.8 %
Extraction speed 4.0 X
Track quality 100.0 %
Test CRC DA9FC6AB
Copy CRC DA9FC6AB
Track not present in AccurateRip database
Copy OK

Track 8

Filename G:\Wiz\108-Wiz_Khalifa-Fall_Asleep.wav

Peak level 99.8 %
Extraction speed 4.3 X
Track quality 100.0 %
Test CRC 987A6A53
Copy CRC 987A6A53
Track not present in AccurateRip database
Copy OK

Track 9

Filename G:\Wiz\109-Wiz_Khalifa-Time.wav

Peak level 99.8 %
Extraction speed 4.5 X
Track quality 100.0 %
Test CRC 8EEA961E
Copy CRC 8EEA961E
Track not present in AccurateRip database
Copy OK

Track 10

Filename G:\Wiz\110-Wiz_Khalifa-It's_Nothin_(Feat._2_Chainz).wav

Peak level 99.8 %
Extraction speed 4.6 X
Track quality 100.0 %
Test CRC 7DFD29E2
Copy CRC 7DFD29E2
Track not present in AccurateRip database
Copy OK

Track 11

Filename G:\Wiz\111-Wiz_Khalifa-Rise_Above_(Feat._Pharrell,_Tuki_Carter_&_Amber_Rose).wav

Peak level 99.8 %
Extraction speed 4.9 X
Track quality 100.0 %
Test CRC 5C4FCA73
Copy CRC 5C4FCA73
Track not present in AccurateRip database
Copy OK

Track 12

Filename G:\Wiz\112-Wiz_Khalifa-Initiation_(Feat._Lola_Monroe).wav

Peak level 99.8 %
Extraction speed 4.5 X
Track quality 99.9 %
Test CRC 23903F0A
Copy CRC 23903F0A
Track not present in AccurateRip database
Copy OK

Track 13

Filename G:\Wiz\113-Wiz_Khalifa-Up_In_It.wav

Peak level 99.8 %
Extraction speed 4.5 X
Track quality 99.9 %
Test CRC ADA31AC8
Copy CRC ADA31AC8
Track not present in AccurateRip database
Copy OK

Track 14

Filename G:\Wiz\114-Wiz_Khalifa-No_Limit.wav

Peak level 99.8 %
Extraction speed 5.9 X
Track quality 100.0 %
Test CRC 0969D18D
Copy CRC 0969D18D
Track not present in AccurateRip database
Copy OK

Track 15

Filename G:\Wiz\115-Wiz_Khalifa-The_Plan_(Feat._Juicy_J).wav

Peak level 99.8 %
Extraction speed 5.7 X
Track quality 100.0 %
Test CRC 7DAD0707
Copy CRC 7DAD0707
Track not present in AccurateRip database
Copy OK

Track 16

Filename G:\Wiz\116-Wiz_Khalifa-Remember_You_(Feat._The_Weeknd).wav

Peak level 99.8 %
Extraction speed 5.9 X
Track quality 100.0 %
Test CRC 4703B3C6
Copy CRC 4703B3C6
Track not present in AccurateRip database
Copy OK

Track 17

Filename G:\Wiz\117-Wiz_Khalifa-Medicated_(Feat._Chevy_Woods_&_Juicy_J).wav

Pre-gap length 0:00:00.36

Peak level 99.8 %
Extraction speed 5.6 X
Track quality 99.9 %
Test CRC 6E45420D
Copy CRC 6E45420D
Track not present in AccurateRip database
Copy OK

None of the tracks are present in the AccurateRip database

No errors occurred

End of status report

==== Log checksum 64CD0FF738812A4BFE894BE224CE499B7ABF0A7F9D0DFF7D6DB6DB22E9ADCA63 ====
Exact Audio Copy V1.0 beta 3 from 29. August 2011 

EAC extraction logfile from 4. December 2012, 15:49

Wiz Khalifa / O.N.I.F.C.

Used drive : PLDS DVD+-RW DS-8A5SH Adapter: 1 ID: 0

Read mode : Secure
Utilize accurate stream : Yes
Defeat audio cache : Yes
Make use of C2 pointers : No

Read offset correction : 6
Overread into Lead-In and Lead-Out : No
Fill up missing offset samples with silence : Yes
Delete leading and trailing silent blocks : No
Null samples used in CRC calculations : Yes
Used interface : Native Win32 interface for Win NT & 2000
Gap handling : Appended to previous track

Used output format : User Defined Encoder
Selected bitrate : 32 kBit/s
Quality : High
Add ID3 tag : No
Command line compressor : C:\Program Files (x86)\FLAC\flac.exe
Additional command line options : -T "artist=%artist%" -T "title=%title%" -T "album=%albumtitle%" -T "date=%year%" -T "tracknumber=%tracknr%" -T "genre=%genre%" -8 --verify %source%

TOC of the extracted CD

Track | Start | Length | Start sector | End sector
---------------------------------------------------------
1 | 0:00.00 | 3:28.47 | 0 | 15646
2 | 3:28.47 | 3:45.64 | 15647 | 32585
3 | 7:14.36 | 4:19.18 | 32586 | 52028

Track 1

Filename G:\Wiz\201-Wiz_Khalifa-Bout_Me_(Feat._Problem_&_Iamsu!).wav

Pre-gap length 0:00:02.00

Peak level 99.8 %
Extraction speed 2.6 X
Track quality 100.0 %
Test CRC 90FA6F44
Copy CRC 90FA6F44
Track not present in AccurateRip database
Copy OK

Track 2

Filename G:\Wiz\202-Wiz_Khalifa-Stackin.wav

Peak level 99.8 %
Extraction speed 3.0 X
Track quality 100.0 %
Test CRC 3A78403D
Copy CRC 3A78403D
Track not present in AccurateRip database
Copy OK

Track 3

Filename G:\Wiz\203-Wiz_Khalifa-Mary_3x.wav

Peak level 99.8 %
Extraction speed 3.3 X
Track quality 100.0 %
Test CRC 6769D61C
Copy CRC 6769D61C
Track not present in AccurateRip database
Copy OK

None of the tracks are present in the AccurateRip database

No errors occurred

End of status report

==== Log checksum 6F2D9083E78C8CD969DE8176CF9DFEBB132E3ED38F142878CAF465E47F3648D4 ====
REM GENRE Hip-Hop 
REM DATE 2012
REM DISCID EB114611
REM COMMENT "Team PERFECT"
CATALOG 0075678766565
PERFORMER "Wiz Khalifa"
TITLE "O.N.I.F.C."
FILE "101-wiz_khalifa-intro.flac" WAVE
TRACK 01 AUDIO
TITLE "Intro"
PERFORMER "Wiz Khalifa"
ISRC USAT21205601
INDEX 01 00:00:00
FILE "102-wiz_khalifa-paperbond.flac" WAVE
TRACK 02 AUDIO
TITLE "Paperbond"
PERFORMER "Wiz Khalifa"
ISRC USAT21205602
INDEX 01 00:00:00
FILE "103-wiz_khalifa-bluffin.flac" WAVE
TRACK 03 AUDIO
TITLE "Bluffin"
PERFORMER "Wiz Khalifa"
ISRC USAT21205603
INDEX 01 00:00:00
FILE "104-wiz_khalifa-let_it_go_(feat._akon).flac" WAVE
TRACK 04 AUDIO
TITLE "Let It Go (Feat. Akon)"
PERFORMER "Wiz Khalifa"
ISRC USAT21205604
INDEX 01 00:00:00
FILE "105-wiz_khalifa-the_bluff_(feat._camron).flac" WAVE
TRACK 05 AUDIO
TITLE "The Bluff (Feat. Cam'ron)"
PERFORMER "Wiz Khalifa"
ISRC USAT21202859
INDEX 01 00:00:00
FILE "106-wiz_khalifa-work_hard_play_hard.flac" WAVE
TRACK 06 AUDIO
TITLE "Work Hard, Play Hard"
PERFORMER "Wiz Khalifa"
ISRC USAT21201652
INDEX 01 00:00:00
FILE "107-wiz_khalifa-got_everything_(feat._courtney_noelle).flac" WAVE
TRACK 07 AUDIO
TITLE "Got Everything (Feat. Courtney Noelle)"
PERFORMER "Wiz Khalifa"
ISRC USAT21205606
INDEX 01 00:00:00
FILE "108-wiz_khalifa-fall_asleep.flac" WAVE
TRACK 08 AUDIO
TITLE "Fall Asleep"
PERFORMER "Wiz Khalifa"
ISRC USAT21205607
INDEX 01 00:00:00
FILE "109-wiz_khalifa-time.flac" WAVE
TRACK 09 AUDIO
TITLE "Time"
PERFORMER "Wiz Khalifa"
ISRC USAT21205608
INDEX 01 00:00:00
FILE "110-wiz_khalifa-its_nothin_(feat._2_chainz).flac" WAVE
TRACK 10 AUDIO
TITLE "It's Nothin (Feat. 2 Chainz)"
PERFORMER "Wiz Khalifa"
ISRC USAT21202996
INDEX 01 00:00:00
FILE "111-wiz_khalifa-rise_above_(feat._pharrell_tuki_carter_and_amber_rose).flac" WAVE
TRACK 11 AUDIO
TITLE "Rise Above (Feat. Pharrell, Tuki Carter & Amber Rose)"
PERFORMER "Wiz Khalifa"
ISRC USAT21205610
INDEX 01 00:00:00
FILE "112-wiz_khalifa-initiation_(feat._lola_monroe).flac" WAVE
TRACK 12 AUDIO
TITLE "Initiation (Feat. Lola Monroe)"
PERFORMER "Wiz Khalifa"
ISRC USAT21205611
INDEX 01 00:00:00
FILE "113-wiz_khalifa-up_in_it.flac" WAVE
TRACK 13 AUDIO
TITLE "Up In It"
PERFORMER "Wiz Khalifa"
ISRC USAT21205612
INDEX 01 00:00:00
FILE "114-wiz_khalifa-no_limit.flac" WAVE
TRACK 14 AUDIO
TITLE "No Limit"
PERFORMER "Wiz Khalifa"
ISRC USAT21205613
INDEX 01 00:00:00
FILE "115-wiz_khalifa-the_plan_(feat._juicy_j).flac" WAVE
TRACK 15 AUDIO
TITLE "The Plan (Feat. Juicy J)"
PERFORMER "Wiz Khalifa"
ISRC USAT21205614
INDEX 01 00:00:00
FILE "116-wiz_khalifa-remember_you_(feat._the_weeknd).flac" WAVE
TRACK 16 AUDIO
TITLE "Remember You (Feat. The Weeknd)"
PERFORMER "Wiz Khalifa"
ISRC USAT21203908
INDEX 01 00:00:00
TRACK 17 AUDIO
TITLE "Medicated (Feat. Chevy Woods & Juicy J)"
PERFORMER "Wiz Khalifa"
ISRC USAT21205616
INDEX 00 04:49:45
FILE "117-wiz_khalifa-medicated_(feat._chevy_woods_and_juicy_j).flac" WAVE
INDEX 01 00:00:00
REM GENRE Hip-Hop 
REM DATE 2012
REM DISCID 1202B503
REM COMMENT "Team PERFECT"
CATALOG 0075678762314
PERFORMER "Wiz Khalifa"
TITLE "O.N.I.F.C."
FILE "201-wiz_khalifa-bout_me_(feat._problem_and_iamsu).flac" WAVE
TRACK 01 AUDIO
TITLE "Bout Me (Feat. Problem & Iamsu!)"
PERFORMER "Wiz Khalifa"
ISRC USAT21207090
INDEX 01 00:00:00
FILE "202-wiz_khalifa-stackin.flac" WAVE
TRACK 02 AUDIO
TITLE "Stackin"
PERFORMER "Wiz Khalifa"
ISRC USAT21207091
INDEX 01 00:00:00
FILE "203-wiz_khalifa-mary_3x.flac" WAVE
TRACK 03 AUDIO
TITLE "Mary 3x"
PERFORMER "Wiz Khalifa"
ISRC USAT21207092
INDEX 01 00:00:00
info [Профиль]  [ЛС] 
Показать сообщения:    
Ответить на тему

Текущее время: 25-Май 02:07

Часовой пояс: GMT + 4



Вы не можете начинать темы
Вы не можете отвечать на сообщения
Вы не можете редактировать свои сообщения
Вы не можете удалять свои сообщения
Вы не можете голосовать в опросах
Вы не можете прикреплять файлы к сообщениям
Вы не можете скачивать файлы