Ошибка

(Rap, Hip-Hop) DJ Khaled - Kiss The Ring (Deluxe Edition) - 2012, Flac (tracks+.cue), 320 kbps

Ответить на тему
 
Автор Сообщение

Raxent

Пол: Пол:Муж

Стаж: 12 лет

Сообщений: 219

Рейтинг

post 27-Сен-2012 15:15 0[+]

[Цитировать] 

DJ Khaled - Kiss The Ring (Deluxe Edition)

Жанр: Rap, Hip-Hop
Страна: USA/Universal Republic
Год издания: August 21, 2012
Аудиокодек: FLAC
Тип рипа: tracks+.cue
Битрейт аудио: 320 kbps
Продолжительность: 00:59:34
Источник (релизер): what.cd
Наличие сканов в содержимом раздачи: Цифровой Буклет
01. Shout Out To The Real (Feat. Meek Mill, Ace Hood & Plies)
02. Bitches & Bottles (Let's Get It Started) (Feat. Lil Wayne, T.I. & Future)
03. I Wish You Would (Feat. Kanye West & Rick Ross)
04. Take It To The Head (Feat. Lil Wayne, Chris Brown, Rick Ross & Nicki Minaj)
05. They Ready (Feat. J.Cole. Big K.R.I.T. & Kendrick Lamar)
06. I'm So Blessed (Feat. Big Sean, Wiz Khalifa, Ace Hood & T-Pain)
07. Hip Hop (Feat. Scarface, Nas & DJ Premier)
08. I Did I It for My Dawgz (Feat. Rick Ross, Meek Mill, French Montana & Jadakiss)
09. I Don't See 'Em (Feat. Birdman, Ace Hood & 2 Chainz)
10. Don't Pay 4 It (Feat. Wale, Tyga, Mack Maine & Kirko Bangz )
11. Suicidal Thoughts (Feat. Mavado)
12. They Don't Want War (Outro) (Feat. Ace Hood)
Deluxe Edition:
13. Don't Get Me Started (Feat. Ace Hood)
14. Aktion Pak (Feat. Mavado)
15. B Boyz (Feat. Birdman, Kendrick Lamar, Ace Hood & Mack Maine)

 
Exact Audio Copy V1.0 beta 3 from 29. August 2011

EAC extraction logfile from 21. August 2012, 13:30

DJ Khaled / Kiss the Ring

Used drive : HL-DT-STBDDVDRW GBC-H20L Adapter: 2 ID: 1

Read mode : Secure
Utilize accurate stream : Yes
Defeat audio cache : Yes
Make use of C2 pointers : No

Read offset correction : 667
Overread into Lead-In and Lead-Out : No
Fill up missing offset samples with silence : Yes
Delete leading and trailing silent blocks : No
Null samples used in CRC calculations : Yes
Used interface : Native Win32 interface for Win NT & 2000
Gap handling : Appended to previous track

Used output format : User Defined Encoder
Selected bitrate : 1024 kBit/s
Quality : High
Add ID3 tag : No
Command line compressor : C:\Program Files (x86)\Exact Audio Copy\Flac\flac.exe
Additional command line options : -8 -V -T "ARTIST=%artist%" -T "TITLE=%title%" -T "ALBUM=%albumtitle%" -T "DATE=%year%" -T "TRACKNUMBER=%tracknr%" -T "GENRE=%genre%" -T "PERFORMER=%albuminterpret%" -T "COMPOSER=%composer%" %haslyrics%--tag-from-file=LYRICS="%lyricsfile%"%haslyrics% -T "ALBUMARTIST=%albumartist%" -T "DISCNUMBER=%cdnumber%" -T "TOTALDISCS=%totalcds%" -T "TOTALTRACKS=%numtracks%" -T "COMMENT=%comment%" %source% -o %dest%

TOC of the extracted CD

Track | Start | Length | Start sector | End sector
---------------------------------------------------------
1 | 0:00.00 | 4:13.33 | 0 | 19007
2 | 4:13.33 | 4:29.22 | 19008 | 39204
3 | 8:42.55 | 3:57.26 | 39205 | 57005
4 | 12:40.06 | 4:27.13 | 57006 | 77043
5 | 17:07.19 | 3:14.19 | 77044 | 91612
6 | 20:21.38 | 4:12.51 | 91613 | 110563
7 | 24:34.14 | 4:23.16 | 110564 | 130304
8 | 28:57.30 | 4:25.11 | 130305 | 150190
9 | 33:22.41 | 4:34.00 | 150191 | 170740
10 | 37:56.41 | 4:17.53 | 170741 | 190068
11 | 42:14.19 | 3:14.51 | 190069 | 204669
12 | 45:28.70 | 3:03.07 | 204670 | 218401
13 | 48:32.02 | 3:02.55 | 218402 | 232106
14 | 51:34.57 | 3:07.31 | 232107 | 246162
15 | 54:42.13 | 4:57.12 | 246163 | 268449

Track 1

Filename C:\EAC Rips\DJ Khaled - Kiss The Ring (2012) [FLAC]\01 - DJ Khaled - Shout Out To The Real (feat. Meek Mill, Ace Hood & Plies).wav

Pre-gap length 0:00:02.00

Peak level 99.8 %
Extraction speed 3.5 X
Track quality 100.0 %
Test CRC CDB25C6C
Copy CRC CDB25C6C
Track not present in AccurateRip database
Copy OK

Track 2

Filename C:\EAC Rips\DJ Khaled - Kiss The Ring (2012) [FLAC]\02 - DJ Khaled - Bitches & Bottles (Let's Get It Started) (feat. Lil Wayne, T.I. & Future).wav

Peak level 100.0 %
Extraction speed 3.9 X
Track quality 100.0 %
Test CRC 5885AEA5
Copy CRC 5885AEA5
Track not present in AccurateRip database
Copy OK

Track 3

Filename C:\EAC Rips\DJ Khaled - Kiss The Ring (2012) [FLAC]\03 - DJ Khaled - I Wish You Would (feat. Kanye West & Rick Ross).wav

Peak level 100.0 %
Extraction speed 3.4 X
Track quality 99.9 %
Test CRC 3D48A42E
Copy CRC 3D48A42E
Track not present in AccurateRip database
Copy OK

Track 4

Filename C:\EAC Rips\DJ Khaled - Kiss The Ring (2012) [FLAC]\04 - DJ Khaled - Take It To The Head (feat. Rick Ross, Nicki Minaj, Chris Brown & Lil Wayne).wav

Peak level 99.9 %
Extraction speed 4.5 X
Track quality 100.0 %
Test CRC D1D6D0EB
Copy CRC D1D6D0EB
Track not present in AccurateRip database
Copy OK

Track 5

Filename C:\EAC Rips\DJ Khaled - Kiss The Ring (2012) [FLAC]\05 - DJ Khaled - They Ready (feat. J. Cole, Big K.R.I.T. & Kendrick Lamar).wav

Peak level 99.8 %
Extraction speed 4.6 X
Track quality 100.0 %
Test CRC 6D0024AE
Copy CRC 6D0024AE
Track not present in AccurateRip database
Copy OK

Track 6

Filename C:\EAC Rips\DJ Khaled - Kiss The Ring (2012) [FLAC]\06 - DJ Khaled - I'm So Blessed (feat. Big Sean, Wiz Khalifa, Ace Hood & T-Pain).wav

Peak level 99.8 %
Extraction speed 4.1 X
Track quality 99.9 %
Test CRC F86F777D
Copy CRC F86F777D
Track not present in AccurateRip database
Copy OK

Track 7

Filename C:\EAC Rips\DJ Khaled - Kiss The Ring (2012) [FLAC]\07 - DJ Khaled - Hip Hop (feat. Scarface, Nas & DJ Premier).wav

Peak level 99.6 %
Extraction speed 5.2 X
Track quality 100.0 %
Test CRC 4B41DBFB
Copy CRC 4B41DBFB
Track not present in AccurateRip database
Copy OK

Track 8

Filename C:\EAC Rips\DJ Khaled - Kiss The Ring (2012) [FLAC]\08 - DJ Khaled - I Did It For My Dawgz (feat. Rick Ross, Meek Mill, French Montana & Jadakiss).wav

Peak level 99.8 %
Extraction speed 5.4 X
Track quality 100.0 %
Test CRC BD8839A4
Copy CRC BD8839A4
Track not present in AccurateRip database
Copy OK

Track 9

Filename C:\EAC Rips\DJ Khaled - Kiss The Ring (2012) [FLAC]\09 - DJ Khaled - I Don't See 'Em (feat. Birdman, Ace Hood & 2 Chainz).wav

Peak level 99.8 %
Extraction speed 5.8 X
Track quality 100.0 %
Test CRC F8AE6E48
Copy CRC F8AE6E48
Track not present in AccurateRip database
Copy OK

Track 10

Filename C:\EAC Rips\DJ Khaled - Kiss The Ring (2012) [FLAC]\10 - DJ Khaled - Don't Pay 4 It (feat. Wale, Tyga, Mack Maine & Kirko Bangz).wav

Peak level 99.8 %
Extraction speed 6.0 X
Track quality 100.0 %
Test CRC EA1B2095
Copy CRC EA1B2095
Track not present in AccurateRip database
Copy OK

Track 11

Filename C:\EAC Rips\DJ Khaled - Kiss The Ring (2012) [FLAC]\11 - DJ Khaled - Suicidal Thoughts (feat. Movado).wav

Peak level 99.8 %
Extraction speed 5.9 X
Track quality 100.0 %
Test CRC 638EBBCF
Copy CRC 638EBBCF
Track not present in AccurateRip database
Copy OK

Track 12

Filename C:\EAC Rips\DJ Khaled - Kiss The Ring (2012) [FLAC]\12 - DJ Khaled - Outro (They Don't Want War) (feat. Ace Hood).wav

Peak level 99.8 %
Extraction speed 6.0 X
Track quality 100.0 %
Test CRC 326DFCD7
Copy CRC 326DFCD7
Track not present in AccurateRip database
Copy OK

Track 13

Filename C:\EAC Rips\DJ Khaled - Kiss The Ring (2012) [FLAC]\13 - Ace Hood - Don't Get Me Started (feat. DJ Khaled).wav

Peak level 99.9 %
Extraction speed 6.1 X
Track quality 100.0 %
Test CRC 34446051
Copy CRC 34446051
Track not present in AccurateRip database
Copy OK

Track 14

Filename C:\EAC Rips\DJ Khaled - Kiss The Ring (2012) [FLAC]\14 - Mavado - Aktion Pak (feat. DJ Khaled).wav

Peak level 100.0 %
Extraction speed 6.1 X
Track quality 100.0 %
Test CRC 3A99FA71
Copy CRC 3A99FA71
Track not present in AccurateRip database
Copy OK

Track 15

Filename C:\EAC Rips\DJ Khaled - Kiss The Ring (2012) [FLAC]\15 - Birdman - B-Boyz (feat. DJ Khaled, Mack Maine, Kendrick Lamar & Ace Hood).wav

Peak level 99.8 %
Extraction speed 5.4 X
Track quality 99.9 %
Test CRC 53556B87
Copy CRC 53556B87
Track not present in AccurateRip database
Copy OK

None of the tracks are present in the AccurateRip database

No errors occurred

End of status report

---- CUETools DB Plugin V2.1.3

[CTDB TOCID: 5Yx5YkOAoitEQwUuWb8MIVtW6.E-] disk not present in database, Submit result: 5Yx5YkOAoitEQwUuWb8MIVtW6.E- has been uploaded

==== Log checksum 4EA168F8C1D3400715CE23EF07DB7895311DEAAAF368346E6831F721360110A8 ====
 
REM GENRE Hip-Hop
REM DATE 2012
REM DISCID CA0DFB0F
REM COMMENT "ExactAudioCopy v1.0b3"
CATALOG 0602537125227
PERFORMER "DJ Khaled"
TITLE "Kiss the Ring"
FILE "01 - DJ Khaled - Shout Out To The Real (feat. Meek Mill, Ace Hood & Plies).wav" WAVE
TRACK 01 AUDIO
TITLE "Shout Out To The Real (feat. Meek Mill, Ace Hood & Plies)"
PERFORMER "DJ Khaled"
ISRC USCM51200489
FLAGS DCP
INDEX 01 00:00:00
FILE "02 - DJ Khaled - Bitches & Bottles (Let's Get It Started) (feat. Lil Wayne, T.I. & Future).wav" WAVE
TRACK 02 AUDIO
TITLE "Bitches & Bottles (Let's Get It Started) (feat. Lil Wayne, T.I. & Future)"
PERFORMER "DJ Khaled"
ISRC USCM51200491
FLAGS DCP
INDEX 01 00:00:00
FILE "03 - DJ Khaled - I Wish You Would (feat. Kanye West & Rick Ross).wav" WAVE
TRACK 03 AUDIO
TITLE "I Wish You Would (feat. Kanye West & Rick Ross)"
PERFORMER "DJ Khaled"
ISRC USCM51200452
FLAGS DCP
INDEX 01 00:00:00
FILE "04 - DJ Khaled - Take It To The Head (feat. Rick Ross, Nicki Minaj, Chris Brown & Lil Wayne).wav" WAVE
TRACK 04 AUDIO
TITLE "Take It To The Head (feat. Rick Ross, Nicki Minaj, Chris Brown & Lil Wayne)"
PERFORMER "DJ Khaled"
ISRC USCM51200323
FLAGS DCP
INDEX 01 00:00:00
FILE "05 - DJ Khaled - They Ready (feat. J. Cole, Big K.R.I.T. & Kendrick Lamar).wav" WAVE
TRACK 05 AUDIO
TITLE "They Ready (feat. J. Cole, Big K.R.I.T. & Kendrick Lamar)"
PERFORMER "DJ Khaled"
ISRC USCM51200493
FLAGS DCP
INDEX 01 00:00:00
FILE "06 - DJ Khaled - I'm So Blessed (feat. Big Sean, Wiz Khalifa, Ace Hood & T-Pain).wav" WAVE
TRACK 06 AUDIO
TITLE "I'm So Blessed (feat. Big Sean, Wiz Khalifa, Ace Hood & T-Pain)"
PERFORMER "DJ Khaled"
ISRC USCM51200450
FLAGS DCP
INDEX 01 00:00:00
FILE "07 - DJ Khaled - Hip Hop (feat. Scarface, Nas & DJ Premier).wav" WAVE
TRACK 07 AUDIO
TITLE "Hip Hop (feat. Scarface, Nas & DJ Premier)"
PERFORMER "DJ Khaled"
ISRC USCM51200498
FLAGS DCP
INDEX 01 00:00:00
FILE "08 - DJ Khaled - I Did It For My Dawgz (feat. Rick Ross, Meek Mill, French Montana & Jadakiss).wav" WAVE
TRACK 08 AUDIO
TITLE "I Did It For My Dawgz (feat. Rick Ross, Meek Mill, French Montana & Jadakiss)"
PERFORMER "DJ Khaled"
ISRC USCM51200495
FLAGS DCP
INDEX 01 00:00:00
FILE "09 - DJ Khaled - I Don't See 'Em (feat. Birdman, Ace Hood & 2 Chainz).wav" WAVE
TRACK 09 AUDIO
TITLE "I Don't See 'Em (feat. Birdman, Ace Hood & 2 Chainz)"
PERFORMER "DJ Khaled"
ISRC USCM51200500
FLAGS DCP
INDEX 01 00:00:00
FILE "10 - DJ Khaled - Don't Pay 4 It (feat. Wale, Tyga, Mack Maine & Kirko Bangz).wav" WAVE
TRACK 10 AUDIO
TITLE "Don't Pay 4 It (feat. Wale, Tyga, Mack Maine & Kirko Bangz)"
PERFORMER "DJ Khaled"
ISRC USCM51200503
FLAGS DCP
INDEX 01 00:00:00
FILE "11 - DJ Khaled - Suicidal Thoughts (feat. Movado).wav" WAVE
TRACK 11 AUDIO
TITLE "Suicidal Thoughts (feat. Movado)"
PERFORMER "DJ Khaled"
ISRC USCM51200505
FLAGS DCP
INDEX 01 00:00:00
FILE "12 - DJ Khaled - Outro (They Don't Want War) (feat. Ace Hood).wav" WAVE
TRACK 12 AUDIO
TITLE "Outro (They Don't Want War) (feat. Ace Hood)"
PERFORMER "DJ Khaled"
ISRC USCM51200507
FLAGS DCP
INDEX 01 00:00:00
FILE "13 - Ace Hood - Don't Get Me Started (feat. DJ Khaled).wav" WAVE
TRACK 13 AUDIO
TITLE "Don't Get Me Started (feat. DJ Khaled)"
PERFORMER "Ace Hood"
ISRC USCM51200509
FLAGS DCP
INDEX 01 00:00:00
FILE "14 - Mavado - Aktion Pak (feat. DJ Khaled).wav" WAVE
TRACK 14 AUDIO
TITLE "Aktion Pak (feat. DJ Khaled)"
PERFORMER "Mavado"
ISRC USCM51200510
FLAGS DCP
INDEX 01 00:00:00
FILE "15 - Birdman - B-Boyz (feat. DJ Khaled, Mack Maine, Kendrick Lamar & Ace Hood).wav" WAVE
TRACK 15 AUDIO
TITLE "B-Boyz (feat. DJ Khaled, Mack Maine, Kendrick Lamar & Ace Hood)"
PERFORMER "Birdman"
ISRC USCM51200515
FLAGS DCP
INDEX 01 00:00:00

info [Профиль]  [ЛС] 

post 27-Сен-2012 15:16 (спустя 25 секунд) [-]0[+]

Топик был перенесен из форума Оформление раздач в форум Зарубежный Rap, Hip-Hop, R'n'B (lossless)

saGambit
 
Показать сообщения:    
Ответить на тему

Текущее время: 25-Май 01:10

Часовой пояс: GMT + 4



Вы не можете начинать темы
Вы не можете отвечать на сообщения
Вы не можете редактировать свои сообщения
Вы не можете удалять свои сообщения
Вы не можете голосовать в опросах
Вы не можете прикреплять файлы к сообщениям
Вы не можете скачивать файлы