Ошибка

(Hip-Hop) ¡Mayday! - Take Me To Your Leader - 2012, FLAC (tracks+.cue), lossless

Ответить на тему
 
Автор Сообщение

Raxent

Пол: Пол:Муж

Стаж: 12 лет

Сообщений: 219

Рейтинг

post 06-Июн-2012 21:43 0[+]

[Цитировать] 


¡Mayday!
"Take Me To Your Leader"
Жанр: Hip-Hop
Страна-производитель диска: USA
Год издания: 2012
Издатель (лейбл): Strange Music
Страна: USA
Аудиокодек: FLAC (*.flac)
Тип рипа: tracks+.cue
Битрейт аудио: lossless
Продолжительность: 01:09:10
Источник (релизер): what.cd (NeoMischief)
Наличие сканов в содержимом раздачи: нет

Треклист:
    01. Badlands (feat. Tech N9ne)
    02. Death March
    03. Roaches
    04. Highs & Lows (feat. Ace Hood)
    05. R.E.M.
    06. Lando's Jam
    07. Due In June
    08. Dig It Out
    09. Imprint (feat. Jovi Rockwell)
    10. TNT (feat. Dead Prez)
    11. Hardcore Bitches (feat. Murs)
    12. Last Days (feat. Krizz Kaliko)
    13. Everything's Everything
    14. Devil On My Mind (feat. Liz Suwandi)
    15. 20/20
    16. Keep Em On
    17. Take Me To Your Leader
    18. June
    19. Last Minute Trip

 
Exact Audio Copy V1.0 beta 3 from 29. August 2011

EAC extraction logfile from 15. May 2012, 14:12

¡Mayday! / Take Me to Your Leader

Used drive : MATSHITADVD-R UJ-898 Adapter: 1 ID: 0

Read mode : Secure
Utilize accurate stream : Yes
Defeat audio cache : Yes
Make use of C2 pointers : No

Read offset correction : 102
Overread into Lead-In and Lead-Out : No
Fill up missing offset samples with silence : Yes
Delete leading and trailing silent blocks : No
Null samples used in CRC calculations : Yes
Used interface : Native Win32 interface for Win NT & 2000
Gap handling : Appended to previous track

Used output format : User Defined Encoder
Selected bitrate : 1024 kBit/s
Quality : High
Add ID3 tag : No
Command line compressor : C:\Program Files (x86)\Exact Audio Copy\Flac\flac.exe
Additional command line options : -8 -V -T "ARTIST=%artist%" -T "TITLE=%title%" -T "ALBUM=%albumtitle%" -T "DATE=%year%" -T "TRACKNUMBER=%tracknr1%" -T "GENRE=%genre%" -T "PERFORMER=%albuminterpret%" -T "COMPOSER=%composer%" %haslyrics%--tag-from-file=LYRICS="%lyricsfile%"%haslyrics% -T "ALBUMARTIST=%albumartist%" -T "DISCNUMBER=%cdnumber%" -T "TOTALDISCS=%totalcds%" -T "TOTALTRACKS=%numtracks%" -T "COMMENT=%comment%" %source% -o %dest%

TOC of the extracted CD

Track | Start | Length | Start sector | End sector
---------------------------------------------------------
1 | 0:00.00 | 4:39.06 | 0 | 20930
2 | 4:39.06 | 3:22.37 | 20931 | 36117
3 | 8:01.43 | 3:28.65 | 36118 | 51782
4 | 11:30.33 | 3:43.63 | 51783 | 68570
5 | 15:14.21 | 3:34.41 | 68571 | 84661
6 | 18:48.62 | 2:47.48 | 84662 | 97234
7 | 21:36.35 | 3:00.70 | 97235 | 110804
8 | 24:37.30 | 4:08.68 | 110805 | 129472
9 | 28:46.23 | 3:44.45 | 129473 | 146317
10 | 32:30.68 | 4:45.41 | 146318 | 167733
11 | 37:16.34 | 3:49.33 | 167734 | 184941
12 | 41:05.67 | 3:23.70 | 184942 | 200236
13 | 44:29.62 | 4:39.36 | 200237 | 221197
14 | 49:09.23 | 2:50.24 | 221198 | 233971
15 | 51:59.47 | 3:56.29 | 233972 | 251700
16 | 55:56.01 | 4:09.04 | 251701 | 270379
17 | 60:05.05 | 3:05.63 | 270380 | 284317
18 | 63:10.68 | 3:02.31 | 284318 | 297998
19 | 66:13.24 | 2:56.01 | 297999 | 311199

Track 1

Filename C:\EAC Rips\¡Mayday! - Take Me to Your Leader (2012) [FLAC]\1 - ¡Mayday! feat. Tech N9ne - Badlands.wav

Pre-gap length 0:00:02.00

Peak level 99.8 %
Extraction speed 3.0 X
Track quality 100.0 %
Test CRC 97440DD1
Copy CRC 97440DD1
Track not present in AccurateRip database
Copy OK

Track 2

Filename C:\EAC Rips\¡Mayday! - Take Me to Your Leader (2012) [FLAC]\2 - ¡Mayday! - Death March.wav

Peak level 99.8 %
Extraction speed 2.6 X
Track quality 99.9 %
Test CRC 8866D675
Copy CRC 8866D675
Track not present in AccurateRip database
Copy OK

Track 3

Filename C:\EAC Rips\¡Mayday! - Take Me to Your Leader (2012) [FLAC]\3 - ¡Mayday! - Roaches.wav

Peak level 99.8 %
Extraction speed 3.4 X
Track quality 100.0 %
Test CRC 9590DFC4
Copy CRC 9590DFC4
Track not present in AccurateRip database
Copy OK

Track 4

Filename C:\EAC Rips\¡Mayday! - Take Me to Your Leader (2012) [FLAC]\4 - ¡Mayday! feat. Ace Hood - Highs & Lows.wav

Peak level 99.8 %
Extraction speed 3.7 X
Track quality 100.0 %
Test CRC C5A0E5B5
Copy CRC C5A0E5B5
Track not present in AccurateRip database
Copy OK

Track 5

Filename C:\EAC Rips\¡Mayday! - Take Me to Your Leader (2012) [FLAC]\5 - ¡Mayday! - R.E.M..wav

Peak level 99.8 %
Extraction speed 3.8 X
Track quality 100.0 %
Test CRC B7E265BF
Copy CRC B7E265BF
Track not present in AccurateRip database
Copy OK

Track 6

Filename C:\EAC Rips\¡Mayday! - Take Me to Your Leader (2012) [FLAC]\6 - ¡Mayday! - Lando's Jam.wav

Peak level 99.8 %
Extraction speed 3.0 X
Track quality 99.9 %
Test CRC C2657783
Copy CRC C2657783
Track not present in AccurateRip database
Copy OK

Track 7

Filename C:\EAC Rips\¡Mayday! - Take Me to Your Leader (2012) [FLAC]\7 - ¡Mayday! - Due in June.wav

Peak level 99.8 %
Extraction speed 3.1 X
Track quality 99.9 %
Test CRC 62A5E379
Copy CRC 62A5E379
Track not present in AccurateRip database
Copy OK

Track 8

Filename C:\EAC Rips\¡Mayday! - Take Me to Your Leader (2012) [FLAC]\8 - ¡Mayday! - Dig It Out.wav

Peak level 99.8 %
Extraction speed 4.4 X
Track quality 100.0 %
Test CRC 73E4D7C0
Copy CRC 73E4D7C0
Track not present in AccurateRip database
Copy OK

Track 9

Filename C:\EAC Rips\¡Mayday! - Take Me to Your Leader (2012) [FLAC]\9 - ¡Mayday! feat. Jovi Rockwell - Imprint.wav

Peak level 99.8 %
Extraction speed 4.5 X
Track quality 100.0 %
Test CRC 805F1E16
Copy CRC 805F1E16
Track not present in AccurateRip database
Copy OK

Track 10

Filename C:\EAC Rips\¡Mayday! - Take Me to Your Leader (2012) [FLAC]\10 - ¡Mayday! feat. dead prez - TNT.wav

Peak level 99.8 %
Extraction speed 5.0 X
Track quality 100.0 %
Test CRC 1D3DB63E
Copy CRC 1D3DB63E
Track not present in AccurateRip database
Copy OK

Track 11

Filename C:\EAC Rips\¡Mayday! - Take Me to Your Leader (2012) [FLAC]\11 - ¡Mayday! feat. Murs - Hardcore Bitches.wav

Peak level 99.1 %
Extraction speed 5.0 X
Track quality 100.0 %
Test CRC 0B7C560F
Copy CRC 0B7C560F
Track not present in AccurateRip database
Copy OK

Track 12

Filename C:\EAC Rips\¡Mayday! - Take Me to Your Leader (2012) [FLAC]\12 - ¡Mayday! feat. Krizz Kaliko - Last Days.wav

Peak level 99.8 %
Extraction speed 5.1 X
Track quality 100.0 %
Test CRC DC9FE3EF
Copy CRC DC9FE3EF
Track not present in AccurateRip database
Copy OK

Track 13

Filename C:\EAC Rips\¡Mayday! - Take Me to Your Leader (2012) [FLAC]\13 - ¡Mayday! - Everything's Everything.wav

Peak level 99.8 %
Extraction speed 5.4 X
Track quality 100.0 %
Test CRC 780ABF16
Copy CRC 780ABF16
Track not present in AccurateRip database
Copy OK

Track 14

Filename C:\EAC Rips\¡Mayday! - Take Me to Your Leader (2012) [FLAC]\14 - ¡Mayday! feat. Liz Suwandi - Devil on My Mind.wav

Peak level 99.8 %
Extraction speed 3.8 X
Track quality 99.9 %
Test CRC 532C22C3
Copy CRC 532C22C3
Track not present in AccurateRip database
Copy OK

Track 15

Filename C:\EAC Rips\¡Mayday! - Take Me to Your Leader (2012) [FLAC]\15 - ¡Mayday! - 20,20.wav

Peak level 99.8 %
Extraction speed 4.1 X
Track quality 99.9 %
Test CRC AA9056A2
Copy CRC AA9056A2
Track not present in AccurateRip database
Copy OK

Track 16

Filename C:\EAC Rips\¡Mayday! - Take Me to Your Leader (2012) [FLAC]\16 - ¡Mayday! - Keep Em On.wav

Peak level 99.8 %
Extraction speed 5.6 X
Track quality 100.0 %
Test CRC 1858BCE8
Copy CRC 1858BCE8
Track not present in AccurateRip database
Copy OK

Track 17

Filename C:\EAC Rips\¡Mayday! - Take Me to Your Leader (2012) [FLAC]\17 - ¡Mayday! - Take Me to Your Leader.wav

Peak level 99.8 %
Extraction speed 5.5 X
Track quality 100.0 %
Test CRC 095158C0
Copy CRC 095158C0
Track not present in AccurateRip database
Copy OK

Track 18

Filename C:\EAC Rips\¡Mayday! - Take Me to Your Leader (2012) [FLAC]\18 - ¡Mayday! - June.wav

Peak level 99.8 %
Extraction speed 5.7 X
Track quality 100.0 %
Test CRC FBCA5643
Copy CRC FBCA5643
Track not present in AccurateRip database
Copy OK

Track 19

Filename C:\EAC Rips\¡Mayday! - Take Me to Your Leader (2012) [FLAC]\19 - ¡Mayday! - Last Minute Trip.wav

Peak level 99.8 %
Extraction speed 5.8 X
Track quality 100.0 %
Test CRC 55548412
Copy CRC 55548412
Track not present in AccurateRip database
Copy OK

None of the tracks are present in the AccurateRip database

No errors occurred

End of status report

---- CUETools DB Plugin V2.1.3

[CTDB TOCID: nWEfV7B7TrAVNmTent_.KrHRpSk-] disk not present in database, Submit result: nWEfV7B7TrAVNmTent_.KrHRpSk- has been uploaded

==== Log checksum 6654D300D4318EE30C66681EE482646A2FD6FD970AEF28DA047DD41CB6179CB0 ====
 
REM DATE 2012
REM DISCID 29103513
REM COMMENT "ExactAudioCopy v1.0b3"
FILE "1 - ¡Mayday! feat. Tech N9ne - Badlands.wav" WAVE
TRACK 01 AUDIO
INDEX 01 00:00:00
FILE "2 - ¡Mayday! - Death March.wav" WAVE
TRACK 02 AUDIO
INDEX 01 00:00:00
FILE "3 - ¡Mayday! - Roaches.wav" WAVE
TRACK 03 AUDIO
INDEX 01 00:00:00
FILE "4 - ¡Mayday! feat. Ace Hood - Highs & Lows.wav" WAVE
TRACK 04 AUDIO
INDEX 01 00:00:00
FILE "5 - ¡Mayday! - R.E.M..wav" WAVE
TRACK 05 AUDIO
INDEX 01 00:00:00
FILE "6 - ¡Mayday!! - Lando's Jam.wav" WAVE
TRACK 06 AUDIO
INDEX 01 00:00:00
FILE "7 - ¡Mayday! - Due in June.wav" WAVE
TRACK 07 AUDIO
INDEX 01 00:00:00
FILE "8 - ¡Mayday! - Dig It Out.wav" WAVE
TRACK 08 AUDIO
INDEX 01 00:00:00
FILE "9 - ¡Mayday! feat. Jovi Rockwell - Imprint.wav" WAVE
TRACK 09 AUDIO
INDEX 01 00:00:00
FILE "10 - ¡Mayday! feat. dead prez - TNT.wav" WAVE
TRACK 10 AUDIO
INDEX 01 00:00:00
FILE "11 - ¡Mayday! feat. Murs - Hardcore Bitches.wav" WAVE
TRACK 11 AUDIO
INDEX 01 00:00:00
FILE "12 - ¡Mayday! feat. Krizz Kaliko - Last Days.wav" WAVE
TRACK 12 AUDIO
INDEX 01 00:00:00
FILE "13 - ¡Mayday! - Everything's Everything.wav" WAVE
TRACK 13 AUDIO
INDEX 01 00:00:00
FILE "14 - ¡Mayday! feat. Liz Suwandi - Devil on My Mind.wav" WAVE
TRACK 14 AUDIO
INDEX 01 00:00:00
FILE "15 - ¡Mayday! - 20,20.wav" WAVE
TRACK 15 AUDIO
INDEX 01 00:00:00
FILE "16 - ¡Mayday! - Keep Em On.wav" WAVE
TRACK 16 AUDIO
INDEX 01 00:00:00
FILE "17 - ¡Mayday! - Take Me to Your Leader.wav" WAVE
TRACK 17 AUDIO
INDEX 01 00:00:00
FILE "18 - ¡Mayday! - June.wav" WAVE
TRACK 18 AUDIO
INDEX 01 00:00:00
FILE "19 - ¡Mayday! - Last Minute Trip.wav" WAVE
TRACK 19 AUDIO
INDEX 01 00:00:00

info [Профиль]  [ЛС] 

post 06-Июн-2012 21:51 (спустя 7 минут) [-]0[+]

Топик был перенесен из форума Оформление раздач в форум Зарубежный Rap, Hip-Hop, R'n'B (lossless)

saGambit
 

Raxent

Пол: Пол:Муж

Стаж: 12 лет

Сообщений: 219

Рейтинг

post 06-Июн-2012 21:52 (спустя 9 минут) [-]0[+]

[Цитировать] 

info [Профиль]  [ЛС] 
Показать сообщения:    
Ответить на тему

Текущее время: 26-Май 21:16

Часовой пояс: GMT + 4



Вы не можете начинать темы
Вы не можете отвечать на сообщения
Вы не можете редактировать свои сообщения
Вы не можете удалять свои сообщения
Вы не можете голосовать в опросах
Вы не можете прикреплять файлы к сообщениям
Вы не можете скачивать файлы