Ошибка

(Rap) Deuce - Nine Lives (Best Buy Edition) - 2012, FLAC (tracks+.cue), lossless

Ответить на тему
 
Автор Сообщение

Resistance

Пол: Пол:Муж

Стаж: 12 лет

Сообщений: 3640

Россия
Рейтинг

post 03-Май-2012 13:30 1[+]

[Цитировать] 

Deuce - Nine Lives (Best Buy Edition)
pic="http://i36.fastpic.ru/big/2012/0501/97/f7b61afb345b1157713fe5c442ddf497.jpg"
Жанр: Rap
Год издания данного носителя: 2012
Страна-производитель носителя: USA
Аудио кодек: FLAC
Тип рипа: tracks+.cue
Битрейт аудио: lossless
Продолжительность: 00:54:06
Полиграфия: Отсутствует
Треклист:
01. Lets Get it Crackin (Ft. Jeffree Star) (4:48)
02. Help Me (4:18)
03. America (4:06)
04. I Came to Party (Ft. Travis McCoy & Truth) (3:40)
05. The One (3:35)
06. Freaky Now (Ft. Truth & Jeffree Star) (4:33)
07. Nobody Likes Me (Ft. Truth & Ronnie Radke) (5:25)
08. Walk Alone (3:21)
09. Till I Drop (Ft. Truth, Gadget & Veze Skante) (4:43)
10. Gravestone (3:55)
11. Now You See My Life (Ft. Skee-lo) (4:18)
12. Deuce Dot Com (3:25)
13. Don't Approach Me (4:05)
Exact Audio Copy V1.0 beta 3 from 29. August 2011 

EAC extraction logfile from 30. April 2012, 18:42

Deuce / Nine Lives

Used drive : ATAPI iHAS124 B Adapter: 2 ID: 0

Read mode : Secure
Utilize accurate stream : Yes
Defeat audio cache : Yes
Make use of C2 pointers : No

Read offset correction : 6
Overread into Lead-In and Lead-Out : No
Fill up missing offset samples with silence : Yes
Delete leading and trailing silent blocks : No
Null samples used in CRC calculations : Yes
Used interface : Native Win32 interface for Win NT & 2000
Gap handling : Appended to previous track

Used output format : User Defined Encoder
Selected bitrate : 768 kBit/s
Quality : High
Add ID3 tag : No
Command line compressor : C:Program FilesExact Audio CopyFLACFLAC.EXE
Additional command line options : -6 -V -T "ARTIST=%artist%" -T "TITLE=%title%" -T "ALBUM=%albumtitle%" -T "DATE=%year%" -T "TRACKNUMBER=%tracknr%" -T "GENRE=%genre%" -T "COMMENT=%comment%" -T "BAND=%albuminterpret%" -T "ALBUMARTIST=%albuminterpret%" -T "COMPOSER=%composer%" %haslyrics%--tag-from-file=LYRICS="%lyricsfile%"%haslyrics% -T "DISCNUMBER=%cdnumber%" -T "TOTALDISCS=%totalcds%" -T "TOTALTRACKS=%numtracks%" %hascover%--picture="%coverfile%"%hascover% %source% -o %dest%

TOC of the extracted CD

Track | Start | Length | Start sector | End sector
---------------------------------------------------------
1 | 0:00.00 | 4:48.32 | 0 | 21631
2 | 4:48.32 | 4:17.49 | 21632 | 40955
3 | 9:06.06 | 4:05.57 | 40956 | 59387
4 | 13:11.63 | 3:39.69 | 59388 | 75881
5 | 16:51.57 | 3:35.33 | 75882 | 92039
6 | 20:27.15 | 4:33.34 | 92040 | 112548
7 | 25:00.49 | 5:25.11 | 112549 | 136934
8 | 30:25.60 | 3:21.00 | 136935 | 152009
9 | 33:46.60 | 4:43.07 | 152010 | 173241
10 | 38:29.67 | 3:54.44 | 173242 | 190835
11 | 42:24.36 | 4:17.74 | 190836 | 210184
12 | 46:42.35 | 3:25.16 | 210185 | 225575
13 | 50:07.51 | 4:04.73 | 225576 | 243948

Track 1

Filename Y:EACrips�1. Deuce - Lets Get it Crackin (Ft. Jeffree Star).wav

Pre-gap length 0:00:02.00

Peak level 100.0 %
Extraction speed 3.5 X
Track quality 100.0 %
Test CRC 19B172EA
Copy CRC 19B172EA
Track not present in AccurateRip database
Copy OK

Track 2

Filename Y:EACrips�2. Deuce - Help Me.wav

Peak level 100.0 %
Extraction speed 3.2 X
Track quality 99.9 %
Test CRC BB547469
Copy CRC BB547469
Track not present in AccurateRip database
Copy OK

Track 3

Filename Y:EACrips�3. Deuce - America.wav

Peak level 100.0 %
Extraction speed 4.2 X
Track quality 100.0 %
Test CRC 3194E393
Copy CRC 3194E393
Track not present in AccurateRip database
Copy OK

Track 4

Filename Y:EACrips�4. Deuce - I Came to Party (Ft. Travis McCoy & Truth).wav

Peak level 100.0 %
Extraction speed 4.4 X
Track quality 100.0 %
Test CRC EF89B874
Copy CRC EF89B874
Track not present in AccurateRip database
Copy OK

Track 5

Filename Y:EACrips�5. Deuce - The One.wav

Peak level 100.0 %
Extraction speed 3.7 X
Track quality 99.9 %
Test CRC 121159B3
Copy CRC 121159B3
Track not present in AccurateRip database
Copy OK

Track 6

Filename Y:EACrips�6. Deuce - Freaky Now (Ft. Truth & Jeffree Star).wav

Peak level 100.0 %
Extraction speed 5.0 X
Track quality 100.0 %
Test CRC 1B0DE1B6
Copy CRC 1B0DE1B6
Track not present in AccurateRip database
Copy OK

Track 7

Filename Y:EACrips�7. Deuce - Nobody Likes Me (Ft. Truth & Ronnie Radke).wav

Peak level 100.0 %
Extraction speed 5.5 X
Track quality 100.0 %
Test CRC 2493F272
Copy CRC 2493F272
Track not present in AccurateRip database
Copy OK

Track 8

Filename Y:EACrips�8. Deuce - Walk Alone.wav

Peak level 100.0 %
Extraction speed 5.3 X
Track quality 100.0 %
Test CRC C1ECBBC7
Copy CRC C1ECBBC7
Track not present in AccurateRip database
Copy OK

Track 9

Filename Y:EACrips�9. Deuce - Till I Drop (Ft. Truth, Gadget & Veze Skante).wav

Peak level 100.0 %
Extraction speed 5.8 X
Track quality 100.0 %
Test CRC 6325175D
Copy CRC 6325175D
Track not present in AccurateRip database
Copy OK

Track 10

Filename Y:EACrips10. Deuce - Gravestone.wav

Peak level 100.0 %
Extraction speed 5.9 X
Track quality 100.0 %
Test CRC E452E034
Copy CRC E452E034
Track not present in AccurateRip database
Copy OK

Track 11

Filename Y:EACrips11. Deuce - Now You See My Life (Ft. Skee-lo).wav

Peak level 100.0 %
Extraction speed 5.0 X
Track quality 99.9 %
Test CRC F5AE2CF6
Copy CRC F5AE2CF6
Track not present in AccurateRip database
Copy OK

Track 12

Filename Y:EACrips12. Deuce - Deuce Dot Com.wav

Peak level 100.0 %
Extraction speed 6.2 X
Track quality 100.0 %
Test CRC C0D454FC
Copy CRC C0D454FC
Track not present in AccurateRip database
Copy OK

Track 13

Filename Y:EACrips13. Deuce - Don't Approach Me.wav

Peak level 100.0 %
Extraction speed 6.5 X
Track quality 100.0 %
Test CRC 257D681A
Copy CRC 257D681A
Track not present in AccurateRip database
Copy OK

None of the tracks are present in the AccurateRip database

No errors occurred

End of status report

==== Log checksum 9E780A68C42304A223CAD1FA69E429B5B44CC96AB8B2A14A958F358D589B72DC ====

------------------------------------------------------------

Exact Audio Copy V1.0 beta 3 from 29. August 2011

EAC extraction logfile from 30. April 2012, 18:42

Deuce / Nine Lives

Used drive : ATAPI iHAS124 B Adapter: 2 ID: 0

Read mode : Secure
Utilize accurate stream : Yes
Defeat audio cache : Yes
Make use of C2 pointers : No

Read offset correction : 6
Overread into Lead-In and Lead-Out : No
Fill up missing offset samples with silence : Yes
Delete leading and trailing silent blocks : No
Null samples used in CRC calculations : Yes
Used interface : Native Win32 interface for Win NT & 2000
Gap handling : Appended to previous track

Used output format : User Defined Encoder
Selected bitrate : 768 kBit/s
Quality : High
Add ID3 tag : No
Command line compressor : C:Program FilesExact Audio CopyFLACFLAC.EXE
Additional command line options : -6 -V -T "ARTIST=%artist%" -T "TITLE=%title%" -T "ALBUM=%albumtitle%" -T "DATE=%year%" -T "TRACKNUMBER=%tracknr%" -T "GENRE=%genre%" -T "COMMENT=%comment%" -T "BAND=%albuminterpret%" -T "ALBUMARTIST=%albuminterpret%" -T "COMPOSER=%composer%" %haslyrics%--tag-from-file=LYRICS="%lyricsfile%"%haslyrics% -T "DISCNUMBER=%cdnumber%" -T "TOTALDISCS=%totalcds%" -T "TOTALTRACKS=%numtracks%" %hascover%--picture="%coverfile%"%hascover% %source% -o %dest%

TOC of the extracted CD

Track | Start | Length | Start sector | End sector
---------------------------------------------------------
1 | 0:00.00 | 4:48.32 | 0 | 21631
2 | 4:48.32 | 4:17.49 | 21632 | 40955
3 | 9:06.06 | 4:05.57 | 40956 | 59387
4 | 13:11.63 | 3:39.69 | 59388 | 75881
5 | 16:51.57 | 3:35.33 | 75882 | 92039
6 | 20:27.15 | 4:33.34 | 92040 | 112548
7 | 25:00.49 | 5:25.11 | 112549 | 136934
8 | 30:25.60 | 3:21.00 | 136935 | 152009
9 | 33:46.60 | 4:43.07 | 152010 | 173241
10 | 38:29.67 | 3:54.44 | 173242 | 190835
11 | 42:24.36 | 4:17.74 | 190836 | 210184
12 | 46:42.35 | 3:25.16 | 210185 | 225575
13 | 50:07.51 | 4:04.73 | 225576 | 243948

Track 1

Filename Y:EACrips�1. Deuce - Lets Get it Crackin (Ft. Jeffree Star).wav

Pre-gap length 0:00:02.00

Peak level 100.0 %
Extraction speed 3.5 X
Track quality 100.0 %
Test CRC 19B172EA
Copy CRC 19B172EA
Track not present in AccurateRip database
Copy OK

Track 2

Filename Y:EACrips�2. Deuce - Help Me.wav

Peak level 100.0 %
Extraction speed 3.2 X
Track quality 99.9 %
Test CRC BB547469
Copy CRC BB547469
Track not present in AccurateRip database
Copy OK

Track 3

Filename Y:EACrips�3. Deuce - America.wav

Peak level 100.0 %
Extraction speed 4.2 X
Track quality 100.0 %
Test CRC 3194E393
Copy CRC 3194E393
Track not present in AccurateRip database
Copy OK

Track 4

Filename Y:EACrips�4. Deuce - I Came to Party (Ft. Travis McCoy & Truth).wav

Peak level 100.0 %
Extraction speed 4.4 X
Track quality 100.0 %
Test CRC EF89B874
Copy CRC EF89B874
Track not present in AccurateRip database
Copy OK

Track 5

Filename Y:EACrips�5. Deuce - The One.wav

Peak level 100.0 %
Extraction speed 3.7 X
Track quality 99.9 %
Test CRC 121159B3
Copy CRC 121159B3
Track not present in AccurateRip database
Copy OK

Track 6

Filename Y:EACrips�6. Deuce - Freaky Now (Ft. Truth & Jeffree Star).wav

Peak level 100.0 %
Extraction speed 5.0 X
Track quality 100.0 %
Test CRC 1B0DE1B6
Copy CRC 1B0DE1B6
Track not present in AccurateRip database
Copy OK

Track 7

Filename Y:EACrips�7. Deuce - Nobody Likes Me (Ft. Truth & Ronnie Radke).wav

Peak level 100.0 %
Extraction speed 5.5 X
Track quality 100.0 %
Test CRC 2493F272
Copy CRC 2493F272
Track not present in AccurateRip database
Copy OK

Track 8

Filename Y:EACrips�8. Deuce - Walk Alone.wav

Peak level 100.0 %
Extraction speed 5.3 X
Track quality 100.0 %
Test CRC C1ECBBC7
Copy CRC C1ECBBC7
Track not present in AccurateRip database
Copy OK

Track 9

Filename Y:EACrips�9. Deuce - Till I Drop (Ft. Truth, Gadget & Veze Skante).wav

Peak level 100.0 %
Extraction speed 5.8 X
Track quality 100.0 %
Test CRC 6325175D
Copy CRC 6325175D
Track not present in AccurateRip database
Copy OK

Track 10

Filename Y:EACrips10. Deuce - Gravestone.wav

Peak level 100.0 %
Extraction speed 5.9 X
Track quality 100.0 %
Test CRC E452E034
Copy CRC E452E034
Track not present in AccurateRip database
Copy OK

Track 11

Filename Y:EACrips11. Deuce - Now You See My Life (Ft. Skee-lo).wav

Peak level 100.0 %
Extraction speed 5.0 X
Track quality 99.9 %
Test CRC F5AE2CF6
Copy CRC F5AE2CF6
Track not present in AccurateRip database
Copy OK

Track 12

Filename Y:EACrips12. Deuce - Deuce Dot Com.wav

Peak level 100.0 %
Extraction speed 6.2 X
Track quality 100.0 %
Test CRC C0D454FC
Copy CRC C0D454FC
Track not present in AccurateRip database
Copy OK

Track 13

Filename Y:EACrips13. Deuce - Don't Approach Me.wav

Peak level 100.0 %
Extraction speed 6.5 X
Track quality 100.0 %
Test CRC 257D681A
Copy CRC 257D681A
Track not present in AccurateRip database
Copy OK

None of the tracks are present in the AccurateRip database

No errors occurred

End of status report

==== Log checksum 9E780A68C42304A223CAD1FA69E429B5B44CC96AB8B2A14A958F358D589B72DC ====
REM GENRE Crossover 
REM DATE 2012
REM DISCID 9C0CB40D
REM COMMENT "ExactAudioCopy v1.0b3"
FILE "01. Deuce - Lets Get it Crackin (Ft. Jeffree Star).wav" WAVE
TRACK 01 AUDIO
TITLE "Lets Get it Crackin (Ft. Jeffree Star)"
PERFORMER "Deuce"
INDEX 01 00:00:00
FILE "02. Deuce - Help Me.wav" WAVE
TRACK 02 AUDIO
TITLE "Help Me"
PERFORMER "Deuce"
INDEX 01 00:00:00
FILE "03. Deuce - America.wav" WAVE
TRACK 03 AUDIO
TITLE "America"
PERFORMER "Deuce"
INDEX 01 00:00:00
FILE "04. Deuce - I Came to Party (Ft. Travis McCoy & Truth).wav" WAVE
TRACK 04 AUDIO
TITLE "I Came to Party (Ft. Travis McCoy & Truth)"
PERFORMER "Deuce"
INDEX 01 00:00:00
FILE "05. Deuce - The One.wav" WAVE
TRACK 05 AUDIO
TITLE "The One"
PERFORMER "Deuce"
INDEX 01 00:00:00
FILE "06. Deuce - Freaky Now (Ft. Truth & Jeffree Star).wav" WAVE
TRACK 06 AUDIO
TITLE "Freaky Now (Ft. Truth & Jeffree Star)"
PERFORMER "Deuce"
INDEX 01 00:00:00
FILE "07. Deuce - Nobody Likes Me (Ft. Truth & Ronnie Radke).wav" WAVE
TRACK 07 AUDIO
TITLE "Nobody Likes Me (Ft. Truth & Ronnie Radke)"
PERFORMER "Deuce"
INDEX 01 00:00:00
FILE "08. Deuce - Walk Alone.wav" WAVE
TRACK 08 AUDIO
TITLE "Walk Alone"
PERFORMER "Deuce"
INDEX 01 00:00:00
FILE "09. Deuce - Till I Drop (Ft. Truth, Gadget & Veze Skante).wav" WAVE
TRACK 09 AUDIO
TITLE "Till I Drop (Ft. Truth, Gadget & Veze Skante)"
PERFORMER "Deuce"
INDEX 01 00:00:00
FILE "10. Deuce - Gravestone.wav" WAVE
TRACK 10 AUDIO
TITLE "Gravestone"
PERFORMER "Deuce"
INDEX 01 00:00:00
FILE "11. Deuce - Now You See My Life (Ft. Skee-lo).wav" WAVE
TRACK 11 AUDIO
TITLE "Now You See My Life (Ft. Skee-lo)"
PERFORMER "Deuce"
INDEX 01 00:00:00
FILE "12. Deuce - Deuce Dot Com.wav" WAVE
TRACK 12 AUDIO
TITLE "Deuce Dot Com"
PERFORMER "Deuce"
INDEX 01 00:00:00
FILE "13. Deuce - Don't Approach Me.wav" WAVE
TRACK 13 AUDIO
TITLE "Don't Approach Me"
PERFORMER "Deuce"
INDEX 01 00:00:00
info [Профиль]  [ЛС] 

brazor

Пол: Пол:Муж

Стаж: 12 лет

Сообщений: 214

Россия
Рейтинг

post 03-Май-2012 18:39 (спустя 5 часов) [-]3[+]

[Цитировать] 

почему Rap? Кажись RapCore или Rap-Rock Улыбаюсь

_________________


info [Профиль]  [ЛС] 
Показать сообщения:    
Ответить на тему

Текущее время: 28-Май 16:53

Часовой пояс: GMT + 4



Вы не можете начинать темы
Вы не можете отвечать на сообщения
Вы не можете редактировать свои сообщения
Вы не можете удалять свои сообщения
Вы не можете голосовать в опросах
Вы не можете прикреплять файлы к сообщениям
Вы не можете скачивать файлы