Ошибка

(Underground Hip-Hop) Reks - Straight, No Chaser - 2012, FLAC (tracks+.cue), lossless

Ответить на тему
 
Автор Сообщение

Raxent

Пол: Пол:Муж

Стаж: 12 лет

Сообщений: 219

Рейтинг

post 03-Май-2012 13:22 0[+]

[Цитировать] 

Reks - Straight, No Chaser

Год: 2012
Жанр: Underground Hip-Hop
Страна: США
Аудиокодека: FLAC
Тип рипа: tracks + .cue
Битрейт: lossless
Продолжительность: 00:47:27
Источник: what.cd (Monopatin)
Трэклист:
01. Autographs [04:29]
02. Sit/Think/Drink [04:16]
03. Power Lines (feat. Easy Money) [03:50]
04. Ruggs & Murtaugh (feat. Action Bronson) [02:55]
05. Such A Showoff (feat. Kali, Jfk & Termanology) [02:39]
06. Cancel That (feat. Wais P The Pimp) [03:59]
07. Parenthood [03:03]
08. Break Ups (feat. C Sharp) [03:36]
09. Chasin [03:36]
10. Sins feat. Alias [02:20]
11. Straight, No Chaser (feat. Slaine) [03:15]
12. Lost In Translation [03:18]
13. Regrets [03:37]
14. 730 [02:33]


Код:

Exact Audio Copy V1.0 beta 3 from 29. August 2011

EAC extraction logfile from 26. April 2012, 19:51

Reks / Straight, No Chaser

Used drive  : Optiarc DVD RW AD-7585H   Adapter: 1  ID: 0

Read mode               : Secure
Utilize accurate stream : Yes
Defeat audio cache      : Yes
Make use of C2 pointers : No

Read offset correction                      : 6
Overread into Lead-In and Lead-Out          : No
Fill up missing offset samples with silence : Yes
Delete leading and trailing silent blocks   : No
Null samples used in CRC calculations       : Yes
Used interface                              : Native Win32 interface for Win NT & 2000
Gap handling                                : Appended to previous track

Used output format              : User Defined Encoder
Selected bitrate                : 320 kBit/s
Quality                         : High
Add ID3 tag                     : No
Command line compressor         : C:\Program Files (x86)\Exact Audio Copy\Flac\flac.exe
Additional command line options : -V -8 -T "artist=%artist%" -T "title=%title%" -T "album=%albumtitle%" -T "date=%year%" -T "tracknumber=%tracknr%" -T "genre=%genre%" %source%

TOC of the extracted CD

     Track |   Start  |  Length  | Start sector | End sector
    ---------------------------------------------------------
        1  |  0:00.00 |  4:29.30 |         0    |    20204
        2  |  4:29.30 |  4:16.32 |     20205    |    39436
        3  |  8:45.62 |  3:49.42 |     39437    |    56653
        4  | 12:35.29 |  2:55.28 |     56654    |    69806
        5  | 15:30.57 |  2:39.04 |     69807    |    81735
        6  | 18:09.61 |  3:58.49 |     81736    |    99634
        7  | 22:08.35 |  3:03.31 |     99635    |   113390
        8  | 25:11.66 |  3:36.00 |    113391    |   129590
        9  | 28:47.66 |  3:36.09 |    129591    |   145799
       10  | 32:24.00 |  2:20.17 |    145800    |   156316
       11  | 34:44.17 |  3:15.00 |    156317    |   170941
       12  | 37:59.17 |  3:17.67 |    170942    |   185783
       13  | 41:17.09 |  3:36.73 |    185784    |   202056
       14  | 44:54.07 |  2:33.06 |    202057    |   213537

Track  1

     Filename C:\Users\Julian\Music\Reks\Reks - Straight. No Chaser (FLAC)\Reks - Straight, No Chaser - 01 - Autographs.wav

     Pre-gap length  0:00:02.00

     Peak level 100.0 %
     Extraction speed 2.7 X
     Track quality 100.0 %
     Test CRC C75013DB
     Copy CRC C75013DB
     Track not present in AccurateRip database
     Copy OK

Track  2

     Filename C:\Users\Julian\Music\Reks\Reks - Straight. No Chaser (FLAC)\Reks - Straight, No Chaser - 02 - Sit,Think,Drink.wav

     Peak level 100.0 %
     Extraction speed 3.0 X
     Track quality 100.0 %
     Test CRC 58044CE0
     Copy CRC 58044CE0
     Track not present in AccurateRip database
     Copy OK

Track  3

     Filename C:\Users\Julian\Music\Reks\Reks - Straight. No Chaser (FLAC)\Reks - Straight, No Chaser - 03 - Power Lines.wav

     Peak level 100.0 %
     Extraction speed 3.2 X
     Track quality 100.0 %
     Test CRC E93DFCBA
     Copy CRC E93DFCBA
     Track not present in AccurateRip database
     Copy OK

Track  4

     Filename C:\Users\Julian\Music\Reks\Reks - Straight. No Chaser (FLAC)\Reks - Straight, No Chaser - 04 - Riggs & Murtaugh.wav

     Peak level 100.0 %
     Extraction speed 3.2 X
     Track quality 100.0 %
     Test CRC 1D2468D6
     Copy CRC 1D2468D6
     Track not present in AccurateRip database
     Copy OK

Track  5

     Filename C:\Users\Julian\Music\Reks\Reks - Straight. No Chaser (FLAC)\Reks - Straight, No Chaser - 05 - Such a Showoff.wav

     Peak level 100.0 %
     Extraction speed 2.6 X
     Track quality 99.9 %
     Test CRC BC5BD01E
     Copy CRC BC5BD01E
     Track not present in AccurateRip database
     Copy OK

Track  6

     Filename C:\Users\Julian\Music\Reks\Reks - Straight. No Chaser (FLAC)\Reks - Straight, No Chaser - 06 - Cancel That.wav

     Peak level 100.0 %
     Extraction speed 3.7 X
     Track quality 100.0 %
     Test CRC 0F9CBE93
     Copy CRC 0F9CBE93
     Track not present in AccurateRip database
     Copy OK

Track  7

     Filename C:\Users\Julian\Music\Reks\Reks - Straight. No Chaser (FLAC)\Reks - Straight, No Chaser - 07 - Parenthood.wav

     Peak level 100.0 %
     Extraction speed 3.7 X
     Track quality 100.0 %
     Test CRC 3CDE25B4
     Copy CRC 3CDE25B4
     Track not present in AccurateRip database
     Copy OK

Track  8

     Filename C:\Users\Julian\Music\Reks\Reks - Straight. No Chaser (FLAC)\Reks - Straight, No Chaser - 08 - Breakups.wav

     Peak level 100.0 %
     Extraction speed 4.0 X
     Track quality 100.0 %
     Test CRC 21ED68AC
     Copy CRC 21ED68AC
     Track not present in AccurateRip database
     Copy OK

Track  9

     Filename C:\Users\Julian\Music\Reks\Reks - Straight. No Chaser (FLAC)\Reks - Straight, No Chaser - 09 - Chasin'.wav

     Peak level 100.0 %
     Extraction speed 3.4 X
     Track quality 99.9 %
     Test CRC C458CCFF
     Copy CRC C458CCFF
     Track not present in AccurateRip database
     Copy OK

Track 10

     Filename C:\Users\Julian\Music\Reks\Reks - Straight. No Chaser (FLAC)\Reks - Straight, No Chaser - 10 - Sins.wav

     Peak level 100.0 %
     Extraction speed 3.8 X
     Track quality 100.0 %
     Test CRC 1FB056E3
     Copy CRC 1FB056E3
     Track not present in AccurateRip database
     Copy OK

Track 11

     Filename C:\Users\Julian\Music\Reks\Reks - Straight. No Chaser (FLAC)\Reks - Straight, No Chaser - 11 - Straight. No Chaser.wav

     Peak level 100.0 %
     Extraction speed 4.3 X
     Track quality 100.0 %
     Test CRC 1FC33EC7
     Copy CRC 1FC33EC7
     Track not present in AccurateRip database
     Copy OK

Track 12

     Filename C:\Users\Julian\Music\Reks\Reks - Straight. No Chaser (FLAC)\Reks - Straight, No Chaser - 12 - Lost In Translation.wav

     Peak level 100.0 %
     Extraction speed 3.6 X
     Track quality 99.9 %
     Test CRC 93802EF2
     Copy CRC 93802EF2
     Track not present in AccurateRip database
     Copy OK

Track 13

     Filename C:\Users\Julian\Music\Reks\Reks - Straight. No Chaser (FLAC)\Reks - Straight, No Chaser - 13 - Regrets.wav

     Peak level 100.0 %
     Extraction speed 3.2 X
     Track quality 99.9 %
     Test CRC 7989E31B
     Copy CRC 7989E31B
     Track not present in AccurateRip database
     Copy OK

Track 14

     Filename C:\Users\Julian\Music\Reks\Reks - Straight. No Chaser (FLAC)\Reks - Straight, No Chaser - 14 - 730.wav

     Peak level 100.0 %
     Extraction speed 2.0 X
     Track quality 99.7 %
     Test CRC 4B05ABD4
     Copy CRC 4B05ABD4
     Track not present in AccurateRip database
     Copy OK

None of the tracks are present in the AccurateRip database

No errors occurred

End of status report

---- CUETools DB Plugin V2.1.3

[CTDB TOCID: ZMITnuXjYTUIWv02S88nqgFc8kQ-] found, Submit result: already submitted
[48fdfb6c] (1/1) Accurately ripped

==== Log checksum 4985C3F3C85C8E781499D57FD6113378AFC76B0C55274982EE726283911ED243 ====

Код:

REM GENRE Rap
REM DATE 2012
REM DISCID C80B1F0E
REM COMMENT "ExactAudioCopy v1.0b3"
FILE "Reks - Straight, No Chaser - 01 - Autographs.wav" WAVE
  TRACK 01 AUDIO
    INDEX 01 00:00:00
FILE "Reks - Straight, No Chaser - 02 - Sit,Think,Drink.wav" WAVE
  TRACK 02 AUDIO
    INDEX 01 00:00:00
FILE "Reks - Straight, No Chaser - 03 - Power Lines.wav" WAVE
  TRACK 03 AUDIO
    INDEX 01 00:00:00
FILE "Reks - Straight, No Chaser - 04 - Riggs & Murtaugh.wav" WAVE
  TRACK 04 AUDIO
    INDEX 01 00:00:00
FILE "Reks - Straight, No Chaser - 05 - Such a Showoff.wav" WAVE
  TRACK 05 AUDIO
    INDEX 01 00:00:00
FILE "Reks - Straight, No Chaser - 06 - Cancel That.wav" WAVE
  TRACK 06 AUDIO
    INDEX 01 00:00:00
FILE "Reks - Straight, No Chaser - 07 - Parenthood.wav" WAVE
  TRACK 07 AUDIO
    INDEX 01 00:00:00
FILE "Reks - Straight, No Chaser - 08 - Breakups.wav" WAVE
  TRACK 08 AUDIO
    INDEX 01 00:00:00
FILE "Reks - Straight, No Chaser - 09 - Chasin'.wav" WAVE
  TRACK 09 AUDIO
    INDEX 01 00:00:00
FILE "Reks - Straight, No Chaser - 10 - Sins.wav" WAVE
  TRACK 10 AUDIO
    INDEX 01 00:00:00
FILE "Reks - Straight, No Chaser - 11 - Straight. No Chaser.wav" WAVE
  TRACK 11 AUDIO
    INDEX 01 00:00:00
FILE "Reks - Straight, No Chaser - 12 - Lost In Translation.wav" WAVE
  TRACK 12 AUDIO
    INDEX 01 00:00:00
FILE "Reks - Straight, No Chaser - 13 - Regrets.wav" WAVE
  TRACK 13 AUDIO
    INDEX 01 00:00:00
FILE "Reks - Straight, No Chaser - 14 - 730.wav" WAVE
  TRACK 14 AUDIO
    INDEX 01 00:00:00



info [Профиль]  [ЛС] 

post 03-Май-2012 13:22 (спустя 32 секунды) [-]0[+]

Топик был перенесен из форума Оформление раздач в форум Зарубежный Rap, Hip-Hop, R'n'B (lossless)

saGambit
 

Raxent

Пол: Пол:Муж

Стаж: 12 лет

Сообщений: 219

Рейтинг

post 03-Май-2012 13:30 (спустя 8 минут) [-]0[+]

[Цитировать] 

(Underground Hip-Hop) Reks - Straight, No Chaser, 2012, MP3, 320 kbps
info [Профиль]  [ЛС] 
Показать сообщения:    
Ответить на тему

Текущее время: 27-Май 09:53

Часовой пояс: GMT + 4



Вы не можете начинать темы
Вы не можете отвечать на сообщения
Вы не можете редактировать свои сообщения
Вы не можете удалять свои сообщения
Вы не можете голосовать в опросах
Вы не можете прикреплять файлы к сообщениям
Вы не можете скачивать файлы