Ошибка

(Hip Hop) Hilltop Hoods - Drinking From The Sun, 2012, FLAC (tracks + .cue), lossless

Ответить на тему
 
Автор Сообщение

Raxent

Пол: Пол:Муж

Стаж: 12 лет

Сообщений: 219

Рейтинг

post 15-Апр-2012 00:08 0[+]

[Цитировать] 

Hilltop Hoods - Drinking From The Sun

Год: 2012
Жанр: Hip Hop
Страна: США
Аудиокодек: FLAC
Тип рипа: tracks + .cue
Битрейт: lossless
Продолжительность: 00:47:50
Источник: whalefx
Трэклист:
01. Hilltop Hoods - The Thirst Pt. 1 (Interlude) [00:01:41]
02. Hilltop Hoods - Drinking From The Sun [00:03:09]
03. Hilltop Hoods - I Love It (Feat. Sia) [00:03:46]
04. Hilltop Hoods - Lights Out [00:03:43]
05. Hilltop Hoods - Living In Bunkers (Feat. Black Thought & Lotek) [00:03:45]
06. Hilltop Hoods - Speaking In Tongues (Feat. Chali 2na) [00:04:03]
07. Hilltop Hoods - Now You're Gone [00:03:11]
08. Hilltop Hoods - Good For Nothing [00:03:03]
09. Hilltop Hoods - Rattling The Keys To The Kingdom [00:03:35]
10. Hilltop Hoods - The Thirst Pt. 2 (Interlude) [00:01:05]
11. Hilltop Hoods - The Underground (Feat. Classified & Solo) [00:04:09]
12. Hilltop Hoods - Shredding The Balloon [00:04:45]
13. Hilltop Hoods - The Thirst Pt. 3 (Interlude) [00:01:37]
14. Hilltop Hoods - Good For Nothing (K21 Remix) [00:03:10]
15. Hilltop Hoods - Now You're Gone (Suffa Remix) [00:03:03]


Код:

Exact Audio Copy V1.0 beta 3 from 29. August 2011

EAC extraction logfile from 9. March 2012, 12:48

Hilltop Hoods / Drinking From The Sun

Used drive  : TSSTcorpDVD+-RW TS-L632H   Adapter: 0  ID: 0

Read mode               : Secure
Utilize accurate stream : Yes
Defeat audio cache      : Yes
Make use of C2 pointers : No

Read offset correction                      : 6
Overread into Lead-In and Lead-Out          : No
Fill up missing offset samples with silence : Yes
Delete leading and trailing silent blocks   : No
Null samples used in CRC calculations       : Yes
Used interface                              : Native Win32 interface for Win NT & 2000
Gap handling                                : Appended to previous track

Used output format              : User Defined Encoder
Selected bitrate                : 1024 kBit/s
Quality                         : High
Add ID3 tag                     : No
Command line compressor         : C:\Program Files (x86)\FLAC\flac.exe
Additional command line options : -8 -V -T "ARTIST=%artist%" -T "TITLE=%title%" -T "ALBUM=%albumtitle%" -T "DATE=%year%" -T "TRACKNUMBER=%tracknr%" -T "GENRE=%genre%" -T "PERFORMER=%albuminterpret%" -T "COMPOSER=%composer%" %haslyrics%--tag-from-file=LYRICS="%lyricsfile%"%haslyrics% -T "ALBUMARTIST=%albumartist%" -T "DISCNUMBER=%cdnumber%" -T "TOTALDISCS=%totalcds%" -T "TOTALTRACKS=%numtracks%" -T "COMMENT=%comment%" %source% -o %dest%

TOC of the extracted CD

     Track |   Start  |  Length  | Start sector | End sector
    ---------------------------------------------------------
        1  |  0:00.00 |  1:41.34 |         0    |     7608
        2  |  1:41.34 |  3:09.25 |      7609    |    21808
        3  |  4:50.59 |  3:46.31 |     21809    |    38789
        4  |  8:37.15 |  3:43.37 |     38790    |    55551
        5  | 12:20.52 |  3:45.03 |     55552    |    72429
        6  | 16:05.55 |  4:03.17 |     72430    |    90671
        7  | 20:08.72 |  3:11.55 |     90672    |   105051
        8  | 23:20.52 |  3:03.61 |    105052    |   118837
        9  | 26:24.38 |  3:35.39 |    118838    |   135001
       10  | 30:00.02 |  1:05.43 |    135002    |   139919
       11  | 31:05.45 |  4:09.10 |    139920    |   158604
       12  | 35:14.55 |  4:45.11 |    158605    |   179990
       13  | 39:59.66 |  1:37.13 |    179991    |   187278
       14  | 41:37.04 |  3:10.67 |    187279    |   201595
       15  | 44:47.71 |  3:03.04 |    201596    |   215324

Track  1

     Filename G:\Music\EACRips\New Rips\01 - The Thirst Pt. 1 (Interlude).wav

     Pre-gap length  0:00:02.00

     Peak level 95.0 %
     Extraction speed 1.9 X
     Track quality 100.0 %
     Test CRC 74467B75
     Copy CRC 74467B75
     Track not present in AccurateRip database
     Copy OK

Track  2

     Filename G:\Music\EACRips\New Rips\02 - Drinking From The Sun.wav

     Peak level 99.0 %
     Extraction speed 2.4 X
     Track quality 100.0 %
     Test CRC 84DFD32B
     Copy CRC 84DFD32B
     Track not present in AccurateRip database
     Copy OK

Track  3

     Filename G:\Music\EACRips\New Rips\03 - I Love It (Feat. Sia).wav

     Peak level 98.0 %
     Extraction speed 2.3 X
     Track quality 99.9 %
     Test CRC D4E94076
     Copy CRC D4E94076
     Track not present in AccurateRip database
     Copy OK

Track  4

     Filename G:\Music\EACRips\New Rips\04 - Lights Out.wav

     Peak level 98.1 %
     Extraction speed 2.9 X
     Track quality 100.0 %
     Test CRC 91AA931C
     Copy CRC 91AA931C
     Track not present in AccurateRip database
     Copy OK

Track  5

     Filename G:\Music\EACRips\New Rips\05 - Living In Bunkers (Feat. Black Thought & Lotek).wav

     Peak level 99.0 %
     Extraction speed 3.1 X
     Track quality 100.0 %
     Test CRC 6288B4C3
     Copy CRC 6288B4C3
     Track not present in AccurateRip database
     Copy OK

Track  6

     Filename G:\Music\EACRips\New Rips\06 - Speaking In Tongues (Feat. Chali 2na).wav

     Pre-gap length  0:00:02.22

     Peak level 99.9 %
     Extraction speed 3.3 X
     Track quality 100.0 %
     Test CRC 4A1B14B0
     Copy CRC 4A1B14B0
     Track not present in AccurateRip database
     Copy OK

Track  7

     Filename G:\Music\EACRips\New Rips\07 - Now You're Gone.wav

     Peak level 98.8 %
     Extraction speed 3.3 X
     Track quality 100.0 %
     Test CRC F233251A
     Copy CRC F233251A
     Track not present in AccurateRip database
     Copy OK

Track  8

     Filename G:\Music\EACRips\New Rips\08 - Good For Nothing.wav

     Pre-gap length  0:00:01.16

     Peak level 99.9 %
     Extraction speed 3.4 X
     Track quality 100.0 %
     Test CRC B3694055
     Copy CRC B3694055
     Track not present in AccurateRip database
     Copy OK

Track  9

     Filename G:\Music\EACRips\New Rips\09 - Rattling The Keys To The Kingdom.wav

     Pre-gap length  0:00:01.57

     Peak level 99.7 %
     Extraction speed 3.6 X
     Track quality 100.0 %
     Test CRC 5CE40930
     Copy CRC 5CE40930
     Track not present in AccurateRip database
     Copy OK

Track 10

     Filename G:\Music\EACRips\New Rips\10 - The Thirst Pt. 2 (Interlude).wav

     Pre-gap length  0:00:02.37

     Peak level 93.4 %
     Extraction speed 2.5 X
     Track quality 100.0 %
     Test CRC 8AB353F4
     Copy CRC 8AB353F4
     Track not present in AccurateRip database
     Copy OK

Track 11

     Filename G:\Music\EACRips\New Rips\11 - The Underground (Feat. Classified & Solo).wav

     Peak level 99.0 %
     Extraction speed 3.9 X
     Track quality 100.0 %
     Test CRC D7146C4A
     Copy CRC D7146C4A
     Track not present in AccurateRip database
     Copy OK

Track 12

     Filename G:\Music\EACRips\New Rips\12 - Shredding The Balloon.wav

     Pre-gap length  0:00:01.00

     Peak level 98.3 %
     Extraction speed 4.2 X
     Track quality 100.0 %
     Test CRC D1D7223E
     Copy CRC D1D7223E
     Track not present in AccurateRip database
     Copy OK

Track 13

     Filename G:\Music\EACRips\New Rips\13 - The Thirst Pt. 3 (Interlude).wav

     Peak level 97.1 %
     Extraction speed 3.2 X
     Track quality 100.0 %
     Test CRC C66E7DDC
     Copy CRC C66E7DDC
     Track not present in AccurateRip database
     Copy OK

Track 14

     Filename G:\Music\EACRips\New Rips\14 - Good For Nothing (K21 Remix).wav

     Peak level 99.5 %
     Extraction speed 3.2 X
     Track quality 99.9 %
     Test CRC E7A82132
     Copy CRC E7A82132
     Track not present in AccurateRip database
     Copy OK

Track 15

     Filename G:\Music\EACRips\New Rips\15 - Now You're Gone (Suffa Remix).wav

     Pre-gap length  0:00:01.97

     Peak level 98.6 %
     Extraction speed 4.1 X
     Track quality 100.0 %
     Test CRC 3C7A42D0
     Copy CRC 3C7A42D0
     Track not present in AccurateRip database
     Copy OK

None of the tracks are present in the AccurateRip database

No errors occurred

End of status report

==== Log checksum 5152403DDE37AF9FAC675C1096BBD9C4186141F3A50FCBFCDB9E2542265BECC8 ====

Код:

REM GENRE "Hip Hop"
REM DATE 2012
REM DISCID C70B370F
REM COMMENT "ExactAudioCopy v1.0b3"
CATALOG 0602527966946
PERFORMER "Hilltop Hoods"
TITLE "Drinking From The Sun"
FILE "01 - The Thirst Pt. 1 (Interlude).wav" WAVE
  TRACK 01 AUDIO
    TITLE "The Thirst Pt. 1 (Interlude)"
    PERFORMER "Hilltop Hoods"
    ISRC ;SPH01202010
    INDEX 01 00:00:00
FILE "02 - Drinking From The Sun.wav" WAVE
  TRACK 02 AUDIO
    TITLE "Drinking From The Sun"
    PERFORMER "Hilltop Hoods"
    ISRC ;SPH01202013
    INDEX 01 00:00:00
FILE "03 - I Love It (Feat. Sia).wav" WAVE
  TRACK 03 AUDIO
    TITLE "I Love It (Feat. Sia)"
    PERFORMER "Hilltop Hoods"
    ISRC ;SPH01102001
    INDEX 01 00:00:00
FILE "04 - Lights Out.wav" WAVE
  TRACK 04 AUDIO
    TITLE "Lights Out"
    PERFORMER "Hilltop Hoods"
    ISRC ;SPH01102001
    INDEX 01 00:00:00
FILE "05 - Living In Bunkers (Feat. Black Thought & Lotek).wav" WAVE
  TRACK 05 AUDIO
    TITLE "Living In Bunkers (Feat. Black Thought & Lotek)"
    PERFORMER "Hilltop Hoods"
    ISRC ;SPH01202014
    INDEX 01 00:00:00
  TRACK 06 AUDIO
    TITLE "Speaking In Tongues (Feat. Chali 2na)"
    PERFORMER "Hilltop Hoods"
    ISRC ;SPH01202015
    INDEX 00 03:42:61
FILE "06 - Speaking In Tongues (Feat. Chali 2na).wav" WAVE
    INDEX 01 00:00:00
FILE "07 - Now You're Gone.wav" WAVE
  TRACK 07 AUDIO
    TITLE "Now You're Gone"
    PERFORMER "Hilltop Hoods"
    ISRC ;SPH01202015
    INDEX 01 00:00:00
  TRACK 08 AUDIO
    TITLE "Good For Nothing"
    PERFORMER "Hilltop Hoods"
    ISRC ;SPH01202002
    INDEX 00 03:10:43
FILE "08 - Good For Nothing.wav" WAVE
    INDEX 01 00:00:00
  TRACK 09 AUDIO
    TITLE "Rattling The Keys To The Kingdom"
    PERFORMER "Hilltop Hoods"
    ISRC ;SPH01202017
    INDEX 00 03:02:18
FILE "09 - Rattling The Keys To The Kingdom.wav" WAVE
    INDEX 01 00:00:00
  TRACK 10 AUDIO
    TITLE "The Thirst Pt. 2 (Interlude)"
    PERFORMER "Hilltop Hoods"
    ISRC ;SPH01202011
    INDEX 00 03:33:11
FILE "10 - The Thirst Pt. 2 (Interlude).wav" WAVE
    INDEX 01 00:00:00
FILE "11 - The Underground (Feat. Classified & Solo).wav" WAVE
  TRACK 11 AUDIO
    TITLE "The Underground (Feat. Classified & Solo)"
    PERFORMER "Hilltop Hoods"
    ISRC ;SPH01202018
    INDEX 01 00:00:00
  TRACK 12 AUDIO
    TITLE "Shredding The Balloon"
    PERFORMER "Hilltop Hoods"
    ISRC ;SPH01202019
    INDEX 00 04:08:10
FILE "12 - Shredding The Balloon.wav" WAVE
    INDEX 01 00:00:00
FILE "13 - The Thirst Pt. 3 (Interlude).wav" WAVE
  TRACK 13 AUDIO
    TITLE "The Thirst Pt. 3 (Interlude)"
    PERFORMER "Hilltop Hoods"
    ISRC ;SPH01202012
    INDEX 01 00:00:00
FILE "14 - Good For Nothing (K21 Remix).wav" WAVE
  TRACK 14 AUDIO
    TITLE "Good For Nothing (K21 Remix)"
    PERFORMER "Hilltop Hoods"
    ISRC ;SPH01202012
    INDEX 01 00:00:00
  TRACK 15 AUDIO
    TITLE "Now You're Gone (Suffa Remix)"
    PERFORMER "Hilltop Hoods"
    ISRC ;SPH01202021
    INDEX 00 03:08:69
FILE "15 - Now You're Gone (Suffa Remix).wav" WAVE
    INDEX 01 00:00:00

Код:

AUDIOCHECKER v2.0 beta (build 457) - by Dester - opdester@freemail.hu
~~~~~~~~~~~~~~~~~~~~~~~~~~~~~~~~~~
-=== НЕ РЕДАКТИРУЙТЕ ЭТОТ ФАЙЛ! ===-

Путь: ...\Hilltop Hoods - 2012 - Drinking From The Sun [FLAC]

01 -=- 01 - The Thirst Pt. 1 (Interlude).flac -=- CDDA (100%)
02 -=- 02 - Drinking From The Sun.flac -=- CDDA (100%)
03 -=- 03 - I Love It (Feat. Sia).flac -=- CDDA (100%)
04 -=- 04 - Lights Out.flac -=- CDDA (100%)
05 -=- 05 - Living In Bunkers (Feat. Black Thought & Lotek).flac -=- CDDA (100%)
06 -=- 06 - Speaking In Tongues (Feat. Chali 2na).flac -=- CDDA (100%)
07 -=- 07 - Now You're Gone.flac -=- CDDA (100%)
08 -=- 08 - Good For Nothing.flac -=- CDDA (100%)
09 -=- 09 - Rattling The Keys To The Kingdom.flac -=- CDDA (100%)
10 -=- 10 - The Thirst Pt. 2 (Interlude).flac -=- CDDA (100%)
11 -=- 11 - The Underground (Feat. Classified & Solo).flac -=- CDDA (100%)
12 -=- 12 - Shredding The Balloon.flac -=- CDDA (100%)
13 -=- 13 - The Thirst Pt. 3 (Interlude).flac -=- CDDA (100%)
14 -=- 14 - Good For Nothing (K21 Remix).flac -=- CDDA (100%)
15 -=- 15 - Now You're Gone (Suffa Remix).flac -=- CDDA (100%)

Сводка 100,00% CDDA

263199924


info [Профиль]  [ЛС] 

post 15-Апр-2012 00:09 (спустя 1 минута) [-]0[+]

Топик был перенесен из форума Оформление раздач в форум Зарубежный Rap, Hip-Hop, R'n'B (lossless)

saGambit
 
Показать сообщения:    
Ответить на тему

Текущее время: 21-Май 16:31

Часовой пояс: GMT + 4



Вы не можете начинать темы
Вы не можете отвечать на сообщения
Вы не можете редактировать свои сообщения
Вы не можете удалять свои сообщения
Вы не можете голосовать в опросах
Вы не можете прикреплять файлы к сообщениям
Вы не можете скачивать файлы