Ошибка

(Ambient, Enigmatic, Gregorian chant, New Age) Era - The Essential - 2010, FLAC (tracks+.cue), lossless

Ответить на тему
 
Автор Сообщение

Fokich

Пол: Пол:Муж

Стаж: 13 лет

Сообщений: 259

Россия
Рейтинг

post 09-Окт-2010 09:24 0[+]

[Цитировать] 

Era - The Essential

Жанр: Ambient, Enigmatic, Gregorian chant, New Age
Происхождение исполнителя: France
Год издания данного носителя: 2010
Страна-производитель носителя: France
Тип релиза:tracks+.cue
Аудио кодек: FLAC
Битрейт аудио: lossless
Продолжительность: 01:05:14
Полиграфия: отсутствует
Лейбл: Mercury Records
Тип рипа: tracks+.cue
1/15.ERA - Ameno (UK Remix) [4:05]
2/15.ERA - Reborn [5:31]
3/15.ERA - Hymne [4:56]
4/15.ERA - Prayers [4:21]
5/15.ERA - The Mass [3:41]
6/15.ERA - Devore Amante [4:16]
7/15.ERA - Madona [4:23]
8/15.ERA - Dark Voices [5:00]
9/15.ERA - Enae Volare [3:37]
10/15.ERA - Era [3:18]
11/15.ERA - Divano [3:55]
12/15.ERA - Impera [4:33]
13/15.ERA - Sentence [4:56]
14/15.ERA - The Chosen Path [4:18]
15/15.ERA - I Believe [4:23]

Код:

Exact Audio Copy V0.99 prebeta 5 from 4. May 2009

EAC extraction logfile from 19. September 2010, 1:40

ERA / The Essential

Used drive  : LITE-ON DVD SHD-16P1S   Adapter: 0  ID: 0

Read mode               : Secure
Utilize accurate stream : Yes
Defeat audio cache      : Yes
Make use of C2 pointers : No

Read offset correction                      : 6
Overread into Lead-In and Lead-Out          : No
Fill up missing offset samples with silence : Yes
Delete leading and trailing silent blocks   : No
Null samples used in CRC calculations       : Yes
Used interface                              : Installed external ASPI interface
Gap handling                                : Appended to previous track

Used output format              : User Defined Encoder
Selected bitrate                : 320 kBit/s
Quality                         : High
Add ID3 tag                     : No
Command line compressor         : C:\Program Files\FLAC\flac.exe
Additional command line options : -V -8 -T "artist=%a" -T "title=%t" -T "album=%g" -T "date=%y" -T "tracknumber=%n" -T "genre=%m" %s

TOC of the extracted CD

     Track |   Start  |  Length  | Start sector | End sector
    ---------------------------------------------------------
        1  |  0:00.00 |  4:05.10 |         0    |    18384   
        2  |  4:05.10 |  5:31.34 |     18385    |    43243   
        3  |  9:36.44 |  4:55.47 |     43244    |    65415   
        4  | 14:32.16 |  4:21.31 |     65416    |    85021   
        5  | 18:53.47 |  3:41.16 |     85022    |   101612   
        6  | 22:34.63 |  4:16.07 |    101613    |   120819   
        7  | 26:50.70 |  4:22.49 |    120820    |   140518   
        8  | 31:13.44 |  4:59.55 |    140519    |   162998   
        9  | 36:13.24 |  3:36.45 |    162999    |   179243   
       10  | 39:49.69 |  3:18.03 |    179244    |   194096   
       11  | 43:07.72 |  3:55.06 |    194097    |   211727   
       12  | 47:03.03 |  4:33.22 |    211728    |   232224   
       13  | 51:36.25 |  4:55.59 |    232225    |   254408   
       14  | 56:32.09 |  4:18.06 |    254409    |   273764   
       15  | 60:50.15 |  4:23.34 |    273765    |   293523   

Track  1

     Filename D:\Musiques\ERA\The Essential\FLAC\01 Ameno (UK Remix).wav

     Pre-gap length  0:00:02.00

     Peak level 98.9 %
     Track quality 100.0 %
     Test CRC 6366D85D
     Copy CRC 6366D85D
     Track not present in AccurateRip database
     Copy OK

Track  2

     Filename D:\Musiques\ERA\The Essential\FLAC\02 Reborn.wav

     Peak level 98.8 %
     Track quality 100.0 %
     Test CRC EBCC760C
     Copy CRC EBCC760C
     Track not present in AccurateRip database
     Copy OK

Track  3

     Filename D:\Musiques\ERA\The Essential\FLAC\03 Hymne.wav

     Pre-gap length  0:00:01.37

     Peak level 97.1 %
     Track quality 100.0 %
     Test CRC B23640E4
     Copy CRC B23640E4
     Track not present in AccurateRip database
     Copy OK

Track  4

     Filename D:\Musiques\ERA\The Essential\FLAC\04 Prayers.wav

     Peak level 98.8 %
     Track quality 100.0 %
     Test CRC E276D0A4
     Copy CRC E276D0A4
     Track not present in AccurateRip database
     Copy OK

Track  5

     Filename D:\Musiques\ERA\The Essential\FLAC\05 The Mass.wav

     Pre-gap length  0:00:02.88

     Peak level 99.3 %
     Track quality 100.0 %
     Test CRC 1009D212
     Copy CRC 1009D212
     Track not present in AccurateRip database
     Copy OK

Track  6

     Filename D:\Musiques\ERA\The Essential\FLAC\06 Devore Amante.wav

     Pre-gap length  0:00:00.98

     Peak level 98.6 %
     Track quality 100.0 %
     Test CRC 01365700
     Copy CRC 01365700
     Track not present in AccurateRip database
     Copy OK

Track  7

     Filename D:\Musiques\ERA\The Essential\FLAC\07 Madona.wav

     Peak level 98.6 %
     Track quality 99.9 %
     Test CRC 0ACA5152
     Copy CRC 0ACA5152
     Track not present in AccurateRip database
     Copy OK

Track  8

     Filename D:\Musiques\ERA\The Essential\FLAC\08 Dark Voices.wav

     Peak level 98.8 %
     Track quality 100.0 %
     Test CRC 8AA38FB4
     Copy CRC 8AA38FB4
     Track not present in AccurateRip database
     Copy OK

Track  9

     Filename D:\Musiques\ERA\The Essential\FLAC\09 Enae Volare.wav

     Pre-gap length  0:00:00.28

     Peak level 99.3 %
     Track quality 100.0 %
     Test CRC 31BF97A3
     Copy CRC 31BF97A3
     Track not present in AccurateRip database
     Copy OK

Track 10

     Filename D:\Musiques\ERA\The Essential\FLAC\10 Era.wav

     Pre-gap length  0:00:01.02

     Peak level 99.3 %
     Track quality 100.0 %
     Test CRC E869E6E1
     Copy CRC E869E6E1
     Track not present in AccurateRip database
     Copy OK

Track 11

     Filename D:\Musiques\ERA\The Essential\FLAC\11 Divano.wav

     Pre-gap length  0:00:02.54

     Peak level 100.0 %
     Track quality 99.9 %
     Test CRC 0BEE24B7
     Copy CRC 0BEE24B7
     Track not present in AccurateRip database
     Copy OK

Track 12

     Filename D:\Musiques\ERA\The Essential\FLAC\12 Impera.wav

     Peak level 97.1 %
     Track quality 99.9 %
     Test CRC E7E5208C
     Copy CRC E7E5208C
     Track not present in AccurateRip database
     Copy OK

Track 13

     Filename D:\Musiques\ERA\The Essential\FLAC\13 Sentence.wav

     Peak level 98.6 %
     Track quality 100.0 %
     Test CRC 7283E183
     Copy CRC 7283E183
     Track not present in AccurateRip database
     Copy OK

Track 14

     Filename D:\Musiques\ERA\The Essential\FLAC\14 The Chosen Path.wav

     Peak level 99.9 %
     Track quality 100.0 %
     Test CRC 5C51632A
     Copy CRC 5C51632A
     Track not present in AccurateRip database
     Copy OK

Track 15

     Filename D:\Musiques\ERA\The Essential\FLAC\15 I Believe.wav

     Pre-gap length  0:00:01.20

     Peak level 98.8 %
     Track quality 100.0 %
     Test CRC F4D06723
     Copy CRC F4D06723
     Track not present in AccurateRip database
     Copy OK

None of the tracks are present in the AccurateRip database

No errors occurred

End of status report

Код:

REM GENRE "New Age"
REM DATE 2010
REM DISCID EC0F490F
REM COMMENT "ExactAudioCopy v0.99pb5"
PERFORMER "ERA"
TITLE "The Essential"
FILE "01 Ameno (UK Remix).wav" WAVE
  TRACK 01 AUDIO
    TITLE "Ameno (UK Remix)"
    PERFORMER "ERA"
    INDEX 01 00:00:00
FILE "02 Reborn.wav" WAVE
  TRACK 02 AUDIO
    TITLE "Reborn"
    PERFORMER "ERA"
    INDEX 01 00:00:00
  TRACK 03 AUDIO
    TITLE "Hymne"
    PERFORMER "ERA"
    INDEX 00 05:30:06
FILE "03 Hymne.wav" WAVE
    INDEX 01 00:00:00
FILE "04 Prayers.wav" WAVE
  TRACK 04 AUDIO
    TITLE "Prayers"
    PERFORMER "ERA"
    INDEX 01 00:00:00
  TRACK 05 AUDIO
    TITLE "The Mass"
    PERFORMER "ERA"
    INDEX 00 04:18:40
FILE "05 The Mass.wav" WAVE
    INDEX 01 00:00:00
  TRACK 06 AUDIO
    TITLE "Devore Amante"
    PERFORMER "ERA"
    INDEX 00 03:40:17
FILE "06 Devore Amante.wav" WAVE
    INDEX 01 00:00:00
FILE "07 Madona.wav" WAVE
  TRACK 07 AUDIO
    TITLE "Madona"
    PERFORMER "ERA"
    INDEX 01 00:00:00
FILE "08 Dark Voices.wav" WAVE
  TRACK 08 AUDIO
    TITLE "Dark Voices"
    PERFORMER "ERA"
    INDEX 01 00:00:00
  TRACK 09 AUDIO
    TITLE "Enae Volare"
    PERFORMER "ERA"
    INDEX 00 04:59:34
FILE "09 Enae Volare.wav" WAVE
    INDEX 01 00:00:00
  TRACK 10 AUDIO
    TITLE "Era"
    PERFORMER "ERA"
    INDEX 00 03:35:43
FILE "10 Era.wav" WAVE
    INDEX 01 00:00:00
  TRACK 11 AUDIO
    TITLE "Divano"
    PERFORMER "ERA"
    INDEX 00 03:15:37
FILE "11 Divano.wav" WAVE
    INDEX 01 00:00:00
FILE "12 Impera.wav" WAVE
  TRACK 12 AUDIO
    TITLE "Impera"
    PERFORMER "ERA"
    INDEX 01 00:00:00
FILE "13 Sentence.wav" WAVE
  TRACK 13 AUDIO
    TITLE "Sentence"
    PERFORMER "ERA"
    INDEX 01 00:00:00
FILE "14 The Chosen Path.wav" WAVE
  TRACK 14 AUDIO
    TITLE "The Chosen Path"
    PERFORMER "ERA"
    INDEX 01 00:00:00
  TRACK 15 AUDIO
    TITLE "I Believe"
    PERFORMER "ERA"
    INDEX 00 04:16:66
FILE "15 I Believe.wav" WAVE
    INDEX 01 00:00:00
info [Профиль]  [ЛС] 

deZar

Пол: Пол:Муж

Стаж: 11 лет

Сообщений: 29

Россия
Рейтинг

post 09-Окт-2010 11:28 (спустя 2 часа 3 минуты) [-]0[+]

[Цитировать] 

Спасяб

_________________
Sword Art Online
info [Профиль]  [ЛС] 

Fokich

Пол: Пол:Муж

Стаж: 13 лет

Сообщений: 259

Россия
Рейтинг

post 09-Окт-2010 14:44 (спустя 3 часа) [-]0[+]

[Цитировать] 

deZar писал(а):

Спасяб
рад стараться Улыбаюсь
info [Профиль]  [ЛС] 
Показать сообщения:    
Ответить на тему

Текущее время: 02-Июл 00:46

Часовой пояс: GMT + 4



Вы не можете начинать темы
Вы не можете отвечать на сообщения
Вы не можете редактировать свои сообщения
Вы не можете удалять свои сообщения
Вы не можете голосовать в опросах
Вы не можете прикреплять файлы к сообщениям
Вы не можете скачивать файлы