Ошибка

(Electronic, Dance, Pop) 009 Sound System - 009 Sound System - 2009, FLAC (tracks+.cue), lossless

Ответить на тему
 
Автор Сообщение

FLaSh1k

Пол: Пол:Муж

Стаж: 12 лет

Сообщений: 3154

Предупреждений: 3

Рейтинг

post 20-Июн-2010 13:05 0[+]

[Цитировать] 

009 Sound System - 009 Sound System

Жанр: Electronic, Dance, Pop
Происхождение исполнителя: Лос-Анджелес
Год издания данного носителя: 2009
Страна-производитель носителя: США
Тип релиза: tracks+.cue
Аудио кодек: FLAC
Битрейт аудио: lossless
Продолжительность: 01:16:01
Треклист:
1. Dreamscape [04:37]
2. Space And Time [04:58]
3. Shine Down [04:31]
4. Number Two [04:34]
5. Holy Ghost [04:49]
6. Standing Stones [09:13]
7. Trinity [09:40]
8. Killer With A Thousand Faces [06:48]
9. Speak To Angels [10:35]
10. With A Spirit [09:58]
11. Born To Be Wasted [06:13]

Код:

Exact Audio Copy V0.99 prebeta 5 from 4. May 2009

EAC extraction logfile from 17. May 2010, 0:32

009 Sound System / 009 Sound System

Used drive  : TSSTcorpCDDVDW SH-S223F   Adapter: 3  ID: 0

Read mode               : Secure
Utilize accurate stream : Yes
Defeat audio cache      : Yes
Make use of C2 pointers : No

Read offset correction                      : 6
Overread into Lead-In and Lead-Out          : No
Fill up missing offset samples with silence : Yes
Delete leading and trailing silent blocks   : No
Null samples used in CRC calculations       : Yes
Used interface                              : Native Win32 interface for Win NT & 2000
Gap handling                                : Appended to previous track

Used output format              : User Defined Encoder
Selected bitrate                : 1024 kBit/s
Quality                         : High
Add ID3 tag                     : No
Command line compressor         : D:\Program Files\Exact Audio Copy\FLAC\FLAC.EXE
Additional command line options : -6 -V -T "ARTIST=%a" -T "TITLE=%t" -T "ALBUM=%g" -T "DATE=%y" -T "TRACKNUMBER=%n" -T "GENRE=%m" -T "COMMENT=%e" %s -o %d

TOC of the extracted CD

     Track |   Start  |  Length  | Start sector | End sector
    ---------------------------------------------------------
        1  |  0:00.00 |  4:37.36 |         0    |    20810   
        2  |  4:37.36 |  4:58.23 |     20811    |    43183   
        3  |  9:35.59 |  4:31.01 |     43184    |    63509   
        4  | 14:06.60 |  4:34.74 |     63510    |    84133   
        5  | 18:41.59 |  4:49.69 |     84134    |   105877   
        6  | 23:31.53 |  9:13.68 |    105878    |   147420   
        7  | 32:45.46 |  9:40.14 |    147421    |   190934   
        8  | 42:25.60 |  6:48.67 |    190935    |   221601   
        9  | 49:14.52 | 10:35.46 |    221602    |   269272   
       10  | 59:50.23 |  9:58.03 |    269273    |   314125   
       11  | 69:48.26 |  6:13.03 |    314126    |   342103   

Track  1

     Filename D:\EACrips\01 - 009 Sound System - Dreamscape.wav

     Pre-gap length  0:00:02.00

     Peak level 96.5 %
     Track quality 100.0 %
     Test CRC 005B80EF
     Copy CRC 005B80EF
     Track not present in AccurateRip database
     Copy OK

Track  2

     Filename D:\EACrips\02 - 009 Sound System - Space And Time.wav

     Pre-gap length  0:00:00.12

     Peak level 96.5 %
     Track quality 100.0 %
     Test CRC BD359D32
     Copy CRC BD359D32
     Track not present in AccurateRip database
     Copy OK

Track  3

     Filename D:\EACrips\03 - 009 Sound System - Shine Down.wav

     Pre-gap length  0:00:00.12

     Peak level 97.6 %
     Track quality 100.0 %
     Test CRC 1C3B4EB4
     Copy CRC 1C3B4EB4
     Track not present in AccurateRip database
     Copy OK

Track  4

     Filename D:\EACrips\04 - 009 Sound System - Number Two.wav

     Pre-gap length  0:00:00.12

     Peak level 96.5 %
     Track quality 100.0 %
     Test CRC 0BBD043A
     Copy CRC 0BBD043A
     Track not present in AccurateRip database
     Copy OK

Track  5

     Filename D:\EACrips\05 - 009 Sound System - Holy Ghost.wav

     Pre-gap length  0:00:00.12

     Peak level 95.4 %
     Track quality 100.0 %
     Test CRC 941295CA
     Copy CRC 941295CA
     Track not present in AccurateRip database
     Copy OK

Track  6

     Filename D:\EACrips\06 - 009 Sound System - Standing Stones.wav

     Pre-gap length  0:00:00.12

     Peak level 89.0 %
     Track quality 100.0 %
     Test CRC EF3D9B39
     Copy CRC EF3D9B39
     Track not present in AccurateRip database
     Copy OK

Track  7

     Filename D:\EACrips\07 - 009 Sound System - Trinity.wav

     Pre-gap length  0:00:00.09

     Peak level 81.0 %
     Track quality 100.0 %
     Test CRC 2E4E4844
     Copy CRC 2E4E4844
     Track not present in AccurateRip database
     Copy OK

Track  8

     Filename D:\EACrips\08 - 009 Sound System - Killer With A Thousand Faces.wav

     Pre-gap length  0:00:00.12

     Peak level 96.5 %
     Track quality 100.0 %
     Test CRC 809B3DC2
     Copy CRC 809B3DC2
     Track not present in AccurateRip database
     Copy OK

Track  9

     Filename D:\EACrips\09 - 009 Sound System - Speak To Angels.wav

     Pre-gap length  0:00:00.09

     Peak level 92.1 %
     Track quality 100.0 %
     Test CRC 33A00005
     Copy CRC 33A00005
     Track not present in AccurateRip database
     Copy OK

Track 10

     Filename D:\EACrips\10 - 009 Sound System - With A Spirit.wav

     Pre-gap length  0:00:00.12

     Peak level 98.8 %
     Track quality 99.9 %
     Test CRC F386D05F
     Copy CRC F386D05F
     Track not present in AccurateRip database
     Copy OK

Track 11

     Filename D:\EACrips\11 - 009 Sound System - Born To Be Wasted.wav

     Pre-gap length  0:00:00.10

     Peak level 96.5 %
     Track quality 100.0 %
     Test CRC 3C1363A4
     Copy CRC 3C1363A4
     Track not present in AccurateRip database
     Copy OK

None of the tracks are present in the AccurateRip database

No errors occurred

End of status report

Код:

REM GENRE Electronic
REM DATE 2009
REM DISCID AB11D10B
REM COMMENT "ExactAudioCopy v0.99pb5"
PERFORMER "009 Sound System"
TITLE "009 Sound System"
FILE "01 - 009 Sound System - Dreamscape.wav" WAVE
  TRACK 01 AUDIO
    TITLE "Dreamscape"
    PERFORMER "009 Sound System"
    FLAGS DCP
    INDEX 01 00:00:00
  TRACK 02 AUDIO
    TITLE "Space And Time"
    PERFORMER "009 Sound System"
    FLAGS DCP
    INDEX 00 04:37:27
FILE "02 - 009 Sound System - Space And Time.wav" WAVE
    INDEX 01 00:00:00
  TRACK 03 AUDIO
    TITLE "Shine Down"
    PERFORMER "009 Sound System"
    FLAGS DCP
    INDEX 00 04:58:14
FILE "03 - 009 Sound System - Shine Down.wav" WAVE
    INDEX 01 00:00:00
  TRACK 04 AUDIO
    TITLE "Number Two"
    PERFORMER "009 Sound System"
    FLAGS DCP
    INDEX 00 04:30:67
FILE "04 - 009 Sound System - Number Two.wav" WAVE
    INDEX 01 00:00:00
  TRACK 05 AUDIO
    TITLE "Holy Ghost"
    PERFORMER "009 Sound System"
    FLAGS DCP
    INDEX 00 04:34:65
FILE "05 - 009 Sound System - Holy Ghost.wav" WAVE
    INDEX 01 00:00:00
  TRACK 06 AUDIO
    TITLE "Standing Stones"
    PERFORMER "009 Sound System"
    FLAGS DCP
    INDEX 00 04:49:60
FILE "06 - 009 Sound System - Standing Stones.wav" WAVE
    INDEX 01 00:00:00
  TRACK 07 AUDIO
    TITLE "Trinity"
    PERFORMER "009 Sound System"
    FLAGS DCP
    INDEX 00 09:13:61
FILE "07 - 009 Sound System - Trinity.wav" WAVE
    INDEX 01 00:00:00
  TRACK 08 AUDIO
    TITLE "Killer With A Thousand Faces"
    PERFORMER "009 Sound System"
    FLAGS DCP
    INDEX 00 09:40:05
FILE "08 - 009 Sound System - Killer With A Thousand Faces.wav" WAVE
    INDEX 01 00:00:00
  TRACK 09 AUDIO
    TITLE "Speak To Angels"
    PERFORMER "009 Sound System"
    FLAGS DCP
    INDEX 00 06:48:60
FILE "09 - 009 Sound System - Speak To Angels.wav" WAVE
    INDEX 01 00:00:00
  TRACK 10 AUDIO
    TITLE "With A Spirit"
    PERFORMER "009 Sound System"
    FLAGS DCP
    INDEX 00 10:35:37
FILE "10 - 009 Sound System - With A Spirit.wav" WAVE
    INDEX 01 00:00:00
  TRACK 11 AUDIO
    TITLE "Born To Be Wasted"
    PERFORMER "009 Sound System"
    FLAGS DCP
    INDEX 00 09:57:70
FILE "11 - 009 Sound System - Born To Be Wasted.wav" WAVE
    INDEX 01 00:00:00


Лейбл: Track One Recordings
Каталоговый номер: 884502345087
Тип рипа: tracks+.cue
Релиз: May 25, 2010
Доп. информация: waffles.fm
info [Профиль]  [ЛС] 

FLaSh1k

Пол: Пол:Муж

Стаж: 12 лет

Сообщений: 3154

Предупреждений: 3

Рейтинг

post 20-Июн-2010 13:10 (спустя 4 минуты) [-]0[+]

[Цитировать] 

Возможно не в тот форум пихнул. Музыка у него такая, что не поймешь =))

но музыка кул хД
info [Профиль]  [ЛС] 

Попрыгун

Пол: Пол:Муж

Стаж: 13 лет

Сообщений: 602

Рейтинг

post 20-Июн-2010 15:55 (спустя 2 часа 44 минуты) [-]0[+]

[Цитировать] 

содержмое cue-файла в оформление и будет идеальный рип
info [Профиль]  [ЛС] 

FLaSh1k

Пол: Пол:Муж

Стаж: 12 лет

Сообщений: 3154

Предупреждений: 3

Рейтинг

post 20-Июн-2010 16:09 (спустя 14 минут) [-]0[+]

[Цитировать] 

Попрыгун
Добавил, измените пожалуйста )
info [Профиль]  [ЛС] 

B1ohazard

Стаж: 13 лет

Сообщений: 3643

Россия
Рейтинг

post 21-Июн-2010 02:03 (спустя 9 часов) [-]0[+]

[Цитировать] 

а в MP3 имеется?
а то плеер не поддерживает флак
info [Профиль]  [ЛС] 

FLaSh1k

Пол: Пол:Муж

Стаж: 12 лет

Сообщений: 3154

Предупреждений: 3

Рейтинг

post 21-Июн-2010 02:08 (спустя 4 минуты) [-]0[+]

[Цитировать] 

B1ohazard
Ищите на рутрекере. Но скажу сразу качество Г . Почему и искал данный релиз, вот решил выложить...
info [Профиль]  [ЛС] 

ArtIMANIAK

Пол: Пол:Муж

Стаж: 12 лет

Сообщений: 2

Россия
Рейтинг

post 27-Июн-2010 22:38 (спустя 6 дней) [-]0[+]

[Цитировать] 

Благодарю! Музыка супер!

_________________
info [Профиль]  [ЛС] 

9pocJIaB

Пол: Пол:Муж

Стаж: 12 лет

Сообщений: 44

Россия
Рейтинг

post 04-Окт-2010 17:23 (спустя 3 месяца 6 дней) [-]0[+]

[Цитировать] 

FLaSh1k
На что похоже, могу поинтересоватся?)

_________________
info [Профиль]  [ЛС] 

FLaSh1k

Пол: Пол:Муж

Стаж: 12 лет

Сообщений: 3154

Предупреждений: 3

Рейтинг

post 04-Окт-2010 17:29 (спустя 5 минут) [-]0[+]

[Цитировать] 

9pocJIaB
Ни на что, что я слышал. А слышал я достаточно... В общем не каждого цепляет, но музычка прикольная ))
info [Профиль]  [ЛС] 

9pocJIaB

Пол: Пол:Муж

Стаж: 12 лет

Сообщений: 44

Россия
Рейтинг

post 04-Окт-2010 17:51 (спустя 21 минута) [-]0[+]

[Цитировать] 

FLaSh1k
Интересно, скачаю - ка)
Вопрос, т. к. с флаком знаком, но плохо.
Файлы *cue и *log для воспроизведения качать обязательно?

_________________
info [Профиль]  [ЛС] 

FLaSh1k

Пол: Пол:Муж

Стаж: 12 лет

Сообщений: 3154

Предупреждений: 3

Рейтинг

post 04-Окт-2010 18:46 (спустя 54 минуты) [-]0[+]

[Цитировать] 

9pocJIaB
Нет.
info [Профиль]  [ЛС] 

9pocJIaB

Пол: Пол:Муж

Стаж: 12 лет

Сообщений: 44

Россия
Рейтинг

post 04-Окт-2010 22:02 (спустя 3 часа) [-]0[+]

[Цитировать] 

Хм... Музыка просто отличная, релаксирующая, звук чистый (флак жэ), напомнила DJ Svetу)

_________________
info [Профиль]  [ЛС] 
Показать сообщения:    
Ответить на тему

Текущее время: 19-Май 23:27

Часовой пояс: GMT + 4



Вы не можете начинать темы
Вы не можете отвечать на сообщения
Вы не можете редактировать свои сообщения
Вы не можете удалять свои сообщения
Вы не можете голосовать в опросах
Вы не можете прикреплять файлы к сообщениям
Вы не можете скачивать файлы