Ошибка

(Hip-Hop) M.I.A. - Matangi - 2013, FLAC (tracks+.cue), lossless

Ответить на тему
 
Автор Сообщение

ka4ipury

Пол: Пол:Муж

Стаж: 8 лет 8 месяцев

Сообщений: 21

Рейтинг

post 22-Сен-2014 05:30 0[+]

[Цитировать] 

M.I.A. - Matangi


pic="http://i60.fastpic.ru/big/2013/1109/ce/290137377fd5cd324d1db08e5ba425ce.jpg"


Жанр: Hip-Hop
Год издания данного носителя: 2013
Страна-производитель носителя: США
Лейбл: Interscope Records
Каталоговый номер: B0019325-02
Аудио кодек: FLAC
Тип рипа: tracks+.cue
Битрейт аудио: lossless
Продолжительность: 00:57:15
Источник (релизер): TMD
Полиграфия: Отсутствует

Треклист:
01. Karmageddon (1:33)
02. MATANGI (5:12)
03. Only 1 U (3:12)
04. Warriors (3:40)
05. Come Walk With Me (4:43)
06. aTENTion (3:40)
07. Exodus (5:08)
08. Bad Girls (3:47)
09. Boom Skit (1:15)
10. Double Bubble Trouble (2:59)
11. Y.A.L.A. (4:23)
12. Bring The Noize (4:35)
13. Lights (4:35)
14. Know It Ain't Right (3:42)
15. Sexodus (4:51)
X Lossless Decoder version 20130127 (142.3) 

XLD extraction logfile from 2013-10-31 18:03:52 -0400

M.I.A. / Matangi

Used drive : MATSHITA DVD-R UJ-8A8 (revision HB14)
Media type : Pressed CD

Ripper mode : XLD Secure Ripper
Disable audio cache : OK for the drive with a cache less than 1375KiB
Make use of C2 pointers : NO
Read offset correction : 102
Max retry count : 20
Gap status : Analyzed, Appended (except HTOA)

TOC of the extracted CD
Track | Start | Length | Start sector | End sector
---------------------------------------------------------
1 | 00:00:00 | 01:33:36 | 0 | 7010
2 | 01:33:36 | 05:12:01 | 7011 | 30411
3 | 06:45:37 | 03:12:37 | 30412 | 44848
4 | 09:57:74 | 03:40:71 | 44849 | 61419
5 | 13:38:70 | 04:43:38 | 61420 | 82682
6 | 18:22:33 | 03:40:23 | 82683 | 99205
7 | 22:02:56 | 05:08:37 | 99206 | 122342
8 | 27:11:18 | 03:47:39 | 122343 | 139406
9 | 30:58:57 | 01:15:31 | 139407 | 145062
10 | 32:14:13 | 02:59:18 | 145063 | 158505
11 | 35:13:31 | 04:23:61 | 158506 | 178291
12 | 39:37:17 | 04:35:25 | 178292 | 198941
13 | 44:12:42 | 04:35:62 | 198942 | 219628
14 | 48:48:29 | 03:42:10 | 219629 | 236288
15 | 52:30:39 | 04:51:53 | 236289 | 258166

AccurateRip Summary
Disc not found in AccurateRip DB.

All Tracks
Album gain : -11.41 dB
Peak : 0.997131
Statistics
Read error : 0
Jitter error (maybe fixed) : 0
Retry sector count : 0
Damaged sector count : 0

Track 01
Filename : /Users/trevormorrison/Desktop/Torrent Files/M.I.A. - Matangi (2013) [FLAC]/01 Karmageddon.flac
Pre-gap length : 00:02:00

Track gain : -6.70 dB
Peak : 0.996185
CRC32 hash (test run) : 7C368B60
CRC32 hash : 7C368B60
CRC32 hash (skip zero) : ED640AD2
AccurateRip v1 signature : 97BD8084
AccurateRip v2 signature : 0F8740C9
->Track not present in AccurateRip database.
Statistics
Read error : 0
Jitter error (maybe fixed) : 0
Retry sector count : 0
Damaged sector count : 0

Track 02
Filename : /Users/trevormorrison/Desktop/Torrent Files/M.I.A. - Matangi (2013) [FLAC]/02 MATANGI.flac

Track gain : -11.86 dB
Peak : 0.996185
CRC32 hash (test run) : 76B71C91
CRC32 hash : 76B71C91
CRC32 hash (skip zero) : 3CC4CCE3
AccurateRip v1 signature : CBF360E9
AccurateRip v2 signature : 25A86896
->Track not present in AccurateRip database.
Statistics
Read error : 0
Jitter error (maybe fixed) : 0
Retry sector count : 0
Damaged sector count : 0

Track 03
Filename : /Users/trevormorrison/Desktop/Torrent Files/M.I.A. - Matangi (2013) [FLAC]/03 Only 1 U.flac

Track gain : -11.78 dB
Peak : 0.996185
CRC32 hash (test run) : 158AEC67
CRC32 hash : 158AEC67
CRC32 hash (skip zero) : ED0075B1
AccurateRip v1 signature : 65610FEE
AccurateRip v2 signature : BE071DFA
->Track not present in AccurateRip database.
Statistics
Read error : 0
Jitter error (maybe fixed) : 0
Retry sector count : 0
Damaged sector count : 0

Track 04
Filename : /Users/trevormorrison/Desktop/Torrent Files/M.I.A. - Matangi (2013) [FLAC]/04 Warriors.flac

Track gain : -12.38 dB
Peak : 0.996185
CRC32 hash (test run) : 928D394B
CRC32 hash : 928D394B
CRC32 hash (skip zero) : 6CEA0F9F
AccurateRip v1 signature : A480E3A6
AccurateRip v2 signature : E159B138
->Track not present in AccurateRip database.
Statistics
Read error : 0
Jitter error (maybe fixed) : 0
Retry sector count : 0
Damaged sector count : 0

Track 05
Filename : /Users/trevormorrison/Desktop/Torrent Files/M.I.A. - Matangi (2013) [FLAC]/05 Come Walk With Me.flac

Track gain : -10.15 dB
Peak : 0.996185
CRC32 hash (test run) : 31563E03
CRC32 hash : 31563E03
CRC32 hash (skip zero) : 71F83D7B
AccurateRip v1 signature : 4BAB83C0
AccurateRip v2 signature : C5328932
->Track not present in AccurateRip database.
Statistics
Read error : 0
Jitter error (maybe fixed) : 0
Retry sector count : 0
Damaged sector count : 0

Track 06
Filename : /Users/trevormorrison/Desktop/Torrent Files/M.I.A. - Matangi (2013) [FLAC]/06 aTENTion.flac

Track gain : -8.35 dB
Peak : 0.942993
CRC32 hash (test run) : 4F22E621
CRC32 hash : 4F22E621
CRC32 hash (skip zero) : C7741C3A
AccurateRip v1 signature : 6685D6EB
AccurateRip v2 signature : 71F86927
->Track not present in AccurateRip database.
Statistics
Read error : 0
Jitter error (maybe fixed) : 0
Retry sector count : 0
Damaged sector count : 0

Track 07
Filename : /Users/trevormorrison/Desktop/Torrent Files/M.I.A. - Matangi (2013) [FLAC]/07 Exodus.flac

Track gain : -11.19 dB
Peak : 0.996185
CRC32 hash (test run) : C31ED263
CRC32 hash : C31ED263
CRC32 hash (skip zero) : D6E99C42
AccurateRip v1 signature : 9661434F
AccurateRip v2 signature : C6764BC7
->Track not present in AccurateRip database.
Statistics
Read error : 0
Jitter error (maybe fixed) : 0
Retry sector count : 0
Damaged sector count : 0

Track 08
Filename : /Users/trevormorrison/Desktop/Torrent Files/M.I.A. - Matangi (2013) [FLAC]/08 Bad Girls.flac

Track gain : -11.35 dB
Peak : 0.996185
CRC32 hash (test run) : EA755D8C
CRC32 hash : EA755D8C
CRC32 hash (skip zero) : 8C26C0C9
AccurateRip v1 signature : 2AC8EE0B
AccurateRip v2 signature : F727A8DB
->Track not present in AccurateRip database.
Statistics
Read error : 0
Jitter error (maybe fixed) : 0
Retry sector count : 0
Damaged sector count : 0

Track 09
Filename : /Users/trevormorrison/Desktop/Torrent Files/M.I.A. - Matangi (2013) [FLAC]/09 Boom Skit.flac

Track gain : -10.45 dB
Peak : 0.996185
CRC32 hash (test run) : 075A9442
CRC32 hash : 075A9442
CRC32 hash (skip zero) : 3FE21330
AccurateRip v1 signature : 8C3F5521
AccurateRip v2 signature : E7AD8614
->Track not present in AccurateRip database.
Statistics
Read error : 0
Jitter error (maybe fixed) : 0
Retry sector count : 0
Damaged sector count : 0

Track 10
Filename : /Users/trevormorrison/Desktop/Torrent Files/M.I.A. - Matangi (2013) [FLAC]/10 Double Bubble Trouble.flac

Track gain : -12.54 dB
Peak : 0.997131
CRC32 hash (test run) : 23B53FC5
CRC32 hash : 23B53FC5
CRC32 hash (skip zero) : C9CCFE95
AccurateRip v1 signature : 6A0C1F4B
AccurateRip v2 signature : A71DC07F
->Track not present in AccurateRip database.
Statistics
Read error : 0
Jitter error (maybe fixed) : 0
Retry sector count : 0
Damaged sector count : 0

Track 11
Filename : /Users/trevormorrison/Desktop/Torrent Files/M.I.A. - Matangi (2013) [FLAC]/11 Y.A.L.A..flac

Track gain : -11.97 dB
Peak : 0.996185
CRC32 hash (test run) : E8238207
CRC32 hash : E8238207
CRC32 hash (skip zero) : ADFE90B7
AccurateRip v1 signature : 4E3C6F04
AccurateRip v2 signature : BA234EE2
->Track not present in AccurateRip database.
Statistics
Read error : 0
Jitter error (maybe fixed) : 0
Retry sector count : 0
Damaged sector count : 0

Track 12
Filename : /Users/trevormorrison/Desktop/Torrent Files/M.I.A. - Matangi (2013) [FLAC]/12 Bring The Noize.flac

Track gain : -12.12 dB
Peak : 0.996185
CRC32 hash (test run) : DA76193E
CRC32 hash : DA76193E
CRC32 hash (skip zero) : 48815FF2
AccurateRip v1 signature : 0CB0F6D3
AccurateRip v2 signature : F62FD922
->Track not present in AccurateRip database.
Statistics
Read error : 0
Jitter error (maybe fixed) : 0
Retry sector count : 0
Damaged sector count : 0

Track 13
Filename : /Users/trevormorrison/Desktop/Torrent Files/M.I.A. - Matangi (2013) [FLAC]/13 Lights.flac

Track gain : -9.97 dB
Peak : 0.996185
CRC32 hash (test run) : 30B17D6B
CRC32 hash : 30B17D6B
CRC32 hash (skip zero) : FF164486
AccurateRip v1 signature : B5AA4EFD
AccurateRip v2 signature : 83C49C0C
->Track not present in AccurateRip database.
Statistics
Read error : 0
Jitter error (maybe fixed) : 0
Retry sector count : 0
Damaged sector count : 0

Track 14
Filename : /Users/trevormorrison/Desktop/Torrent Files/M.I.A. - Matangi (2013) [FLAC]/14 Know It Ain't Right.flac

Track gain : -8.49 dB
Peak : 0.996185
CRC32 hash (test run) : 9E48DBCA
CRC32 hash : 9E48DBCA
CRC32 hash (skip zero) : 6B70B4DA
AccurateRip v1 signature : 79C84532
AccurateRip v2 signature : 0A296386
->Track not present in AccurateRip database.
Statistics
Read error : 0
Jitter error (maybe fixed) : 0
Retry sector count : 0
Damaged sector count : 0

Track 15
Filename : /Users/trevormorrison/Desktop/Torrent Files/M.I.A. - Matangi (2013) [FLAC]/15 Sexodus.flac

Track gain : -9.34 dB
Peak : 0.996185
CRC32 hash (test run) : ABFDD32A
CRC32 hash : ABFDD32A
CRC32 hash (skip zero) : 4E894BF3
AccurateRip v1 signature : 43F10DB3
AccurateRip v2 signature : 2BEEF740
->Track not present in AccurateRip database.
Statistics
Read error : 0
Jitter error (maybe fixed) : 0
Retry sector count : 0
Damaged sector count : 0

No errors occurred

End of status report

-----BEGIN XLD SIGNATURE-----
saxTRjl2cob4hgzeN6Hg3N_FsJ7kAQzyaOlclSu31AxTejKyvZNhgl2f2Kbk5Cmry543liwgVLZvMwzUbO7bkmmu5MHPVtFCxgOICcG
-----END XLD SIGNATURE-----
TITLE "Matangi" 
PERFORMER "M.I.A."
CATALOG 0602537558087
REM GENRE "Electronica"
REM DATE "2013"
REM DISCNUMBER 1
REM TOTALDISCS 1
REM DISCID C30D720F
REM REPLAYGAIN_ALBUM_GAIN -11.41 dB
REM REPLAYGAIN_ALBUM_PEAK 0.997131
FILE "01 Karmageddon.flac" WAVE
TRACK 01 AUDIO
TITLE "Karmageddon"
SONGWRITER "Dave Taylor/Sugu Arulpragasam/Martin "Doc" McKinney"
ISRC USUG11300646
REM REPLAYGAIN_TRACK_GAIN -6.70 dB
REM REPLAYGAIN_TRACK_PEAK 0.996185
INDEX 01 00:00:00
FILE "02 MATANGI.flac" WAVE
TRACK 02 AUDIO
TITLE "MATANGI"
SONGWRITER "Dave Taylor"
ISRC USUG11300647
REM REPLAYGAIN_TRACK_GAIN -11.86 dB
REM REPLAYGAIN_TRACK_PEAK 0.996185
INDEX 01 00:00:00
FILE "03 Only 1 U.flac" WAVE
TRACK 03 AUDIO
TITLE "Only 1 U"
SONGWRITER "Dave Taylor/Kyle Edwards"
ISRC USUG11300648
REM REPLAYGAIN_TRACK_GAIN -11.78 dB
REM REPLAYGAIN_TRACK_PEAK 0.996185
INDEX 01 00:00:00
FILE "04 Warriors.flac" WAVE
TRACK 04 AUDIO
TITLE "Warriors"
SONGWRITER "Hit-Boy"
ISRC USUG11300657
REM REPLAYGAIN_TRACK_GAIN -12.38 dB
REM REPLAYGAIN_TRACK_PEAK 0.996185
INDEX 01 00:00:00
FILE "05 Come Walk With Me.flac" WAVE
TRACK 05 AUDIO
TITLE "Come Walk With Me"
SONGWRITER "Dave Taylor"
ISRC USUG11300344
REM REPLAYGAIN_TRACK_GAIN -10.15 dB
REM REPLAYGAIN_TRACK_PEAK 0.996185
INDEX 01 00:00:00
FILE "06 aTENTion.flac" WAVE
TRACK 06 AUDIO
TITLE "aTENTion"
SONGWRITER "Dave Taylor"
ISRC USUG11300649
REM REPLAYGAIN_TRACK_GAIN -8.35 dB
REM REPLAYGAIN_TRACK_PEAK 0.942993
INDEX 01 00:00:00
FILE "07 Exodus.flac" WAVE
TRACK 07 AUDIO
TITLE "Exodus"
SONGWRITER "C. Montagnese/Tesfaye/M. MCKINNEY"
ISRC USUG11300650
REM REPLAYGAIN_TRACK_GAIN -11.19 dB
REM REPLAYGAIN_TRACK_PEAK 0.996185
INDEX 01 00:00:00
FILE "08 Bad Girls.flac" WAVE
TRACK 08 AUDIO
TITLE "Bad Girls"
SONGWRITER "M. Araica/Nate Hills"
ISRC USUG11200143
REM REPLAYGAIN_TRACK_GAIN -11.35 dB
REM REPLAYGAIN_TRACK_PEAK 0.996185
INDEX 01 00:00:00
FILE "09 Boom Skit.flac" WAVE
TRACK 09 AUDIO
TITLE "Boom Skit"
SONGWRITER "Hit-Boy"
ISRC USUG11300651
REM REPLAYGAIN_TRACK_GAIN -10.45 dB
REM REPLAYGAIN_TRACK_PEAK 0.996185
INDEX 01 00:00:00
FILE "10 Double Bubble Trouble.flac" WAVE
TRACK 10 AUDIO
TITLE "Double Bubble Trouble"
SONGWRITER "Martin "Doc" McKinney"
ISRC USUG11300652
REM REPLAYGAIN_TRACK_GAIN -12.54 dB
REM REPLAYGAIN_TRACK_PEAK 0.997131
INDEX 01 00:00:00
FILE "11 Y.A.L.A..flac" WAVE
TRACK 11 AUDIO
TITLE "Y.A.L.A."
SONGWRITER "Maya Arulpragasam"
ISRC USUG11300653
REM REPLAYGAIN_TRACK_GAIN -11.97 dB
REM REPLAYGAIN_TRACK_PEAK 0.996185
INDEX 01 00:00:00
FILE "12 Bring The Noize.flac" WAVE
TRACK 12 AUDIO
TITLE "Bring The Noize"
SONGWRITER "David Taylor/Hugues Rey/Jean-Baptiste De Laubier/Benoit Heitz"
ISRC USUG11300658
REM REPLAYGAIN_TRACK_GAIN -12.12 dB
REM REPLAYGAIN_TRACK_PEAK 0.996185
INDEX 01 00:00:00
FILE "13 Lights.flac" WAVE
TRACK 13 AUDIO
TITLE "Lights"
SONGWRITER "Sugu Arulpragasam/Rosalee Pfeffer"
ISRC USUG11300654
REM REPLAYGAIN_TRACK_GAIN -9.97 dB
REM REPLAYGAIN_TRACK_PEAK 0.996185
INDEX 01 00:00:00
FILE "14 Know It Ain't Right.flac" WAVE
TRACK 14 AUDIO
TITLE "Know It Ain't Right"
SONGWRITER "Martin "Doc" McKinney"
ISRC USUG11300655
REM REPLAYGAIN_TRACK_GAIN -8.49 dB
REM REPLAYGAIN_TRACK_PEAK 0.996185
INDEX 01 00:00:00
FILE "15 Sexodus.flac" WAVE
TRACK 15 AUDIO
TITLE "Sexodus"
SONGWRITER "Martin "Doc" McKinney/The Weeknd"
ISRC USUG11300656
REM REPLAYGAIN_TRACK_GAIN -9.34 dB
REM REPLAYGAIN_TRACK_PEAK 0.996185
INDEX 01 00:00:00
Родилась в Лондоне в семье тамильских активистов. Детство провела в Мадрасе и Джаффне. В 2001 г. провела первую выставку собственных графических работ на темы тамильского освободительного движения. Майя занимает активную социальную позицию и делает заявления по актуальным политическим вопросам.

В 2004 году синглы M.I.A. «Galang» и «Sunshowers», в которых перемешаны разнообразные влияния от традиционной индийской музыки до The Clash, приобрели популярность в Интернете. На волне успеха M.I.A. подписала контракт с лейблом XL и выпустила два альбома — Arular (2005) и Kala (2007), которые были тепло приняты критиками. Эти оба альбома были названы в честь её отца и матери.

Следующий сингл «Paper Planes» стал одной из наиболее популярных летних мелодий 2008 года в США. В национальном хит-параде продаж Billboard Hot 100 он достиг 4-го места. Тогда же в лучшей десятке отметился сингл «Swagga Like Us», на котором рэперы Jay-Z и T.I. просемплировали самый известный трек M.I.A.

В 2010 году M.I.A. выпускает свою третью пластинку Maya (стилизовано «///Y/») и два сингла «Born Free» и «XXXO». Клип на песню «Born Free» был официально запрещен администрацией интернет-канала Vevo, так как содержит сцены насилия, издевательства и убийства группы рыжеволосых подростков американскими военными.

31 декабря 2010 певица объявила, что собирается выпустить новый микстейп Vicki Leekx. Хотя до недавнего сообщения в твиттере M.I.A. и не было никакой информации о релизе, оказалось, что работа велась между гастролями, которые продолжались весь 2010-й год. Имя нового творения не случайно: это переделанное название скандально известного сайта WikiLeaks, на котором осуществляется публикация секретных государственных документов. Запись была загружена в Интернет для бесплатного скачивания, тем самым певица продолжила набирающую популярность тенденцию: все больше и больше музыкантов выпускают свою музыку в свободном доступе.

Певица представляла азиатскую континентальную музыку на молодёжном чемпионате мира по футболу 2011 года.

В 2012 году M.I.A. была приглашена как сопродюсер и исполнитель для записи двенадцатого альбома Мадонны MDNA. Вместе с Ники Минаж она стала соисполнителем первого сингла «Give Me All Your Luvin’», а также песни «B-day Song».
info [Профиль]  [ЛС] 
Показать сообщения:    
Ответить на тему

Текущее время: 21-Май 05:58

Часовой пояс: GMT + 4



Вы не можете начинать темы
Вы не можете отвечать на сообщения
Вы не можете редактировать свои сообщения
Вы не можете удалять свои сообщения
Вы не можете голосовать в опросах
Вы не можете прикреплять файлы к сообщениям
Вы не можете скачивать файлы