Ошибка

(Hip-Hop) Prodigy - H.N.I.C. 3 (Deluxe Edition) - 2012, FLAC (tracks+.cue), lossless

Ответить на тему
 
Автор Сообщение

Raxent

Пол: Пол:Муж

Стаж: 12 лет

Сообщений: 219

Рейтинг

post 07-Июл-2012 19:19 1[+]

[Цитировать] 


Prodigy
"H.N.I.C. 3 (Deluxe Edition)"
Жанр: Hip-Hop
Страна-производитель диска: USA
Год издания: 2012
Издатель (лейбл): Infamous Records
Страна: USA
Аудиокодек: FLAC (*.flac)
Тип рипа: tracks+.cue
Битрейт аудио: lossless
Продолжительность: 01:14:59
Источник (релизер): what.cd (Chesterchaz)
Наличие сканов в содержимом раздачи: нет

Треклист:
    01. Without Rhyme or Reason
    02. Slept On
    03. Pretty Thug
    04. My Angel (featuring Willie Taylor (of Day 26))
    05. Co-Pilot (featuring Wiz Khalifa)
    06. Live
    07. Make It Hot
    08. Get Money (featuring Boogz Boogetz)
    09. Life Is What You Make It
    10. Award Show Life
    11. Who You Bullshittin (featuring Havoc (of Mobb Deep))
    12. Skull & Bones
    13. Smack That Bitch (featuring Esther)
    14. Let Me Show You (featuring Vaughn Anthon)
    15. Gangsta Love (featuring Esther)
    16. What's Happening (featuring T.I.)

    Deluxe Edition Bonus Tracks:

    17. Hate To Love You
    18. Ms. Bad Ass
    19. G-Up
    20. Serve Em Em

 
Exact Audio Copy V1.0 beta 3 from 29. August 2011

EAC extraction logfile from 3. July 2012, 21:58

Prodigy / H.N.I.C. 3

Used drive : PLDS DVD+-RW DS-8A5SH Adapter: 1 ID: 0

Read mode : Secure
Utilize accurate stream : Yes
Defeat audio cache : Yes
Make use of C2 pointers : No

Read offset correction : 6
Overread into Lead-In and Lead-Out : No
Fill up missing offset samples with silence : Yes
Delete leading and trailing silent blocks : No
Null samples used in CRC calculations : Yes
Used interface : Native Win32 interface for Win NT & 2000
Gap handling : Appended to previous track

Used output format : User Defined Encoder
Selected bitrate : 32 kBit/s
Quality : High
Add ID3 tag : No
Command line compressor : C:\Program Files (x86)\FLAC\flac.exe
Additional command line options : -T "artist=%artist%" -T "title=%title%" -T "album=%albumtitle%" -T "date=%year%" -T "tracknumber=%tracknr%" -T "genre=%genre%" -8 --verify %source%

TOC of the extracted CD

Track | Start | Length | Start sector | End sector
---------------------------------------------------------
1 | 0:00.00 | 2:47.63 | 0 | 12587
2 | 2:47.63 | 3:02.45 | 12588 | 26282
3 | 5:50.33 | 4:10.46 | 26283 | 45078
4 | 10:01.04 | 3:58.43 | 45079 | 62971
5 | 13:59.47 | 4:30.12 | 62972 | 83233
6 | 18:29.59 | 4:26.37 | 83234 | 103220
7 | 22:56.21 | 4:11.12 | 103221 | 122057
8 | 27:07.33 | 5:24.35 | 122058 | 146392
9 | 32:31.68 | 2:21.02 | 146393 | 156969
10 | 34:52.70 | 3:35.55 | 156970 | 173149
11 | 38:28.50 | 3:51.51 | 173150 | 190525
12 | 42:20.26 | 3:06.32 | 190526 | 204507
13 | 45:26.58 | 5:50.22 | 204508 | 230779
14 | 51:17.05 | 4:48.42 | 230780 | 252421
15 | 56:05.47 | 4:26.67 | 252422 | 272438
16 | 60:32.39 | 4:07.46 | 272439 | 291009
17 | 64:40.10 | 3:17.08 | 291010 | 305792
18 | 67:57.18 | 2:02.10 | 305793 | 314952
19 | 69:59.28 | 2:43.44 | 314953 | 327221
20 | 72:42.72 | 2:25.44 | 327222 | 338140

Track 1

Filename G:\prodigy\201-Prodigy-Without_Rhyme_Or_Reason.wav

Pre-gap length 0:00:02.00

Peak level 99.8 %
Extraction speed 1.1 X
Track quality 100.0 %
Test CRC 75D8AAD0
Copy CRC 75D8AAD0
Track not present in AccurateRip database
Copy OK

Track 2

Filename G:\prodigy\202-Prodigy-Slept_On.wav

Peak level 99.8 %
Extraction speed 1.0 X
Track quality 99.9 %
Test CRC 1A16FABF
Copy CRC 1A16FABF
Track not present in AccurateRip database
Copy OK

Track 3

Filename G:\prodigy\203-Prodigy-Pretty_Thug.wav

Peak level 99.8 %
Extraction speed 1.4 X
Track quality 100.0 %
Test CRC 481A9705
Copy CRC 481A9705
Track not present in AccurateRip database
Copy OK

Track 4

Filename G:\prodigy\204-Prodigy-My_Angel_(Feat._Willie_Taylor).wav

Peak level 99.8 %
Extraction speed 1.5 X
Track quality 100.0 %
Test CRC D68CB7B5
Copy CRC D68CB7B5
Track not present in AccurateRip database
Copy OK

Track 5

Filename G:\prodigy\205-Prodigy-Co-Pilot_(Feat._Wiz_Khalifa).wav

Peak level 99.8 %
Extraction speed 1.6 X
Track quality 100.0 %
Test CRC 836D49F7
Copy CRC 836D49F7
Track not present in AccurateRip database
Copy OK

Track 6

Filename G:\prodigy\206-Prodigy-Live.wav

Peak level 99.8 %
Extraction speed 1.7 X
Track quality 100.0 %
Test CRC F37040DF
Copy CRC F37040DF
Track not present in AccurateRip database
Copy OK

Track 7

Filename G:\prodigy\207-Prodigy-Make_It_Hot.wav

Peak level 99.8 %
Extraction speed 1.8 X
Track quality 100.0 %
Test CRC 8162114E
Copy CRC 8162114E
Track not present in AccurateRip database
Copy OK

Track 8

Filename G:\prodigy\208-Prodigy-Get_Money_(Feat._Boogz_Boogetz).wav

Peak level 99.8 %
Extraction speed 1.9 X
Track quality 100.0 %
Test CRC A137656E
Copy CRC A137656E
Track not present in AccurateRip database
Copy OK

Track 9

Filename G:\prodigy\209-Prodigy-Life_Is_What_You_Make_It.wav

Peak level 99.8 %
Extraction speed 1.8 X
Track quality 100.0 %
Test CRC 00D997F9
Copy CRC 00D997F9
Track not present in AccurateRip database
Copy OK

Track 10

Filename G:\prodigy\210-Prodigy-Award_Show_Life.wav

Peak level 99.8 %
Extraction speed 2.0 X
Track quality 100.0 %
Test CRC 98FA7FC8
Copy CRC 98FA7FC8
Track not present in AccurateRip database
Copy OK

Track 11

Filename G:\prodigy\211-Prodigy-Who_You_Bullshittin_(Feat._Havoc).wav

Peak level 99.8 %
Extraction speed 2.1 X
Track quality 100.0 %
Test CRC FDBDA8C2
Copy CRC FDBDA8C2
Track not present in AccurateRip database
Copy OK

Track 12

Filename G:\prodigy\212-Prodigy-Skull_&_Bones.wav

Peak level 99.8 %
Extraction speed 2.0 X
Track quality 100.0 %
Test CRC 040FAFA1
Copy CRC 040FAFA1
Track not present in AccurateRip database
Copy OK

Track 13

Filename G:\prodigy\213-Prodigy-Smack_That_Bitch_(Feat._Esther).wav

Peak level 99.8 %
Extraction speed 2.3 X
Track quality 100.0 %
Test CRC 9467A38B
Copy CRC 9467A38B
Track not present in AccurateRip database
Copy OK

Track 14

Filename G:\prodigy\214-Prodigy-Let_Me_Show_You_(Feat._Vaughn_Anthony).wav

Peak level 99.8 %
Extraction speed 2.3 X
Track quality 100.0 %
Test CRC FA466544
Copy CRC FA466544
Track not present in AccurateRip database
Copy OK

Track 15

Filename G:\prodigy\215-Prodigy-Gangsta_Love_(Feat._Esther).wav

Peak level 99.8 %
Extraction speed 2.1 X
Track quality 99.9 %
Test CRC 504549CC
Copy CRC 504549CC
Track not present in AccurateRip database
Copy OK

Track 16

Filename G:\prodigy\216-Prodigy-What's_Happening_(Feat._T.I.).wav

Peak level 99.8 %
Extraction speed 2.4 X
Track quality 100.0 %
Test CRC 8E2DAA65
Copy CRC 8E2DAA65
Track not present in AccurateRip database
Copy OK

Track 17

Filename G:\prodigy\217-Prodigy-Hate_To_Love_You.wav

Peak level 99.8 %
Extraction speed 2.4 X
Track quality 100.0 %
Test CRC 390BB7E6
Copy CRC 390BB7E6
Track not present in AccurateRip database
Copy OK

Track 18

Filename G:\prodigy\218-Prodigy-Ms._Bad_Ass.wav

Peak level 99.8 %
Extraction speed 1.8 X
Track quality 99.9 %
Test CRC FFAF1432
Copy CRC FFAF1432
Track not present in AccurateRip database
Copy OK

Track 19

Filename G:\prodigy\219-Prodigy-G-Up.wav

Peak level 99.8 %
Extraction speed 2.4 X
Track quality 100.0 %
Test CRC AAD5B62B
Copy CRC AAD5B62B
Track not present in AccurateRip database
Copy OK

Track 20

Filename G:\prodigy\220-Prodigy-Serve_Em.wav

Peak level 99.8 %
Extraction speed 2.4 X
Track quality 100.0 %
Test CRC E0DE5604
Copy CRC E0DE5604
Track not present in AccurateRip database
Copy OK

None of the tracks are present in the AccurateRip database

No errors occurred

End of status report

==== Log checksum E29099E2A724792FBFC273706CB9EFE001196230148B7095EABCBDEEF3D299FD ====
 
REM GENRE Hip-Hop
REM DATE 2012
REM DISCID 1A119C14
REM COMMENT "Team PERFECT"
PERFORMER "Prodigy"
TITLE "H.N.I.C. 3"
FILE "01-prodigy-without_rhyme_or_reason.flac" WAVE
TRACK 01 AUDIO
TITLE "Without Rhyme Or Reason"
PERFORMER "Prodigy"
ISRC QMTRG1200043
INDEX 01 00:00:00
FILE "02-prodigy-slept_on.flac" WAVE
TRACK 02 AUDIO
TITLE "Slept On"
PERFORMER "Prodigy"
ISRC QMTRG1200044
INDEX 01 00:00:00
FILE "03-prodigy-pretty_thug.flac" WAVE
TRACK 03 AUDIO
TITLE "Pretty Thug"
PERFORMER "Prodigy"
ISRC QMTRG1200045
INDEX 01 00:00:00
FILE "04-prodigy-my_angel_(feat._willie_taylor).flac" WAVE
TRACK 04 AUDIO
TITLE "My Angel (Feat. Willie Taylor)"
PERFORMER "Prodigy"
ISRC QMTRG1200046
INDEX 01 00:00:00
FILE "05-prodigy-co-pilot_(feat._wiz_khalifa).flac" WAVE
TRACK 05 AUDIO
TITLE "Co-Pilot (Feat. Wiz Khalifa)"
PERFORMER "Prodigy"
ISRC QMTRG1200047
INDEX 01 00:00:00
FILE "06-prodigy-live.flac" WAVE
TRACK 06 AUDIO
TITLE "Live"
PERFORMER "Prodigy"
ISRC QMTRG1200048
INDEX 01 00:00:00
FILE "07-prodigy-make_it_hot.flac" WAVE
TRACK 07 AUDIO
TITLE "Make It Hot"
PERFORMER "Prodigy"
ISRC QMTRG1200049
INDEX 01 00:00:00
FILE "08-prodigy-get_money_(feat._boogz_boogetz).flac" WAVE
TRACK 08 AUDIO
TITLE "Get Money (Feat. Boogz Boogetz)"
PERFORMER "Prodigy"
ISRC QMTRG1200050
INDEX 01 00:00:00
FILE "09-prodigy-life_is_what_you_make_it.flac" WAVE
TRACK 09 AUDIO
TITLE "Life Is What You Make It"
PERFORMER "Prodigy"
ISRC QMTRG1200051
INDEX 01 00:00:00
FILE "10-prodigy-award_show_life.flac" WAVE
TRACK 10 AUDIO
TITLE "Award Show Life"
PERFORMER "Prodigy"
ISRC QMTRG1200052
INDEX 01 00:00:00
FILE "11-prodigy-who_you_bullshittin_(feat._havoc).flac" WAVE
TRACK 11 AUDIO
TITLE "Who You Bullshittin (Feat. Havoc)"
PERFORMER "Prodigy"
ISRC QMTRG1200053
INDEX 01 00:00:00
FILE "12-prodigy-skull_and_bones.flac" WAVE
TRACK 12 AUDIO
TITLE "Skull & Bones"
PERFORMER "Prodigy"
ISRC QMTRG1200054
INDEX 01 00:00:00
FILE "13-prodigy-smack_that_bitch_(feat._esther).flac" WAVE
TRACK 13 AUDIO
TITLE "Smack That Bitch (Feat. Esther)"
PERFORMER "Prodigy"
ISRC QMTRG1200061
INDEX 01 00:00:00
FILE "14-prodigy-let_me_show_you_(feat._vaughn_anthony).flac" WAVE
TRACK 14 AUDIO
TITLE "Let Me Show You (Feat. Vaughn Anthony)"
PERFORMER "Prodigy"
ISRC QMTRG1200057
INDEX 01 00:00:00
FILE "15-prodigy-gangsta_love_(feat._esther).flac" WAVE
TRACK 15 AUDIO
TITLE "Gangsta Love (Feat. Esther)"
PERFORMER "Prodigy"
ISRC QMTRG1200058
INDEX 01 00:00:00
FILE "16-prodigy-whats_happening_(feat._t.i.).flac" WAVE
TRACK 16 AUDIO
TITLE "What's Happening (Feat. T.I.)"
PERFORMER "Prodigy"
ISRC QMTRG1200059
INDEX 01 00:00:00
FILE "17-prodigy-hate_to_love_you.flac" WAVE
TRACK 17 AUDIO
TITLE "Hate To Love You"
PERFORMER "Prodigy"
ISRC QMTRG1200060
INDEX 01 00:00:00
FILE "18-prodigy-ms._bad_ass.flac" WAVE
TRACK 18 AUDIO
TITLE "Ms. Bad Ass"
PERFORMER "Prodigy"
ISRC QMTRG1200056
INDEX 01 00:00:00
FILE "19-prodigy-g-up.flac" WAVE
TRACK 19 AUDIO
TITLE "G-Up"
PERFORMER "Prodigy"
ISRC QMTRG1200062
INDEX 01 00:00:00
FILE "20-prodigy-serve_em.flac" WAVE
TRACK 20 AUDIO
TITLE "Serve Em"
PERFORMER "Prodigy"
ISRC QMTRG1200063
INDEX 01 00:00:00

info [Профиль]  [ЛС] 

post 07-Июл-2012 19:19 (спустя 32 секунды) [-]0[+]

Топик был перенесен из форума Оформление раздач в форум Зарубежный Rap, Hip-Hop, R'n'B (lossless)

saGambit
 

Raxent

Пол: Пол:Муж

Стаж: 12 лет

Сообщений: 219

Рейтинг

post 07-Июл-2012 19:21 (спустя 2 минуты) [-]0[+]

[Цитировать] 

info [Профиль]  [ЛС] 

lbvf

Пол: Пол:Муж

Стаж: 11 лет

Сообщений: 154

Россия
Рейтинг

post 08-Июл-2012 13:50 (спустя 18 часов) [-]-2[+]

[Цитировать] 

продиджи? хип-хоп?

_________________
i want to believe
info [Профиль]  [ЛС] 

Raxent

Пол: Пол:Муж

Стаж: 12 лет

Сообщений: 219

Рейтинг

post 09-Июл-2012 21:34 (спустя 1 день 7 часов) [-]0[+]

[Цитировать] 

lbvf
это участник группы моб дип
info [Профиль]  [ЛС] 

foxirk

Пол: Пол:Муж

Стаж: 11 лет

Сообщений: 197

Россия
Рейтинг

post 27-Мар-2013 18:49 (спустя 8 месяцев 17 дней) [-]-1[+]

[Цитировать] 

А ведь качает!) Особенно get money
info [Профиль]  [ЛС] 

An0nym0us

Пол: Пол:Муж

Стаж: 12 лет

Сообщений: 514

Предупреждений: 2

Рейтинг

post 23-Окт-2013 01:58 (спустя 6 месяцев 26 дней) [-]-3[+]

[Цитировать] 

del
info [Профиль]  [ЛС] 
Показать сообщения:    
Ответить на тему

Текущее время: 26-Май 22:09

Часовой пояс: GMT + 4



Вы не можете начинать темы
Вы не можете отвечать на сообщения
Вы не можете редактировать свои сообщения
Вы не можете удалять свои сообщения
Вы не можете голосовать в опросах
Вы не можете прикреплять файлы к сообщениям
Вы не можете скачивать файлы