Ошибка

(Rap) 2Pac - Greatest Hits - 1998, FLAC (tracks+.cue), lossless

Ответить на тему
 
Автор Сообщение

Жура

Пол: Пол:Муж

Стаж: 13 лет

Сообщений: 143

Предупреждений: 1

Россия
Рейтинг

post 14-Июн-2012 23:30 0[+]

[Цитировать] 

2Pac - Greatest Hits


pic="http://images.amazon.com/images/P/B00000FCBH.01.L.jpg"


Жанр: Rap
Год издания данного носителя: 1998
Страна-производитель носителя: US
Лейбл: Interscope Records
Каталоговый номер: INTD2-90307
Аудио кодек: FLAC
Тип рипа: tracks+.cue
Битрейт аудио: lossless
Продолжительность: 54:19; 59:21
Полиграфия: Отсутствует
Треклист:
CD 1
1. Keep Ya Head Up
2. 2 of Amerikaz Most Wanted
3. Temptations
4. God Bless the Dead
5. Hail Mary
6. Me Against the World
7. How Do U Want It
8. So Many Tears
9. Unconditional Love
10. Trapped
11. Life Goes On
12. Hit `Em Up

CD 2
1. Troublesome `96
2. Brenda's Got A Baby
3. I Ain't Mad At Cha
4. I Get Around
5. Changes
6. California Love (Original Version)
7. Picture Me Rollin'
8. How Long Will They Mourn Me?
9. Toss It Up
10. Dear Mama
11. All About U
12. To Live & Die in L.A.
13. Heartz of Men
 
Exact Audio Copy V1.0 beta 1 from 15. November 2010

EAC extraction logfile from 26. December 2010, 18:15

2Pac / Greatest Hits - Disc 1

Used drive : HL-DT-STDVD+-RW GSA-T11N Adapter: 2 ID: 0

Read mode : Secure
Utilize accurate stream : Yes
Defeat audio cache : Yes
Make use of C2 pointers : No

Read offset correction : 667
Overread into Lead-In and Lead-Out : No
Fill up missing offset samples with silence : Yes
Delete leading and trailing silent blocks : No
Null samples used in CRC calculations : Yes
Used interface : Native Win32 interface for Win NT & 2000
Gap handling : Appended to previous track

Used output format : User Defined Encoder
Selected bitrate : 896 kBit/s
Quality : High
Add ID3 tag : No
Command line compressor : C:Program FilesExact Audio CopyFlacflac.exe
Additional command line options : -V -8 -T "artist=%a" -T "title=%t" -T "album=%g" -T "date=%y" -T "tracknumber=%n" -T "genre=%m" %s

TOC of the extracted CD

Track | Start | Length | Start sector | End sector
---------------------------------------------------------
1 | 0:00.00 | 4:24.65 | 0 | 19864
2 | 4:24.65 | 4:15.52 | 19865 | 39041
3 | 8:40.42 | 4:29.43 | 39042 | 59259
4 | 13:10.10 | 4:25.10 | 59260 | 79144
5 | 17:35.20 | 5:15.07 | 79145 | 102776
6 | 22:50.27 | 4:39.28 | 102777 | 123729
7 | 27:29.55 | 4:00.22 | 123730 | 141751
8 | 31:30.02 | 3:58.53 | 141752 | 159654
9 | 35:28.55 | 3:59.37 | 159655 | 177616
10 | 39:28.17 | 4:46.03 | 177617 | 199069
11 | 44:14.20 | 5:01.27 | 199070 | 221671
12 | 49:15.47 | 5:03.43 | 221672 | 244439

Track 1

Filename C:UsersDownloads2Pac - Greatest Hits (Clean) (FLAC)Disc 1�1 - 2Pac - Keep Ya Head Up.wav

Pre-gap length 0:00:02.00

Peak level 100.0 %
Extraction speed 1.9 X
Track quality 100.0 %
Test CRC FCD78C3A
Copy CRC FCD78C3A
Accurately ripped (confidence 3) [E1340455]
Copy OK

Track 2

Filename C:UsersDownloads2Pac - Greatest Hits (Clean) (FLAC)Disc 1�2 - 2Pac - 2 of Amerikaz Most Wanted.wav

Pre-gap length 0:00:01.66

Peak level 100.0 %
Extraction speed 1.7 X
Track quality 99.9 %
Test CRC 2F87AB2E
Copy CRC 2F87AB2E
Accurately ripped (confidence 4) [7F6A733E]
Copy OK

Track 3

Filename C:UsersDownloads2Pac - Greatest Hits (Clean) (FLAC)Disc 1�3 - 2Pac - Temptations.wav

Pre-gap length 0:00:01.22

Peak level 100.0 %
Extraction speed 2.4 X
Track quality 100.0 %
Test CRC 48F6D212
Copy CRC 48F6D212
Accurately ripped (confidence 3) [D58C8E81]
Copy OK

Track 4

Filename C:UsersDownloads2Pac - Greatest Hits (Clean) (FLAC)Disc 1�4 - 2Pac - God Bless the Dead.wav

Pre-gap length 0:00:01.24

Peak level 100.0 %
Extraction speed 2.7 X
Track quality 100.0 %
Test CRC 694B7C04
Copy CRC 694B7C04
Accurately ripped (confidence 3) [5347D512]
Copy OK

Track 5

Filename C:UsersDownloads2Pac - Greatest Hits (Clean) (FLAC)Disc 1�5 - 2Pac - Hail Mary.wav

Pre-gap length 0:00:00.97

Peak level 100.0 %
Extraction speed 2.3 X
Track quality 99.9 %
Test CRC A86E3C90
Copy CRC A86E3C90
Accurately ripped (confidence 3) [FF4D8AE7]
Copy OK

Track 6

Filename C:UsersDownloads2Pac - Greatest Hits (Clean) (FLAC)Disc 1�6 - 2Pac - Me Against the World.wav

Pre-gap length 0:00:01.53

Peak level 100.0 %
Extraction speed 3.1 X
Track quality 100.0 %
Test CRC 8AFA4E31
Copy CRC 8AFA4E31
Accurately ripped (confidence 3) [C6430A10]
Copy OK

Track 7

Filename C:UsersDownloads2Pac - Greatest Hits (Clean) (FLAC)Disc 1�7 - 2Pac - How Do You Want It.wav

Pre-gap length 0:00:01.04

Peak level 100.0 %
Extraction speed 3.2 X
Track quality 100.0 %
Test CRC F58E5BCB
Copy CRC F58E5BCB
Accurately ripped (confidence 3) [D6F1AD25]
Copy OK

Track 8

Filename C:UsersDownloads2Pac - Greatest Hits (Clean) (FLAC)Disc 1�8 - 2Pac - So Many Tears.wav

Pre-gap length 0:00:01.13

Peak level 100.0 %
Extraction speed 3.3 X
Track quality 100.0 %
Test CRC 107B3706
Copy CRC 107B3706
Accurately ripped (confidence 2) [BCAD8F61]
Copy OK

Track 9

Filename C:UsersDownloads2Pac - Greatest Hits (Clean) (FLAC)Disc 1�9 - 2Pac - Unconditional Love.wav

Pre-gap length 0:00:01.18

Peak level 100.0 %
Extraction speed 3.5 X
Track quality 100.0 %
Test CRC ABFFF080
Copy CRC ABFFF080
Accurately ripped (confidence 2) [4446E0DC]
Copy OK

Track 10

Filename C:UsersDownloads2Pac - Greatest Hits (Clean) (FLAC)Disc 110 - 2Pac - Trapped.wav

Pre-gap length 0:00:01.20

Peak level 100.0 %
Extraction speed 3.8 X
Track quality 100.0 %
Test CRC 485F593E
Copy CRC 485F593E
Accurately ripped (confidence 2) [90A774C8]
Copy OK

Track 11

Filename C:UsersDownloads2Pac - Greatest Hits (Clean) (FLAC)Disc 111 - 2Pac - Life Goes On.wav

Pre-gap length 0:00:01.33

Peak level 100.0 %
Extraction speed 3.9 X
Track quality 100.0 %
Test CRC 476A8F16
Copy CRC 476A8F16
Accurately ripped (confidence 2) [75D9D039]
Copy OK

Track 12

Filename C:UsersDownloads2Pac - Greatest Hits (Clean) (FLAC)Disc 112 - 2Pac - Hit 'Em Up.wav

Pre-gap length 0:00:00.69

Peak level 100.0 %
Extraction speed 4.1 X
Track quality 100.0 %
Test CRC E99C1120
Copy CRC E99C1120
Accurately ripped (confidence 2) [8A6EF8FA]
Copy OK

All tracks accurately ripped

No errors occurred

End of status report
 
Exact Audio Copy V1.0 beta 1 from 15. November 2010

EAC extraction logfile from 26. December 2010, 23:59

2 Pac / Greatest Hits - Disc 2

Used drive : HL-DT-STDVD+-RW GSA-T11N Adapter: 2 ID: 0

Read mode : Secure
Utilize accurate stream : Yes
Defeat audio cache : Yes
Make use of C2 pointers : No

Read offset correction : 667
Overread into Lead-In and Lead-Out : No
Fill up missing offset samples with silence : Yes
Delete leading and trailing silent blocks : No
Null samples used in CRC calculations : Yes
Used interface : Native Win32 interface for Win NT & 2000
Gap handling : Appended to previous track

Used output format : User Defined Encoder
Selected bitrate : 896 kBit/s
Quality : High
Add ID3 tag : No
Command line compressor : C:Program FilesExact Audio CopyFlacflac.exe
Additional command line options : -V -8 -T "artist=%a" -T "title=%t" -T "album=%g" -T "date=%y" -T "tracknumber=%n" -T "genre=%m" %s

TOC of the extracted CD

Track | Start | Length | Start sector | End sector
---------------------------------------------------------
1 | 0:00.00 | 4:37.00 | 0 | 20774
2 | 4:37.00 | 3:54.42 | 20775 | 38366
3 | 8:31.42 | 4:56.70 | 38367 | 60636
4 | 13:28.37 | 4:18.15 | 60637 | 80001
5 | 17:46.52 | 4:28.58 | 80002 | 100159
6 | 22:15.35 | 4:46.02 | 100160 | 121611
7 | 27:01.37 | 5:16.35 | 121612 | 145346
8 | 32:17.72 | 3:52.03 | 145347 | 162749
9 | 36:10.00 | 4:43.00 | 162750 | 183974
10 | 40:53.00 | 4:39.12 | 183975 | 204911
11 | 45:32.12 | 4:33.68 | 204912 | 225454
12 | 50:06.05 | 4:33.55 | 225455 | 245984
13 | 54:39.60 | 4:41.12 | 245985 | 267071

Track 1

Filename C:UsersDownloads2Pac - Greatest Hits (Clean) (FLAC)Disc 2�1 - 2Pac - Troublesome '96.wav

Pre-gap length 0:00:02.00

Peak level 100.0 %
Extraction speed 1.3 X
Track quality 99.9 %
Test CRC F7B15E1B
Copy CRC F7B15E1B
Accurately ripped (confidence 3) [3E9F8177]
Copy OK

Track 2

Filename C:UsersDownloads2Pac - Greatest Hits (Clean) (FLAC)Disc 2�2 - 2Pac - Brenda's Got a Baby.wav

Pre-gap length 0:00:00.20

Peak level 100.0 %
Extraction speed 2.2 X
Track quality 100.0 %
Test CRC 6F94D8AC
Copy CRC 6F94D8AC
Accurately ripped (confidence 3) [C0F79FA9]
Copy OK

Track 3

Filename C:UsersDownloads2Pac - Greatest Hits (Clean) (FLAC)Disc 2�3 - 2Pac - I Ain't Mad At Cha.wav

Pre-gap length 0:00:01.00

Peak level 100.0 %
Extraction speed 2.5 X
Track quality 100.0 %
Test CRC D894277C
Copy CRC D894277C
Accurately ripped (confidence 3) [0B37B037]
Copy OK

Track 4

Filename C:UsersDownloads2Pac - Greatest Hits (Clean) (FLAC)Disc 2�4 - 2Pac - I Get Around.wav

Pre-gap length 0:00:01.13

Peak level 100.0 %
Extraction speed 2.7 X
Track quality 100.0 %
Test CRC A8925428
Copy CRC A8925428
Accurately ripped (confidence 3) [05CF37A0]
Copy OK

Track 5

Filename C:UsersDownloads2Pac - Greatest Hits (Clean) (FLAC)Disc 2�5 - 2Pac - Changes.wav

Pre-gap length 0:00:00.66

Peak level 100.0 %
Extraction speed 2.9 X
Track quality 100.0 %
Test CRC A403A20C
Copy CRC A403A20C
Accurately ripped (confidence 3) [433F60DC]
Copy OK

Track 6

Filename C:UsersDownloads2Pac - Greatest Hits (Clean) (FLAC)Disc 2�6 - 2Pac - California Love (Original Version).wav

Peak level 100.0 %
Extraction speed 3.1 X
Track quality 100.0 %
Test CRC FAA86189
Copy CRC FAA86189
Accurately ripped (confidence 3) [694D2FFC]
Copy OK

Track 7

Filename C:UsersDownloads2Pac - Greatest Hits (Clean) (FLAC)Disc 2�7 - 2Pac - Picture Me Rollin'.wav

Pre-gap length 0:00:01.00

Peak level 100.0 %
Extraction speed 2.7 X
Track quality 99.9 %
Test CRC A711EC20
Copy CRC A711EC20
Accurately ripped (confidence 3) [85EF4534]
Copy OK

Track 8

Filename C:UsersDownloads2Pac - Greatest Hits (Clean) (FLAC)Disc 2�8 - 2Pac - How Long Will They Mourn Me.wav

Pre-gap length 0:00:01.42

Peak level 100.0 %
Extraction speed 3.3 X
Track quality 100.0 %
Test CRC 6F7F662D
Copy CRC 6F7F662D
Accurately ripped (confidence 3) [E737427C]
Copy OK

Track 9

Filename C:UsersDownloads2Pac - Greatest Hits (Clean) (FLAC)Disc 2�9 - 2Pac - Toss It Up.wav

Pre-gap length 0:00:00.57

Peak level 100.0 %
Extraction speed 3.6 X
Track quality 100.0 %
Test CRC 2C6881AA
Copy CRC 2C6881AA
Accurately ripped (confidence 3) [74B0F358]
Copy OK

Track 10

Filename C:UsersDownloads2Pac - Greatest Hits (Clean) (FLAC)Disc 210 - 2Pac - Dear Momma.wav

Pre-gap length 0:00:00.90

Peak level 100.0 %
Extraction speed 3.7 X
Track quality 100.0 %
Test CRC 01D3F343
Copy CRC 01D3F343
Accurately ripped (confidence 3) [3CC168E3]
Copy OK

Track 11

Filename C:UsersDownloads2Pac - Greatest Hits (Clean) (FLAC)Disc 211 - 2Pac - All About You.wav

Pre-gap length 0:00:00.73

Peak level 100.0 %
Extraction speed 3.8 X
Track quality 100.0 %
Test CRC 56EC9591
Copy CRC 56EC9591
Accurately ripped (confidence 3) [5C660368]
Copy OK

Track 12

Filename C:UsersDownloads2Pac - Greatest Hits (Clean) (FLAC)Disc 212 - 2Pac - To Live & Die In L.A..wav

Pre-gap length 0:00:00.70

Peak level 100.0 %
Extraction speed 4.0 X
Track quality 100.0 %
Test CRC 538316ED
Copy CRC 538316ED
Accurately ripped (confidence 3) [A8E13F95]
Copy OK

Track 13

Filename C:UsersDownloads2Pac - Greatest Hits (Clean) (FLAC)Disc 213 - 2Pac - Heartz of Men.wav

Pre-gap length 0:00:00.80

Peak level 100.0 %
Extraction speed 4.2 X
Track quality 100.0 %
Test CRC 946D85F9
Copy CRC 946D85F9
Accurately ripped (confidence 3) [E7985A57]
Copy OK

All tracks accurately ripped

No errors occurred

End of status report
 
REM GENRE Rap
REM DATE 1998
REM DISCID A20CBB0C
REM COMMENT "ExactAudioCopy v1.0b1"
FILE "01 - 2Pac - Keep Ya Head Up.wav" WAVE
TRACK 01 AUDIO
INDEX 01 00:00:00
TRACK 02 AUDIO
INDEX 00 04:23:15
FILE "02 - 2Pac - 2 of Amerikaz Most Wanted.wav" WAVE
INDEX 01 00:00:00
TRACK 03 AUDIO
INDEX 00 04:14:35
FILE "03 - 2Pac - Temptations.wav" WAVE
INDEX 01 00:00:00
TRACK 04 AUDIO
INDEX 00 04:28:25
FILE "04 - 2Pac - God Bless the Dead.wav" WAVE
INDEX 01 00:00:00
TRACK 05 AUDIO
INDEX 00 04:24:12
FILE "05 - 2Pac - Hail Mary.wav" WAVE
INDEX 01 00:00:00
TRACK 06 AUDIO
INDEX 00 05:13:42
FILE "06 - 2Pac - Me Against the World.wav" WAVE
INDEX 01 00:00:00
TRACK 07 AUDIO
INDEX 00 04:38:25
FILE "07 - 2Pac - How Do You Want It.wav" WAVE
INDEX 01 00:00:00
TRACK 08 AUDIO
INDEX 00 03:59:12
FILE "08 - 2Pac - So Many Tears.wav" WAVE
INDEX 01 00:00:00
TRACK 09 AUDIO
INDEX 00 03:57:39
FILE "09 - 2Pac - Unconditional Love.wav" WAVE
INDEX 01 00:00:00
TRACK 10 AUDIO
INDEX 00 03:58:22
FILE "10 - 2Pac - Trapped.wav" WAVE
INDEX 01 00:00:00
TRACK 11 AUDIO
INDEX 00 04:44:53
FILE "11 - 2Pac - Life Goes On.wav" WAVE
INDEX 01 00:00:00
TRACK 12 AUDIO
INDEX 00 05:00:50
FILE "12 - 2Pac - Hit 'Em Up.wav" WAVE
INDEX 01 00:00:00
 
REM GENRE Rap
REM DATE 1998
REM DISCID AA0DE80D
REM COMMENT "ExactAudioCopy v1.0b1"
FILE "01 - 2 Pac - Troublesome '96.wav" WAVE
TRACK 01 AUDIO
INDEX 01 00:00:00
TRACK 02 AUDIO
INDEX 00 04:36:60
FILE "02 - 2 Pac - Brenda's Got a Baby.wav" WAVE
INDEX 01 00:00:00
TRACK 03 AUDIO
INDEX 00 03:53:42
FILE "03 - 2 Pac - I Ain't Mad At Cha.wav" WAVE
INDEX 01 00:00:00
TRACK 04 AUDIO
INDEX 00 04:55:60
FILE "04 - 2 Pac - I Get Around.wav" WAVE
INDEX 01 00:00:00
TRACK 05 AUDIO
INDEX 00 04:17:40
FILE "05 - 2 Pac - Changes.wav" WAVE
INDEX 01 00:00:00
FILE "06 - 2 Pac - California Love (Original Version).wav" WAVE
TRACK 06 AUDIO
INDEX 01 00:00:00
TRACK 07 AUDIO
INDEX 00 04:45:02
FILE "07 - 2 Pac - Picture Me Rollin'.wav" WAVE
INDEX 01 00:00:00
TRACK 08 AUDIO
INDEX 00 05:15:03
FILE "08 - 2 Pac - How Long Will They Mourn Me.wav" WAVE
INDEX 01 00:00:00
TRACK 09 AUDIO
INDEX 00 03:51:35
FILE "09 - 2 Pac - Toss It Up.wav" WAVE
INDEX 01 00:00:00
TRACK 10 AUDIO
INDEX 00 04:42:07
FILE "10 - 2 Pac - Dear Momma.wav" WAVE
INDEX 01 00:00:00
TRACK 11 AUDIO
INDEX 00 04:38:32
FILE "11 - 2 Pac - All About You.wav" WAVE
INDEX 01 00:00:00
TRACK 12 AUDIO
INDEX 00 04:33:15
FILE "12 - 2 Pac - To Live & Die In L.A..wav" WAVE
INDEX 01 00:00:00
TRACK 13 AUDIO
INDEX 00 04:32:70
FILE "13 - 2 Pac - Heartz of Men.wav" WAVE
INDEX 01 00:00:00
info [Профиль]  [ЛС] 

Shamik

Пол: Пол:Муж

Стаж: 13 лет

Сообщений: 486

Кокосовые острова
Рейтинг

post 15-Июн-2012 21:09 (спустя 21 час) [-]1[+]

[Цитировать] 

Перезалейте торрент файл, пожалуйста

_________________
info [Профиль]  [ЛС] 

essence

Пол: Пол:Муж

Стаж: 10 лет

Сообщений: 114

Россия
Рейтинг

post 15-Июн-2012 22:47 (спустя 1 час 38 минут) [-]-6[+]

[Цитировать] 

Nigga nigga nigga nigga nigga , I'm 100% nigga )
info [Профиль]  [ЛС] 

Seatroll

Пол: Пол:Муж

Стаж: 12 лет

Сообщений: 531

Предупреждений: 1

Тёркс и Кайкос
Рейтинг

post 16-Июн-2012 07:42 (спустя 8 часов) [-]1[+]

[Цитировать] 

Yeah, mothafucka!

Nigga nigga nigga nigga nigga nigga nigga, why do you call yourself nigga?

Nigga nigga nigga nigga nigga nigga nigga, cuz i'm the mothafucking nigga!
info [Профиль]  [ЛС] 

Zverokrys

Пол: Пол:Муж

Стаж: 12 лет

Сообщений: 97

Предупреждений: 3

Россия
Рейтинг

post 16-Июн-2012 08:50 (спустя 1 час 7 минут) [-]-2[+]

[Цитировать] 

Он что умер?! O_0
info [Профиль]  [ЛС] 

reddjfrazon

Пол: Пол:Муж

Стаж: 10 лет

Сообщений: 34

Россия
Рейтинг

post 16-Июн-2012 08:59 (спустя 9 минут) [-]0[+]

[Цитировать] 

Zverokrys писал(а):

Он что умер?! O_0
К сожалению да(( Умер от огнестрельных ранений kolob_102, полученных при нападении на его автомобиль неизветных(скорее всего наёмных убийц)

_________________
Саня
info [Профиль]  [ЛС] 

HighTwisted

Пол: Пол:Муж

Стаж: 11 лет

Сообщений: 147

Россия
Рейтинг

post 31-Мар-2013 14:22 (спустя 9 месяцев 15 дней) [-]1[+]

[Цитировать] 

Zverokrys
reddjfrazon

2Pac жив, ребят! Поверьте!

_________________
info [Профиль]  [ЛС] 
Показать сообщения:    
Ответить на тему

Текущее время: 23-Май 05:29

Часовой пояс: GMT + 4



Вы не можете начинать темы
Вы не можете отвечать на сообщения
Вы не можете редактировать свои сообщения
Вы не можете удалять свои сообщения
Вы не можете голосовать в опросах
Вы не можете прикреплять файлы к сообщениям
Вы не можете скачивать файлы