Ошибка

(Score) Crysis 2 - 2011, FLAC (tracks+.cue)+covers, lossless

Ответить на тему
 
Автор Сообщение

Rock Star

Пол: Пол:Муж

Стаж: 10 лет

Сообщений: 780

Рейтинг

post 11-Дек-2011 14:36 0[+]

[Цитировать] 

pic="http://s002.youpic.su/pictures/1323464400/b581fed20c9958d7617edbcc2e41381c.jpg"

Жанр: Score Происхождение композиторов: GE|BU|SC| Год издания данного носителя: 2011 Страна-производитель носителя: US Тип релиза: tracks+.cue Аудио кодек: flac Битрейт аудио: lossless Общая продолжительность: 0:49:25.12 Полиграфия: присутствует Лейбл: La-La Land Records Каталоговый номер: LLLCD 1171

01. Hans Zimmer and Lorne Balfe - Crysis 2 - Intro
02. Hans Zimmer and Lorne Balfe - Insertion
03. Borislav Slavov - Battery Park
04. Borislav Slavov - New York - Aftermath
05. Tilman Sillescu - No Escape
06. Tilman Sillescu - Close Encounter
07. Borislav Slavov - SOS New York
08. Borislav Slavov - Chase
09. Tilman Sillescu - Under Assault
10. Borislav Slavov - Crynet - Shoot Him Down!
11. Borislav Slavov - Sneak and Shoot
12. Borislav Slavov - Gate Keepers
13. Tilman Sillescu - Rampage
14. Borislav Slavov - Nanosuit 2 - Crynet Systems
15. Borislav Slavov - Rising Spear
16. Tilman Sillescu - Dead Man Walking
17. Borislav Slavov - Contamination
18. Tilman Sillescu - Sinister Breed
19. Tilman Sillescu - Dystopian Nightmares
20. Tilman Sillescu - Catastrophic Beauty
21. Tilman Sillescu - Semper Fi

Код:

Exact Audio Copy V0.99 prebeta 5 from 4. May 2009

EAC extraction logfile from 6. May 2011, 13:30

Various / Crysis 2 Original Videogame Soundtrack (CD1)

Used drive  : PIONEER DVD-RW  DVR-216D   Adapter: 3  ID: 0

Read mode               : Secure
Utilize accurate stream : Yes
Defeat audio cache      : Yes
Make use of C2 pointers : No

Read offset correction                      : 96
Overread into Lead-In and Lead-Out          : No
Fill up missing offset samples with silence : Yes
Delete leading and trailing silent blocks   : No
Null samples used in CRC calculations       : Yes
Used interface                              : Native Win32 interface for Win NT & 2000
Gap handling                                : Appended to previous track

Used output format              : User Defined Encoder
Selected bitrate                : 1024 kBit/s
Quality                         : High
Add ID3 tag                     : No
Command line compressor         : C:\Program Files\Exact Audio Copy\Flac\flac.exe
Additional command line options : -8 -V -T "ARTIST=%a" -T "TITLE=%t" -T "ALBUM=%g" -T "DATE=%y" -T "TRACKNUMBER=%n" -T "GENRE=%m" -T "COMMENT=EAC FLAC -8" %s

TOC of the extracted CD

     Track |   Start  |  Length  | Start sector | End sector
    ---------------------------------------------------------
        1  |  0:00.00 |  3:10.53 |         0    |    14302
        2  |  3:10.53 |  3:29.58 |     14303    |    30035
        3  |  6:40.36 |  3:25.21 |     30036    |    45431
        4  | 10:05.57 |  2:45.53 |     45432    |    57859
        5  | 12:51.35 |  2:31.38 |     57860    |    69222
        6  | 15:22.73 |  2:01.69 |     69223    |    78366
        7  | 17:24.67 |  2:07.23 |     78367    |    87914
        8  | 19:32.15 |  2:28.38 |     87915    |    99052
        9  | 22:00.53 |  2:02.35 |     99053    |   108237
       10  | 24:03.13 |  2:09.05 |    108238    |   117917
       11  | 26:12.18 |  3:36.01 |    117918    |   134118
       12  | 29:48.19 |  2:21.29 |    134119    |   144722
       13  | 32:09.48 |  1:56.00 |    144723    |   153422
       14  | 34:05.48 |  1:19.07 |    153423    |   159354
       15  | 35:24.55 |  1:13.70 |    159355    |   164899
       16  | 36:38.50 |  2:06.42 |    164900    |   174391
       17  | 38:45.17 |  2:26.21 |    174392    |   185362
       18  | 41:11.38 |  2:04.03 |    185363    |   194665
       19  | 43:15.41 |  2:08.03 |    194666    |   204268
       20  | 45:23.44 |  2:03.56 |    204269    |   213549
       21  | 47:27.25 |  1:57.62 |    213550    |   222386

Track  1

     Filename E:\Crysis 2 Original Videogame Soundtrack (LLLCD 1171)\CD1\01. Hans Zimmer and Lorne Balfe – Crysis 2 - Intro.wav

     Pre-gap length  0:00:02.00

     Peak level 99.9 %
     Track quality 100.0 %
     Test CRC B27D6072
     Copy CRC B27D6072
     Track not present in AccurateRip database
     Copy OK

Track  2

     Filename E:\Crysis 2 Original Videogame Soundtrack (LLLCD 1171)\CD1\02. Hans Zimmer and Lorne Balfe – Insertion.wav

     Pre-gap length  0:00:02.00

     Peak level 94.7 %
     Track quality 100.0 %
     Test CRC 727D72F7
     Copy CRC 727D72F7
     Track not present in AccurateRip database
     Copy OK

Track  3

     Filename E:\Crysis 2 Original Videogame Soundtrack (LLLCD 1171)\CD1\03. Borislav Slavov – Battery Park.wav

     Pre-gap length  0:00:02.00

     Peak level 99.9 %
     Track quality 100.0 %
     Test CRC 58B4478E
     Copy CRC 58B4478E
     Track not present in AccurateRip database
     Copy OK

Track  4

     Filename E:\Crysis 2 Original Videogame Soundtrack (LLLCD 1171)\CD1\04. Borislav Slavov – New York - Aftermath.wav

     Pre-gap length  0:00:02.00

     Peak level 99.9 %
     Track quality 99.9 %
     Test CRC 8FD8D371
     Copy CRC 8FD8D371
     Track not present in AccurateRip database
     Copy OK

Track  5

     Filename E:\Crysis 2 Original Videogame Soundtrack (LLLCD 1171)\CD1\05. Tilman Sillescu – No Escape.wav

     Pre-gap length  0:00:02.00

     Peak level 99.3 %
     Track quality 100.0 %
     Test CRC E7E2799C
     Copy CRC E7E2799C
     Track not present in AccurateRip database
     Copy OK

Track  6

     Filename E:\Crysis 2 Original Videogame Soundtrack (LLLCD 1171)\CD1\06. Tilman Sillescu – Close Encounter.wav

     Pre-gap length  0:00:02.00

     Peak level 96.9 %
     Track quality 100.0 %
     Test CRC E1A1840F
     Copy CRC E1A1840F
     Track not present in AccurateRip database
     Copy OK

Track  7

     Filename E:\Crysis 2 Original Videogame Soundtrack (LLLCD 1171)\CD1\07. Borislav Slavov – SOS New York.wav

     Pre-gap length  0:00:02.00

     Peak level 99.8 %
     Track quality 100.0 %
     Test CRC 9A7C91AC
     Copy CRC 9A7C91AC
     Track not present in AccurateRip database
     Copy OK

Track  8

     Filename E:\Crysis 2 Original Videogame Soundtrack (LLLCD 1171)\CD1\08. Borislav Slavov – Chase.wav

     Pre-gap length  0:00:02.00

     Peak level 99.8 %
     Track quality 100.0 %
     Test CRC 884E5F3D
     Copy CRC 884E5F3D
     Track not present in AccurateRip database
     Copy OK

Track  9

     Filename E:\Crysis 2 Original Videogame Soundtrack (LLLCD 1171)\CD1\09. Tilman Sillescu – Under Assault.wav

     Pre-gap length  0:00:02.00

     Peak level 93.7 %
     Track quality 100.0 %
     Test CRC AB2ED3CC
     Copy CRC AB2ED3CC
     Track not present in AccurateRip database
     Copy OK

Track 10

     Filename E:\Crysis 2 Original Videogame Soundtrack (LLLCD 1171)\CD1\10. Borislav Slavov – Crynet - Shoot Him Down!.wav

     Pre-gap length  0:00:02.00

     Peak level 99.9 %
     Track quality 100.0 %
     Test CRC 6BD52D0F
     Copy CRC 6BD52D0F
     Track not present in AccurateRip database
     Copy OK

Track 11

     Filename E:\Crysis 2 Original Videogame Soundtrack (LLLCD 1171)\CD1\11. Borislav Slavov – Sneak and Shoot.wav

     Pre-gap length  0:00:02.00

     Peak level 99.5 %
     Track quality 100.0 %
     Test CRC 4DF36646
     Copy CRC 4DF36646
     Track not present in AccurateRip database
     Copy OK

Track 12

     Filename E:\Crysis 2 Original Videogame Soundtrack (LLLCD 1171)\CD1\12. Borislav Slavov – Gate Keepers.wav

     Pre-gap length  0:00:02.00

     Peak level 99.6 %
     Track quality 100.0 %
     Test CRC 17125886
     Copy CRC 17125886
     Track not present in AccurateRip database
     Copy OK

Track 13

     Filename E:\Crysis 2 Original Videogame Soundtrack (LLLCD 1171)\CD1\13. Tilman Sillescu – Rampage.wav

     Pre-gap length  0:00:02.00

     Peak level 88.4 %
     Track quality 100.0 %
     Test CRC 0C047850
     Copy CRC 0C047850
     Track not present in AccurateRip database
     Copy OK

Track 14

     Filename E:\Crysis 2 Original Videogame Soundtrack (LLLCD 1171)\CD1\14. Borislav Slavov – Nanosuit 2 - Crynet Systems.wav

     Pre-gap length  0:00:02.00

     Peak level 99.9 %
     Track quality 100.0 %
     Test CRC AD728D02
     Copy CRC AD728D02
     Track not present in AccurateRip database
     Copy OK

Track 15

     Filename E:\Crysis 2 Original Videogame Soundtrack (LLLCD 1171)\CD1\15. Borislav Slavov – Rising Spear.wav

     Pre-gap length  0:00:02.00

     Peak level 99.8 %
     Track quality 100.0 %
     Test CRC 51DD94EA
     Copy CRC 51DD94EA
     Track not present in AccurateRip database
     Copy OK

Track 16

     Filename E:\Crysis 2 Original Videogame Soundtrack (LLLCD 1171)\CD1\16. Tilman Sillescu – Dead Man Walking.wav

     Pre-gap length  0:00:02.00

     Peak level 83.3 %
     Track quality 100.0 %
     Test CRC AC10622E
     Copy CRC AC10622E
     Track not present in AccurateRip database
     Copy OK

Track 17

     Filename E:\Crysis 2 Original Videogame Soundtrack (LLLCD 1171)\CD1\17. Borislav Slavov – Contamination.wav

     Pre-gap length  0:00:02.00

     Peak level 86.7 %
     Track quality 100.0 %
     Test CRC 92C00C62
     Copy CRC 92C00C62
     Track not present in AccurateRip database
     Copy OK

Track 18

     Filename E:\Crysis 2 Original Videogame Soundtrack (LLLCD 1171)\CD1\18. Tilman Sillescu – Sinister Breed.wav

     Pre-gap length  0:00:02.00

     Peak level 97.4 %
     Track quality 100.0 %
     Test CRC 7E795E52
     Copy CRC 7E795E52
     Track not present in AccurateRip database
     Copy OK

Track 19

     Filename E:\Crysis 2 Original Videogame Soundtrack (LLLCD 1171)\CD1\19. Tilman Sillescu – Dystopian Nightmares.wav

     Pre-gap length  0:00:02.00

     Peak level 86.0 %
     Track quality 100.0 %
     Test CRC AB6D160F
     Copy CRC AB6D160F
     Track not present in AccurateRip database
     Copy OK

Track 20

     Filename E:\Crysis 2 Original Videogame Soundtrack (LLLCD 1171)\CD1\20. Tilman Sillescu – Catastrophic Beauty.wav

     Pre-gap length  0:00:02.00

     Peak level 91.8 %
     Track quality 100.0 %
     Test CRC 1D0FD6FF
     Copy CRC 1D0FD6FF
     Track not present in AccurateRip database
     Copy OK

Track 21

     Filename E:\Crysis 2 Original Videogame Soundtrack (LLLCD 1171)\CD1\21. Tilman Sillescu – Semper Fi.wav

     Pre-gap length  0:00:02.00

     Peak level 96.7 %
     Track quality 100.0 %
     Test CRC 76FE8C54
     Copy CRC 76FE8C54
     Track not present in AccurateRip database
     Copy OK

None of the tracks are present in the AccurateRip database

No errors occurred

End of status report

Код:

REM GENRE Soundtrack
REM DATE 2011
REM DISCID 180B9515
REM COMMENT "ExactAudioCopy v0.99pb5"
PERFORMER "Various"
TITLE "Crysis 2 Original Videogame Soundtrack (CD1)"
FILE "01. Hans Zimmer and Lorne Balfe – Crysis 2 - Intro.wav" WAVE
  TRACK 01 AUDIO
    TITLE "Crysis 2 - Intro"
    PERFORMER "Hans Zimmer and Lorne Balfe"
    FLAGS DCP
    INDEX 01 00:00:00
  TRACK 02 AUDIO
    TITLE "Insertion"
    PERFORMER "Hans Zimmer and Lorne Balfe"
    FLAGS DCP
    INDEX 00 03:08:53
FILE "02. Hans Zimmer and Lorne Balfe – Insertion.wav" WAVE
    INDEX 01 00:00:00
  TRACK 03 AUDIO
    TITLE "Battery Park"
    PERFORMER "Borislav Slavov"
    FLAGS DCP
    INDEX 00 03:27:58
FILE "03. Borislav Slavov – Battery Park.wav" WAVE
    INDEX 01 00:00:00
  TRACK 04 AUDIO
    TITLE "New York - Aftermath"
    PERFORMER "Borislav Slavov"
    FLAGS DCP
    INDEX 00 03:23:21
FILE "04. Borislav Slavov – New York - Aftermath.wav" WAVE
    INDEX 01 00:00:00
  TRACK 05 AUDIO
    TITLE "No Escape"
    PERFORMER "Tilman Sillescu"
    FLAGS DCP
    INDEX 00 02:43:53
FILE "05. Tilman Sillescu – No Escape.wav" WAVE
    INDEX 01 00:00:00
  TRACK 06 AUDIO
    TITLE "Close Encounter"
    PERFORMER "Tilman Sillescu"
    FLAGS DCP
    INDEX 00 02:29:38
FILE "06. Tilman Sillescu – Close Encounter.wav" WAVE
    INDEX 01 00:00:00
  TRACK 07 AUDIO
    TITLE "SOS New York"
    PERFORMER "Borislav Slavov"
    FLAGS DCP
    INDEX 00 01:59:69
FILE "07. Borislav Slavov – SOS New York.wav" WAVE
    INDEX 01 00:00:00
  TRACK 08 AUDIO
    TITLE "Chase"
    PERFORMER "Borislav Slavov"
    FLAGS DCP
    INDEX 00 02:05:23
FILE "08. Borislav Slavov – Chase.wav" WAVE
    INDEX 01 00:00:00
  TRACK 09 AUDIO
    TITLE "Under Assault"
    PERFORMER "Tilman Sillescu"
    FLAGS DCP
    INDEX 00 02:26:38
FILE "09. Tilman Sillescu – Under Assault.wav" WAVE
    INDEX 01 00:00:00
  TRACK 10 AUDIO
    TITLE "Crynet - Shoot Him Down!"
    PERFORMER "Borislav Slavov"
    FLAGS DCP
    INDEX 00 02:00:35
FILE "10. Borislav Slavov – Crynet - Shoot Him Down!.wav" WAVE
    INDEX 01 00:00:00
  TRACK 11 AUDIO
    TITLE "Sneak and Shoot"
    PERFORMER "Borislav Slavov"
    FLAGS DCP
    INDEX 00 02:07:05
FILE "11. Borislav Slavov – Sneak and Shoot.wav" WAVE
    INDEX 01 00:00:00
  TRACK 12 AUDIO
    TITLE "Gate Keepers"
    PERFORMER "Borislav Slavov"
    FLAGS DCP
    INDEX 00 03:34:01
FILE "12. Borislav Slavov – Gate Keepers.wav" WAVE
    INDEX 01 00:00:00
  TRACK 13 AUDIO
    TITLE "Rampage"
    PERFORMER "Tilman Sillescu"
    FLAGS DCP
    INDEX 00 02:19:29
FILE "13. Tilman Sillescu – Rampage.wav" WAVE
    INDEX 01 00:00:00
  TRACK 14 AUDIO
    TITLE "Nanosuit 2 - Crynet Systems"
    PERFORMER "Borislav Slavov"
    FLAGS DCP
    INDEX 00 01:54:00
FILE "14. Borislav Slavov – Nanosuit 2 - Crynet Systems.wav" WAVE
    INDEX 01 00:00:00
  TRACK 15 AUDIO
    TITLE "Rising Spear"
    PERFORMER "Borislav Slavov"
    FLAGS DCP
    INDEX 00 01:17:07
FILE "15. Borislav Slavov – Rising Spear.wav" WAVE
    INDEX 01 00:00:00
  TRACK 16 AUDIO
    TITLE "Dead Man Walking"
    PERFORMER "Tilman Sillescu"
    FLAGS DCP
    INDEX 00 01:11:70
FILE "16. Tilman Sillescu – Dead Man Walking.wav" WAVE
    INDEX 01 00:00:00
  TRACK 17 AUDIO
    TITLE "Contamination"
    PERFORMER "Borislav Slavov"
    FLAGS DCP
    INDEX 00 02:04:42
FILE "17. Borislav Slavov – Contamination.wav" WAVE
    INDEX 01 00:00:00
  TRACK 18 AUDIO
    TITLE "Sinister Breed"
    PERFORMER "Tilman Sillescu"
    FLAGS DCP
    INDEX 00 02:24:21
FILE "18. Tilman Sillescu – Sinister Breed.wav" WAVE
    INDEX 01 00:00:00
  TRACK 19 AUDIO
    TITLE "Dystopian Nightmares"
    PERFORMER "Tilman Sillescu"
    FLAGS DCP
    INDEX 00 02:02:03
FILE "19. Tilman Sillescu – Dystopian Nightmares.wav" WAVE
    INDEX 01 00:00:00
  TRACK 20 AUDIO
    TITLE "Catastrophic Beauty"
    PERFORMER "Tilman Sillescu"
    FLAGS DCP
    INDEX 00 02:06:03
FILE "20. Tilman Sillescu – Catastrophic Beauty.wav" WAVE
    INDEX 01 00:00:00
  TRACK 21 AUDIO
    TITLE "Semper Fi"
    PERFORMER "Tilman Sillescu"
    FLAGS DCP
    INDEX 00 02:01:56
FILE "21. Tilman Sillescu – Semper Fi.wav" WAVE
    INDEX 01 00:00:00
01. Borislav Slavov - Flooded Streets - Aquarium
02. Tilman Sillescu - In Obscurum
03. Tilman Sillescu - Devastation
04. Tilman Sillescu - Shadowzone
05. Borislav Slavov - Alien Suite
06. Tilman Sillescu - Unsafe Haven
07. Borislav Slavov - Terminal Escape
08. Tilman Sillescu - Under the Clock
09. Tilman Sillescu - Morituri
10. Tilman Sillescu - Intersection
11. Borislav Slavov - Times Square - Evacuation
12. Borislav Slavov - Burning Night
13. Borislav Slavov - Resolution (reprise)
14. Borislav Slavov - Eye of the Storm
15. Borislav Slavov - New York
16. Borislav Slavov - Our Only Hope
17. Tilman Sillescu - Out of the Ashes
18. Tilman Sillescu - Alien Logo
19. Borislav Slavov - The End of the Beginning
20. Tilman Sillescu - Walk in the Park
21. Hans Zimmer and Lorne Balfe - Epilogue
22. Borislav Slavov - One Way In
23. Hans Zimmer and Lorne Balfe - Nano-Catalyst
24. Hans Zimmer and Lorne Balfe - Invaders
25. Hans Zimmer and Lorne Balfe - Under Siege

Код:

Exact Audio Copy V0.99 prebeta 5 from 4. May 2009

EAC extraction logfile from 7. May 2011, 19:55

Various / Crysis 2 Original Videogame Soundtrack (CD2)

Used drive  : PIONEER DVD-RW  DVR-216D   Adapter: 3  ID: 0

Read mode               : Secure
Utilize accurate stream : Yes
Defeat audio cache      : Yes
Make use of C2 pointers : No

Read offset correction                      : 96
Overread into Lead-In and Lead-Out          : No
Fill up missing offset samples with silence : Yes
Delete leading and trailing silent blocks   : No
Null samples used in CRC calculations       : Yes
Used interface                              : Native Win32 interface for Win NT & 2000
Gap handling                                : Appended to previous track

Used output format              : User Defined Encoder
Selected bitrate                : 1024 kBit/s
Quality                         : High
Add ID3 tag                     : No
Command line compressor         : C:\Program Files\Exact Audio Copy\Flac\flac.exe
Additional command line options : -8 -V -T "ARTIST=%a" -T "TITLE=%t" -T "ALBUM=%g" -T "DATE=%y" -T "TRACKNUMBER=%n" -T "GENRE=%m" -T "COMMENT=EAC FLAC -8" %s

TOC of the extracted CD

     Track |   Start  |  Length  | Start sector | End sector
    ---------------------------------------------------------
        1  |  0:00.00 |  1:26.73 |         0    |     6522
        2  |  1:26.73 |  2:21.45 |      6523    |    17142
        3  |  3:48.43 |  1:41.15 |     17143    |    24732
        4  |  5:29.58 |  2:29.29 |     24733    |    35936
        5  |  7:59.12 |  2:07.52 |     35937    |    45513
        6  | 10:06.64 |  1:58.42 |     45514    |    54405
        7  | 12:05.31 |  1:01.39 |     54406    |    59019
        8  | 13:06.70 |  1:52.67 |     59020    |    67486
        9  | 14:59.62 |  2:21.38 |     67487    |    78099
       10  | 17:21.25 |  1:35.19 |     78100    |    85243
       11  | 18:56.44 |  2:00.58 |     85244    |    94301
       12  | 20:57.27 |  1:33.62 |     94302    |   101338
       13  | 22:31.14 |  2:08.21 |    101339    |   110959
       14  | 24:39.35 |  2:29.34 |    110960    |   122168
       15  | 27:08.69 |  2:39.09 |    122169    |   134102
       16  | 29:48.03 |  4:37.22 |    134103    |   154899
       17  | 34:25.25 |  2:01.25 |    154900    |   163999
       18  | 36:26.50 |  0:46.10 |    164000    |   167459
       19  | 37:12.60 |  2:03.37 |    167460    |   176721
       20  | 39:16.22 |  2:03.27 |    176722    |   185973
       21  | 41:19.49 |  3:22.43 |    185974    |   201166
       22  | 44:42.17 |  1:23.01 |    201167    |   207392
       23  | 46:05.18 |  0:51.18 |    207393    |   211235
       24  | 46:56.36 |  1:28.61 |    211236    |   217896
       25  | 48:25.22 |  0:50.18 |    217897    |   221664

Track  1

     Filename E:\Crysis 2 Original Videogame Soundtrack (LLLCD 1171)\CD2\01. Borislav Slavov – Flooded Streets - Aquarium.wav

     Pre-gap length  0:00:02.00

     Peak level 99.8 %
     Track quality 99.8 %
     Test CRC 24AC9AB9
     Copy CRC 24AC9AB9
     Track not present in AccurateRip database
     Copy OK

Track  2

     Filename E:\Crysis 2 Original Videogame Soundtrack (LLLCD 1171)\CD2\02. Tilman Sillescu – In Obscurum.wav

     Pre-gap length  0:00:02.00

     Peak level 66.8 %
     Track quality 100.0 %
     Test CRC A9514CED
     Copy CRC A9514CED
     Track not present in AccurateRip database
     Copy OK

Track  3

     Filename E:\Crysis 2 Original Videogame Soundtrack (LLLCD 1171)\CD2\03. Tilman Sillescu – Devastation.wav

     Pre-gap length  0:00:02.00

     Peak level 92.9 %
     Track quality 100.0 %
     Test CRC 5E3AE569
     Copy CRC 5E3AE569
     Track not present in AccurateRip database
     Copy OK

Track  4

     Filename E:\Crysis 2 Original Videogame Soundtrack (LLLCD 1171)\CD2\04. Tilman Sillescu – Shadowzone.wav

     Pre-gap length  0:00:02.00

     Peak level 58.5 %
     Track quality 100.0 %
     Test CRC 7A8A29D2
     Copy CRC 7A8A29D2
     Track not present in AccurateRip database
     Copy OK

Track  5

     Filename E:\Crysis 2 Original Videogame Soundtrack (LLLCD 1171)\CD2\05. Borislav Slavov – Alien Suite.wav

     Pre-gap length  0:00:02.00

     Peak level 99.9 %
     Track quality 100.0 %
     Test CRC 9720B8A7
     Copy CRC 9720B8A7
     Track not present in AccurateRip database
     Copy OK

Track  6

     Filename E:\Crysis 2 Original Videogame Soundtrack (LLLCD 1171)\CD2\06. Tilman Sillescu – Unsafe Haven.wav

     Pre-gap length  0:00:02.00

     Peak level 86.2 %
     Track quality 99.9 %
     Test CRC 65B3D26B
     Copy CRC 65B3D26B
     Track not present in AccurateRip database
     Copy OK

Track  7

     Filename E:\Crysis 2 Original Videogame Soundtrack (LLLCD 1171)\CD2\07. Borislav Slavov – Terminal Escape.wav

     Pre-gap length  0:00:02.00

     Peak level 99.7 %
     Track quality 100.0 %
     Test CRC 6D9E57F8
     Copy CRC 6D9E57F8
     Track not present in AccurateRip database
     Copy OK

Track  8

     Filename E:\Crysis 2 Original Videogame Soundtrack (LLLCD 1171)\CD2\08. Tilman Sillescu – Under the Clock.wav

     Pre-gap length  0:00:02.00

     Peak level 91.4 %
     Track quality 99.9 %
     Test CRC 67F9C68E
     Copy CRC 67F9C68E
     Track not present in AccurateRip database
     Copy OK

Track  9

     Filename E:\Crysis 2 Original Videogame Soundtrack (LLLCD 1171)\CD2\09. Tilman Sillescu – Morituri.wav

     Pre-gap length  0:00:02.00

     Peak level 80.0 %
     Track quality 100.0 %
     Test CRC B65987F4
     Copy CRC B65987F4
     Track not present in AccurateRip database
     Copy OK

Track 10

     Filename E:\Crysis 2 Original Videogame Soundtrack (LLLCD 1171)\CD2\10. Tilman Sillescu – Intersection.wav

     Pre-gap length  0:00:02.00

     Peak level 99.9 %
     Track quality 100.0 %
     Test CRC 52537E79
     Copy CRC 52537E79
     Track not present in AccurateRip database
     Copy OK

Track 11

     Filename E:\Crysis 2 Original Videogame Soundtrack (LLLCD 1171)\CD2\11. Borislav Slavov – Times Square - Evacuation.wav

     Pre-gap length  0:00:02.00

     Peak level 99.6 %
     Track quality 100.0 %
     Test CRC 22BB9515
     Copy CRC 22BB9515
     Track not present in AccurateRip database
     Copy OK

Track 12

     Filename E:\Crysis 2 Original Videogame Soundtrack (LLLCD 1171)\CD2\12. Borislav Slavov – Burning Night.wav

     Pre-gap length  0:00:02.00

     Peak level 97.9 %
     Track quality 100.0 %
     Test CRC 68AEB326
     Copy CRC 68AEB326
     Track not present in AccurateRip database
     Copy OK

Track 13

     Filename E:\Crysis 2 Original Videogame Soundtrack (LLLCD 1171)\CD2\13. Borislav Slavov – Resolution (reprise).wav

     Pre-gap length  0:00:02.00

     Peak level 99.8 %
     Track quality 100.0 %
     Test CRC C315CDD9
     Copy CRC C315CDD9
     Track not present in AccurateRip database
     Copy OK

Track 14

     Filename E:\Crysis 2 Original Videogame Soundtrack (LLLCD 1171)\CD2\14. Borislav Slavov – Eye of the Storm.wav

     Pre-gap length  0:00:02.00

     Peak level 99.7 %
     Track quality 100.0 %
     Test CRC 7294CD9E
     Copy CRC 7294CD9E
     Track not present in AccurateRip database
     Copy OK

Track 15

     Filename E:\Crysis 2 Original Videogame Soundtrack (LLLCD 1171)\CD2\15. Borislav Slavov – New York.wav

     Pre-gap length  0:00:02.00

     Peak level 99.5 %
     Track quality 100.0 %
     Test CRC A3B8EC8F
     Copy CRC A3B8EC8F
     Track not present in AccurateRip database
     Copy OK

Track 16

     Filename E:\Crysis 2 Original Videogame Soundtrack (LLLCD 1171)\CD2\16. Borislav Slavov – Our Only Hope.wav

     Pre-gap length  0:00:02.00

     Peak level 99.8 %
     Track quality 99.9 %
     Test CRC F5A90A20
     Copy CRC F5A90A20
     Track not present in AccurateRip database
     Copy OK

Track 17

     Filename E:\Crysis 2 Original Videogame Soundtrack (LLLCD 1171)\CD2\17. Tilman Sillescu – Out of the Ashes.wav

     Pre-gap length  0:00:02.00

     Peak level 91.9 %
     Track quality 100.0 %
     Test CRC 3DE5606E
     Copy CRC 3DE5606E
     Track not present in AccurateRip database
     Copy OK

Track 18

     Filename E:\Crysis 2 Original Videogame Soundtrack (LLLCD 1171)\CD2\18. Tilman Sillescu – Alien Logo.wav

     Pre-gap length  0:00:02.00

     Peak level 93.2 %
     Track quality 99.7 %
     Test CRC 1F222949
     Copy CRC 1F222949
     Track not present in AccurateRip database
     Copy OK

Track 19

     Filename E:\Crysis 2 Original Videogame Soundtrack (LLLCD 1171)\CD2\19. Borislav Slavov – The End of the Beginning.wav

     Pre-gap length  0:00:02.00

     Peak level 99.9 %
     Track quality 100.0 %
     Test CRC 002966FC
     Copy CRC 002966FC
     Track not present in AccurateRip database
     Copy OK

Track 20

     Filename E:\Crysis 2 Original Videogame Soundtrack (LLLCD 1171)\CD2\20. Tilman Sillescu – Walk in the Park.wav

     Pre-gap length  0:00:02.00

     Peak level 88.4 %
     Track quality 100.0 %
     Test CRC 4B8E710F
     Copy CRC 4B8E710F
     Track not present in AccurateRip database
     Copy OK

Track 21

     Filename E:\Crysis 2 Original Videogame Soundtrack (LLLCD 1171)\CD2\21. Hans Zimmer and Lorne Balfe – Epilogue.wav

     Pre-gap length  0:00:02.00

     Peak level 99.9 %
     Track quality 99.9 %
     Test CRC 2E75C833
     Copy CRC 2E75C833
     Track not present in AccurateRip database
     Copy OK

Track 22

     Filename E:\Crysis 2 Original Videogame Soundtrack (LLLCD 1171)\CD2\22. Borislav Slavov – One Way In.wav

     Pre-gap length  0:00:04.00

     Peak level 99.5 %
     Track quality 99.8 %
     Test CRC D224DA47
     Copy CRC D224DA47
     Track not present in AccurateRip database
     Copy OK

Track 23

     Filename E:\Crysis 2 Original Videogame Soundtrack (LLLCD 1171)\CD2\23. Hans Zimmer and Lorne Balfe – Nano-Catalyst.wav

     Pre-gap length  0:00:02.00

     Peak level 93.6 %
     Track quality 100.0 %
     Test CRC 6D44994C
     Copy CRC 6D44994C
     Track not present in AccurateRip database
     Copy OK

Track 24

     Filename E:\Crysis 2 Original Videogame Soundtrack (LLLCD 1171)\CD2\24. Hans Zimmer and Lorne Balfe – Invaders.wav

     Pre-gap length  0:00:02.00

     Peak level 99.1 %
     Track quality 100.0 %
     Test CRC 83136FFF
     Copy CRC 83136FFF
     Track not present in AccurateRip database
     Copy OK

Track 25

     Filename E:\Crysis 2 Original Videogame Soundtrack (LLLCD 1171)\CD2\25. Hans Zimmer and Lorne Balfe – Under Siege.wav

     Pre-gap length  0:00:02.00

     Peak level 98.8 %
     Track quality 100.0 %
     Test CRC BB5199ED
     Copy CRC BB5199ED
     Track not present in AccurateRip database
     Copy OK

None of the tracks are present in the AccurateRip database

No errors occurred

End of status report

Код:

REM GENRE Soundtrack
REM DATE 2011
REM DISCID 630B8B19
REM COMMENT "ExactAudioCopy v0.99pb5"
PERFORMER "Various"
TITLE "Crysis 2 Original Videogame Soundtrack (CD2)"
FILE "01. Borislav Slavov – Flooded Streets - Aquarium.wav" WAVE
  TRACK 01 AUDIO
    TITLE "Flooded Streets - Aquarium"
    PERFORMER "Borislav Slavov"
    FLAGS DCP
    INDEX 01 00:00:00
  TRACK 02 AUDIO
    TITLE "In Obscurum"
    PERFORMER "Tilman Sillescu"
    FLAGS DCP
    INDEX 00 01:24:73
FILE "02. Tilman Sillescu – In Obscurum.wav" WAVE
    INDEX 01 00:00:00
  TRACK 03 AUDIO
    TITLE "Devastation"
    PERFORMER "Tilman Sillescu"
    FLAGS DCP
    INDEX 00 02:19:45
FILE "03. Tilman Sillescu – Devastation.wav" WAVE
    INDEX 01 00:00:00
  TRACK 04 AUDIO
    TITLE "Shadowzone"
    PERFORMER "Tilman Sillescu"
    FLAGS DCP
    INDEX 00 01:39:15
FILE "04. Tilman Sillescu – Shadowzone.wav" WAVE
    INDEX 01 00:00:00
  TRACK 05 AUDIO
    TITLE "Alien Suite"
    PERFORMER "Borislav Slavov"
    FLAGS DCP
    INDEX 00 02:27:29
FILE "05. Borislav Slavov – Alien Suite.wav" WAVE
    INDEX 01 00:00:00
  TRACK 06 AUDIO
    TITLE "Unsafe Haven"
    PERFORMER "Tilman Sillescu"
    FLAGS DCP
    INDEX 00 02:05:52
FILE "06. Tilman Sillescu – Unsafe Haven.wav" WAVE
    INDEX 01 00:00:00
  TRACK 07 AUDIO
    TITLE "Terminal Escape"
    PERFORMER "Borislav Slavov"
    FLAGS DCP
    INDEX 00 01:56:42
FILE "07. Borislav Slavov – Terminal Escape.wav" WAVE
    INDEX 01 00:00:00
  TRACK 08 AUDIO
    TITLE "Under the Clock"
    PERFORMER "Tilman Sillescu"
    FLAGS DCP
    INDEX 00 00:59:39
FILE "08. Tilman Sillescu – Under the Clock.wav" WAVE
    INDEX 01 00:00:00
  TRACK 09 AUDIO
    TITLE "Morituri"
    PERFORMER "Tilman Sillescu"
    FLAGS DCP
    INDEX 00 01:50:67
FILE "09. Tilman Sillescu – Morituri.wav" WAVE
    INDEX 01 00:00:00
  TRACK 10 AUDIO
    TITLE "Intersection"
    PERFORMER "Tilman Sillescu"
    FLAGS DCP
    INDEX 00 02:19:38
FILE "10. Tilman Sillescu – Intersection.wav" WAVE
    INDEX 01 00:00:00
  TRACK 11 AUDIO
    TITLE "Times Square - Evacuation"
    PERFORMER "Borislav Slavov"
    FLAGS DCP
    INDEX 00 01:33:19
FILE "11. Borislav Slavov – Times Square - Evacuation.wav" WAVE
    INDEX 01 00:00:00
  TRACK 12 AUDIO
    TITLE "Burning Night"
    PERFORMER "Borislav Slavov"
    FLAGS DCP
    INDEX 00 01:58:58
FILE "12. Borislav Slavov – Burning Night.wav" WAVE
    INDEX 01 00:00:00
  TRACK 13 AUDIO
    TITLE "Resolution (reprise)"
    PERFORMER "Borislav Slavov"
    FLAGS DCP
    INDEX 00 01:31:62
FILE "13. Borislav Slavov – Resolution (reprise).wav" WAVE
    INDEX 01 00:00:00
  TRACK 14 AUDIO
    TITLE "Eye of the Storm"
    PERFORMER "Borislav Slavov"
    FLAGS DCP
    INDEX 00 02:06:21
FILE "14. Borislav Slavov – Eye of the Storm.wav" WAVE
    INDEX 01 00:00:00
  TRACK 15 AUDIO
    TITLE "New York"
    PERFORMER "Borislav Slavov"
    FLAGS DCP
    INDEX 00 02:27:34
FILE "15. Borislav Slavov – New York.wav" WAVE
    INDEX 01 00:00:00
  TRACK 16 AUDIO
    TITLE "Our Only Hope"
    PERFORMER "Borislav Slavov"
    FLAGS DCP
    INDEX 00 02:37:09
FILE "16. Borislav Slavov – Our Only Hope.wav" WAVE
    INDEX 01 00:00:00
  TRACK 17 AUDIO
    TITLE "Out of the Ashes"
    PERFORMER "Tilman Sillescu"
    FLAGS DCP
    INDEX 00 04:35:22
FILE "17. Tilman Sillescu – Out of the Ashes.wav" WAVE
    INDEX 01 00:00:00
  TRACK 18 AUDIO
    TITLE "Alien Logo"
    PERFORMER "Tilman Sillescu"
    FLAGS DCP
    INDEX 00 01:59:25
FILE "18. Tilman Sillescu – Alien Logo.wav" WAVE
    INDEX 01 00:00:00
  TRACK 19 AUDIO
    TITLE "The End of the Beginning"
    PERFORMER "Borislav Slavov"
    FLAGS DCP
    INDEX 00 00:44:10
FILE "19. Borislav Slavov – The End of the Beginning.wav" WAVE
    INDEX 01 00:00:00
  TRACK 20 AUDIO
    TITLE "Walk in the Park"
    PERFORMER "Tilman Sillescu"
    FLAGS DCP
    INDEX 00 02:01:37
FILE "20. Tilman Sillescu – Walk in the Park.wav" WAVE
    INDEX 01 00:00:00
  TRACK 21 AUDIO
    TITLE "Epilogue"
    PERFORMER "Hans Zimmer and Lorne Balfe"
    FLAGS DCP
    INDEX 00 02:01:27
FILE "21. Hans Zimmer and Lorne Balfe – Epilogue.wav" WAVE
    INDEX 01 00:00:00
  TRACK 22 AUDIO
    TITLE "One Way In"
    PERFORMER "Borislav Slavov"
    FLAGS DCP
    INDEX 00 03:18:43
FILE "22. Borislav Slavov – One Way In.wav" WAVE
    INDEX 01 00:00:00
  TRACK 23 AUDIO
    TITLE "Nano-Catalyst"
    PERFORMER "Hans Zimmer and Lorne Balfe"
    FLAGS DCP
    INDEX 00 01:21:01
FILE "23. Hans Zimmer and Lorne Balfe – Nano-Catalyst.wav" WAVE
    INDEX 01 00:00:00
  TRACK 24 AUDIO
    TITLE "Invaders"
    PERFORMER "Hans Zimmer and Lorne Balfe"
    FLAGS DCP
    INDEX 00 00:49:18
FILE "24. Hans Zimmer and Lorne Balfe – Invaders.wav" WAVE
    INDEX 01 00:00:00
  TRACK 25 AUDIO
    TITLE "Under Siege"
    PERFORMER "Hans Zimmer and Lorne Balfe"
    FLAGS DCP
    INDEX 00 01:26:61
FILE "25. Hans Zimmer and Lorne Balfe – Under Siege.wav" WAVE
    INDEX 01 00:00:00
info [Профиль]  [ЛС] 

roms

Пол: Пол:Муж

Стаж: 10 лет

Сообщений: 70

Россия
Рейтинг

post 11-Дек-2011 16:31 (спустя 1 час 55 минут) [-]-1[+]

[Цитировать] 

Скорость маловата.
Но пятёрочку поставлю)

_________________
Подмигиваю
info [Профиль]  [ЛС] 

Rock Star

Пол: Пол:Муж

Стаж: 10 лет

Сообщений: 780

Рейтинг

post 11-Дек-2011 16:38 (спустя 7 минут) [-]0[+]

[Цитировать] 

roms писал(а):

Скорость маловата.
Но пятёрочку поставлю)
info [Профиль]  [ЛС] 

aganemn0n

Пол: Пол:Муж

Стаж: 13 лет

Сообщений: 55

Россия
Рейтинг

post 11-Дек-2011 18:33 (спустя 1 час 54 минуты) [-]0[+]

[Цитировать] 

скачал за минуты 2 Улыбаюсь спс!

_________________
Мы с моей страной любим друг друга! Только я её платонически, а она меня все время поиметь пытается.... !
info [Профиль]  [ЛС] 

Saren Arterius

Пол: Пол:Муж

Стаж: 9 лет 3 месяца

Сообщений: 16

Россия
Рейтинг

post 20-Фев-2013 13:25 (спустя 1 год 2 месяца) [-]0[+]

[Цитировать] 

Саундтрек kolob_120 kolob_109 Спасибо!

добавлено спустя 26 минут 4 секунды:

Скорости бы
info [Профиль]  [ЛС] 
Показать сообщения:    
Ответить на тему

Текущее время: 27-Май 18:43

Часовой пояс: GMT + 4



Вы не можете начинать темы
Вы не можете отвечать на сообщения
Вы не можете редактировать свои сообщения
Вы не можете удалять свои сообщения
Вы не можете голосовать в опросах
Вы не можете прикреплять файлы к сообщениям
Вы не можете скачивать файлы