Ошибка

(Progressive Trance, Progressive House) Emma Hewitt - Burn The Sky Down [2CD] [ARMA329] - 2012, FLAC (tracks+.cue), lossless

Ответить на тему
 
Автор Сообщение

Shamik

Пол: Пол:Муж

Стаж: 13 лет

Сообщений: 486

Кокосовые острова
Рейтинг

post 06-Дек-2012 17:50 0[+]

[Цитировать] 

Emma Hewitt - Burn The Sky Down

Исполнитель:............: Emma Hewitt
Альбом:........................: Burn The Sky Down
Тип:...............................: 2 × CD, Album
Страна:.........................: Netherlands
Лейбл:...........................: Armada Music – ARMA329
Дата выпуска:...........: 27 Jul 2012
Жанр:............................: Trance, Progressive Trance, Progressive House
Формат: FLAC (tracks+.cue)
Продолжительность: 01:04:03 + 01:07:52

Tracklist:
CD 1
01. Emma Hewitt - Burn The Sky Down (1:44)
02. Emma Hewitt - Colours (4:01)
03. Emma Hewitt - Miss You Paradise (3:31)
04. Emma Hewitt - These Days Are Ours (3:46)
05. Emma Hewitt - Foolish Boy (4:15)
06. Emma Hewitt - Rewind (3:20)
07. Emma Hewitt - Still Remember You (Stay Forever) (4:24)
08. Emma Hewitt - Can't Turn Around Now (1:52)
09. Emma Hewitt - Crucify (3:50)
10. Emma Hewitt - This Picture (3:29)
11. Emma Hewitt - State That I'm In (2:20)
12. Emma Hewitt & 16 Bit Lolitas - Circles (5:56)
13. Emma Hewitt - These Days Are Ours (Zetandel Chill Out Mix) (5:15)
14. Emma Hewitt - State That I'm In (16 Bit Lolitas Remix) (5:21)
15. Emma Hewitt & 16 Bit Lolitas - Circles (Blumpy Remix) (3:35)
16. Emma Hewitt - Miss You Paradise (Strings & Accoustic Version) (3:33)
17. Emma Hewitt - Colours (Strings & Vocals Mix) (3:51)

CD 2
01. Emma Hewitt - Colours (Armin Van Buuren Remix) (2:40)
02. Emma Hewitt - Miss You Paradise (Shogun Remix) (3:29)
03. Emma Hewitt - Foolish Boy (Ivan Gough & Luke Chable Remix) (4:36)
04. Emma Hewitt - These Days Are Ours (Antillas & Dankann Remix) (4:04)
05. Emma Hewitt - Crucify (Arnej Remix) (4:14)
06. Emma Hewitt - This Picture (Marlo Remix) (5:36)
07. Emma Hewitt - Rewind (Dabruck & Klein Remix) (3:30)
08. Emma Hewitt - Miss You Paradise (Morgan Page Remix) (3:38)
09. Emma Hewitt - Foolish Boy (John O'Callaghan Remix) (4:15)
10. Emma Hewitt - Rewind (KATFYR Remix) (4:05)
11. Emma Hewitt - Colours (Cosmix Gate Remix) (3:36)
12. Emma Hewitt & 16 Bit Lolitas - Circles (Pedro Del Mar & Doublev Remix) (5:21)
13. Emma Hewitt - Crucify (Marlo Remix) (4:10)
14. Emma Hewitt - Colours (Jerome Isma-Ae Remix) (3:48)
15. Emma Hewitt - Rewind (tyDi Remix) (3:49)
16. Emma Hewitt - Foolish Boy (KATFYR Remix) (3:33)
17. Emma Hewitt - Miss You Paradise (Venom One Remix) (3:29)
 

Exact Audio Copy V1.0 beta 3 from 29. August 2011

EAC extraction logfile from 11. August 2012, 2:55

Emma Hewitt / Burn The Sky Down

Used drive : PLEXTOR DVDR PX-716AL Adapter: 1 ID: 0

Read mode : Secure
Utilize accurate stream : Yes
Defeat audio cache : Yes
Make use of C2 pointers : No

Read offset correction : 30
Overread into Lead-In and Lead-Out : No
Fill up missing offset samples with silence : Yes
Delete leading and trailing silent blocks : No
Null samples used in CRC calculations : Yes
Used interface : Native Win32 interface for Win NT & 2000
Gap handling : Appended to previous track

Used output format : User Defined Encoder
Selected bitrate : 1024 kBit/s
Quality : High
Add ID3 tag : No
Command line compressor : C:\Program Files (x86)\Exact Audio Copy\Flac\flac.exe
Additional command line options : -8 -V -T "ARTIST=%artist%" -T "TITLE=%title%" -T "ALBUM=%albumtitle%" -T "DATE=%year%" -T "TRACKNUMBER=%tracknr%" -T "GENRE=%genre%" -T "PERFORMER=%albuminterpret%" -T "COMPOSER=%composer%" %haslyrics%--tag-from-file=LYRICS="%lyricsfile%"%haslyrics% -T "ALBUMARTIST=%albumartist%" -T "DISCNUMBER=%cdnumber%" -T "TOTALDISCS=%totalcds%" -T "TOTALTRACKS=%numtracks%" -T "COMMENT=%comment%" %source% -o %dest%

TOC of the extracted CD

Track | Start | Length | Start sector | End sector
---------------------------------------------------------
1 | 0:00.00 | 1:43.63 | 0 | 7787
2 | 1:43.63 | 4:01.01 | 7788 | 25863
3 | 5:44.64 | 3:31.11 | 25864 | 41699
4 | 9:16.00 | 3:46.19 | 41700 | 58668
5 | 13:02.19 | 4:15.01 | 58669 | 77794
6 | 17:17.20 | 3:20.14 | 77795 | 92808
7 | 20:37.34 | 4:23.61 | 92809 | 112594
8 | 25:01.20 | 1:51.52 | 112595 | 120971
9 | 26:52.72 | 3:49.52 | 120972 | 138198
10 | 30:42.49 | 3:29.27 | 138199 | 153900
11 | 34:12.01 | 2:19.63 | 153901 | 164388
12 | 36:31.64 | 5:55.72 | 164389 | 191085
13 | 42:27.61 | 5:15.26 | 191086 | 214736
14 | 47:43.12 | 5:20.68 | 214737 | 238804
15 | 53:04.05 | 3:35.06 | 238805 | 254935
16 | 56:39.11 | 3:33.35 | 254936 | 270945
17 | 60:12.46 | 3:50.43 | 270946 | 288238

Track 1

Filename C:\EAC\Emma Hewitt - Burn The Sky Down (2012) [FLAC]\01 - Emma Hewitt - Burn The Sky Down.wav

Pre-gap length 0:00:02.00

Peak level 96.1 %
Extraction speed 7.6 X
Track quality 100.0 %
Test CRC DE46D85E
Copy CRC DE46D85E
Track not present in AccurateRip database
Copy OK

Track 2

Filename C:\EAC\Emma Hewitt - Burn The Sky Down (2012) [FLAC]\02 - Emma Hewitt - Colours.wav

Peak level 96.4 %
Extraction speed 7.5 X
Track quality 99.9 %
Test CRC EEEF6F9D
Copy CRC EEEF6F9D
Track not present in AccurateRip database
Copy OK

Track 3

Filename C:\EAC\Emma Hewitt - Burn The Sky Down (2012) [FLAC]\03 - Emma Hewitt - Miss You Paradise.wav

Peak level 96.4 %
Extraction speed 8.4 X
Track quality 99.9 %
Test CRC 9499EB94
Copy CRC 9499EB94
Track not present in AccurateRip database
Copy OK

Track 4

Filename C:\EAC\Emma Hewitt - Burn The Sky Down (2012) [FLAC]\04 - Emma Hewitt - These Days Are Ours.wav

Peak level 96.4 %
Extraction speed 10.1 X
Track quality 100.0 %
Test CRC 08EC392B
Copy CRC 08EC392B
Track not present in AccurateRip database
Copy OK

Track 5

Filename C:\EAC\Emma Hewitt - Burn The Sky Down (2012) [FLAC]\05 - Emma Hewitt - Foolish Boy.wav

Peak level 96.4 %
Extraction speed 10.8 X
Track quality 100.0 %
Test CRC 755329B7
Copy CRC 755329B7
Track not present in AccurateRip database
Copy OK

Track 6

Filename C:\EAC\Emma Hewitt - Burn The Sky Down (2012) [FLAC]\06 - Emma Hewitt - Rewind.wav

Peak level 96.4 %
Extraction speed 9.7 X
Track quality 99.9 %
Test CRC 067557D3
Copy CRC 067557D3
Track not present in AccurateRip database
Copy OK

Track 7

Filename C:\EAC\Emma Hewitt - Burn The Sky Down (2012) [FLAC]\07 - Emma Hewitt - Still Remember You (Stay Forever).wav

Peak level 96.4 %
Extraction speed 11.8 X
Track quality 100.0 %
Test CRC EA149559
Copy CRC EA149559
Track not present in AccurateRip database
Copy OK

Track 8

Filename C:\EAC\Emma Hewitt - Burn The Sky Down (2012) [FLAC]\08 - Emma Hewitt - Can't Turn Around Now.wav

Peak level 96.4 %
Extraction speed 11.6 X
Track quality 100.0 %
Test CRC CD5F7C55
Copy CRC CD5F7C55
Track not present in AccurateRip database
Copy OK

Track 9

Filename C:\EAC\Emma Hewitt - Burn The Sky Down (2012) [FLAC]\09 - Emma Hewitt - Crucify.wav

Peak level 96.4 %
Extraction speed 12.8 X
Track quality 100.0 %
Test CRC 425F98AE
Copy CRC 425F98AE
Track not present in AccurateRip database
Copy OK

Track 10

Filename C:\EAC\Emma Hewitt - Burn The Sky Down (2012) [FLAC]\10 - Emma Hewitt - This Picture.wav

Peak level 96.4 %
Extraction speed 12.9 X
Track quality 100.0 %
Test CRC AA348C0B
Copy CRC AA348C0B
Track not present in AccurateRip database
Copy OK

Track 11

Filename C:\EAC\Emma Hewitt - Burn The Sky Down (2012) [FLAC]\11 - Emma Hewitt - State That I'm In.wav

Peak level 96.4 %
Extraction speed 12.5 X
Track quality 100.0 %
Test CRC A1925B20
Copy CRC A1925B20
Track not present in AccurateRip database
Copy OK

Track 12

Filename C:\EAC\Emma Hewitt - Burn The Sky Down (2012) [FLAC]\12 - Emma Hewitt & 16 Bit Lolitas - Circles.wav

Peak level 96.4 %
Extraction speed 14.0 X
Track quality 100.0 %
Test CRC DA210A9F
Copy CRC DA210A9F
Track not present in AccurateRip database
Copy OK

Track 13

Filename C:\EAC\Emma Hewitt - Burn The Sky Down (2012) [FLAC]\13 - Emma Hewitt - These Days Are Ours (Zetandel Chill Out Mix).wav

Peak level 96.4 %
Extraction speed 15.3 X
Track quality 100.0 %
Test CRC A45DC84A
Copy CRC A45DC84A
Track not present in AccurateRip database
Copy OK

Track 14

Filename C:\EAC\Emma Hewitt - Burn The Sky Down (2012) [FLAC]\14 - Emma Hewitt - State That I'm In (16 Bit Lolitas Remix).wav

Peak level 96.4 %
Extraction speed 15.4 X
Track quality 100.0 %
Test CRC 90C60C5B
Copy CRC 90C60C5B
Track not present in AccurateRip database
Copy OK

Track 15

Filename C:\EAC\Emma Hewitt - Burn The Sky Down (2012) [FLAC]\15 - Emma Hewitt & 16 Bit Lolitas - Circles (Blumpy Remix).wav

Peak level 96.4 %
Extraction speed 15.5 X
Track quality 100.0 %
Test CRC D25E34BA
Copy CRC D25E34BA
Track not present in AccurateRip database
Copy OK

Track 16

Filename C:\EAC\Emma Hewitt - Burn The Sky Down (2012) [FLAC]\16 - Emma Hewitt - Miss You Paradise (Strings & Accoustic Version).wav

Peak level 91.6 %
Extraction speed 14.0 X
Track quality 99.9 %
Test CRC 1A04AE73
Copy CRC 1A04AE73
Track not present in AccurateRip database
Copy OK

Track 17

Filename C:\EAC\Emma Hewitt - Burn The Sky Down (2012) [FLAC]\17 - Emma Hewitt - Colours (Strings & Vocals Mix).wav

Peak level 96.4 %
Extraction speed 14.4 X
Track quality 100.0 %
Test CRC DA805C88
Copy CRC DA805C88
Track not present in AccurateRip database
Copy OK

None of the tracks are present in the AccurateRip database

No errors occurred

End of status report

---- CUETools DB Plugin V2.1.3

[CTDB TOCID: mTKaa.CSEujmfxa3YwWHBcXaD5I-] found, Submit result: already submitted
[9b6da0cd] (1/1) Accurately ripped

==== Log checksum 0E864E6B2AECE1F00A0EA84AF5DEA31AE618F27798CCACA66AC6CEFF6E9B3186 ====
 
Exact Audio Copy V1.0 beta 3 from 29. August 2011

EAC extraction logfile from 11. August 2012, 3:23

Emma Hewitt / Burn The Sky Down

Used drive : PLEXTOR DVDR PX-716AL Adapter: 1 ID: 0

Read mode : Secure
Utilize accurate stream : Yes
Defeat audio cache : Yes
Make use of C2 pointers : No

Read offset correction : 30
Overread into Lead-In and Lead-Out : No
Fill up missing offset samples with silence : Yes
Delete leading and trailing silent blocks : No
Null samples used in CRC calculations : Yes
Used interface : Native Win32 interface for Win NT & 2000
Gap handling : Appended to previous track

Used output format : User Defined Encoder
Selected bitrate : 1024 kBit/s
Quality : High
Add ID3 tag : No
Command line compressor : C:\Program Files (x86)\Exact Audio Copy\Flac\flac.exe
Additional command line options : -8 -V -T "ARTIST=%artist%" -T "TITLE=%title%" -T "ALBUM=%albumtitle%" -T "DATE=%year%" -T "TRACKNUMBER=%tracknr%" -T "GENRE=%genre%" -T "PERFORMER=%albuminterpret%" -T "COMPOSER=%composer%" %haslyrics%--tag-from-file=LYRICS="%lyricsfile%"%haslyrics% -T "ALBUMARTIST=%albumartist%" -T "DISCNUMBER=%cdnumber%" -T "TOTALDISCS=%totalcds%" -T "TOTALTRACKS=%numtracks%" -T "COMMENT=%comment%" %source% -o %dest%

TOC of the extracted CD

Track | Start | Length | Start sector | End sector
---------------------------------------------------------
1 | 0:00.00 | 2:39.51 | 0 | 11975
2 | 2:39.51 | 3:29.06 | 11976 | 27656
3 | 6:08.57 | 4:35.72 | 27657 | 48353
4 | 10:44.54 | 4:03.73 | 48354 | 66651
5 | 14:48.52 | 4:14.04 | 66652 | 85705
6 | 19:02.56 | 5:35.42 | 85706 | 110872
7 | 24:38.23 | 3:30.19 | 110873 | 126641
8 | 28:08.42 | 3:37.74 | 126642 | 142990
9 | 31:46.41 | 4:15.19 | 142991 | 162134
10 | 36:01.60 | 4:04.52 | 162135 | 180486
11 | 40:06.37 | 3:35.55 | 180487 | 196666
12 | 43:42.17 | 5:21.10 | 196667 | 220751
13 | 49:03.27 | 4:10.16 | 220752 | 239517
14 | 53:13.43 | 3:47.56 | 239518 | 256598
15 | 57:01.24 | 3:48.44 | 256599 | 273742
16 | 60:49.68 | 3:32.47 | 273743 | 289689
17 | 64:22.40 | 3:29.12 | 289690 | 305376

Track 1

Filename C:\EAC\Emma Hewitt - Burn The Sky Down (2012) [FLAC]\CD2\01 - Emma Hewitt - Colours (Armin Van Buuren Remix).wav

Pre-gap length 0:00:02.00

Peak level 96.1 %
Extraction speed 5.9 X
Track quality 99.9 %
Test CRC C37E56A4
Copy CRC C37E56A4
Track not present in AccurateRip database
Copy OK

Track 2

Filename C:\EAC\Emma Hewitt - Burn The Sky Down (2012) [FLAC]\CD2\02 - Emma Hewitt - Miss You Paradise (Shogun Remix).wav

Peak level 96.0 %
Extraction speed 7.3 X
Track quality 100.0 %
Test CRC B9684B75
Copy CRC B9684B75
Track not present in AccurateRip database
Copy OK

Track 3

Filename C:\EAC\Emma Hewitt - Burn The Sky Down (2012) [FLAC]\CD2\03 - Emma Hewitt - Foolish Boy (Ivan Gough & Luke Chable Remix).wav

Peak level 82.7 %
Extraction speed 8.0 X
Track quality 100.0 %
Test CRC E590D015
Copy CRC E590D015
Track not present in AccurateRip database
Copy OK

Track 4

Filename C:\EAC\Emma Hewitt - Burn The Sky Down (2012) [FLAC]\CD2\04 - Emma Hewitt - These Days Are Ours (Antillas & Dankann Remix).wav

Peak level 96.0 %
Extraction speed 8.6 X
Track quality 100.0 %
Test CRC 3EDE2BE3
Copy CRC 3EDE2BE3
Track not present in AccurateRip database
Copy OK

Track 5

Filename C:\EAC\Emma Hewitt - Burn The Sky Down (2012) [FLAC]\CD2\05 - Emma Hewitt - Crucify (Arnej Remix).wav

Peak level 80.3 %
Extraction speed 9.2 X
Track quality 100.0 %
Test CRC D8718C3A
Copy CRC D8718C3A
Track not present in AccurateRip database
Copy OK

Track 6

Filename C:\EAC\Emma Hewitt - Burn The Sky Down (2012) [FLAC]\CD2\06 - Emma Hewitt - This Picture (Marlo Remix).wav

Peak level 96.1 %
Extraction speed 9.8 X
Track quality 100.0 %
Test CRC 905919BB
Copy CRC 905919BB
Track not present in AccurateRip database
Copy OK

Track 7

Filename C:\EAC\Emma Hewitt - Burn The Sky Down (2012) [FLAC]\CD2\07 - Emma Hewitt - Rewind (Dabruck & Klein Remix).wav

Peak level 96.1 %
Extraction speed 10.2 X
Track quality 100.0 %
Test CRC C2E3DD7A
Copy CRC C2E3DD7A
Track not present in AccurateRip database
Copy OK

Track 8

Filename C:\EAC\Emma Hewitt - Burn The Sky Down (2012) [FLAC]\CD2\08 - Emma Hewitt - Miss You Paradise (Morgan Page Remix).wav

Peak level 96.1 %
Extraction speed 10.8 X
Track quality 100.0 %
Test CRC 1BBF463A
Copy CRC 1BBF463A
Track not present in AccurateRip database
Copy OK

Track 9

Filename C:\EAC\Emma Hewitt - Burn The Sky Down (2012) [FLAC]\CD2\09 - Emma Hewitt - Foolish Boy (John O'Callaghan Remix).wav

Peak level 96.8 %
Extraction speed 11.3 X
Track quality 100.0 %
Test CRC 4151DBE4
Copy CRC 4151DBE4
Track not present in AccurateRip database
Copy OK

Track 10

Filename C:\EAC\Emma Hewitt - Burn The Sky Down (2012) [FLAC]\CD2\10 - Emma Hewitt - Rewind (KATFYR Remix).wav

Peak level 96.1 %
Extraction speed 10.3 X
Track quality 99.9 %
Test CRC 48CF7776
Copy CRC 48CF7776
Track not present in AccurateRip database
Copy OK

Track 11

Filename C:\EAC\Emma Hewitt - Burn The Sky Down (2012) [FLAC]\CD2\11 - Emma Hewitt - Colours (Cosmix Gate Remix).wav

Peak level 96.1 %
Extraction speed 11.6 X
Track quality 100.0 %
Test CRC BCA501E2
Copy CRC BCA501E2
Track not present in AccurateRip database
Copy OK

Track 12

Filename C:\EAC\Emma Hewitt - Burn The Sky Down (2012) [FLAC]\CD2\12 - Emma Hewitt & 16 Bit Lolitas - Circles (Pedro Del Mar & Doublev Remix).wav

Peak level 96.1 %
Extraction speed 11.9 X
Track quality 100.0 %
Test CRC 80563C36
Copy CRC 80563C36
Track not present in AccurateRip database
Copy OK

Track 13

Filename C:\EAC\Emma Hewitt - Burn The Sky Down (2012) [FLAC]\CD2\13 - Emma Hewitt - Crucify (Marlo Remix).wav

Peak level 96.1 %
Extraction speed 12.7 X
Track quality 100.0 %
Test CRC EF9B1C2F
Copy CRC EF9B1C2F
Track not present in AccurateRip database
Copy OK

Track 14

Filename C:\EAC\Emma Hewitt - Burn The Sky Down (2012) [FLAC]\CD2\14 - Emma Hewitt - Colours (Jerome Isma-Ae Remix).wav

Peak level 96.1 %
Extraction speed 10.9 X
Track quality 99.9 %
Test CRC BB810AAC
Copy CRC BB810AAC
Track not present in AccurateRip database
Copy OK

Track 15

Filename C:\EAC\Emma Hewitt - Burn The Sky Down (2012) [FLAC]\CD2\15 - Emma Hewitt - Rewind (tyDi Remix).wav

Peak level 96.8 %
Extraction speed 13.0 X
Track quality 100.0 %
Test CRC AF30659C
Copy CRC AF30659C
Track not present in AccurateRip database
Copy OK

Track 16

Filename C:\EAC\Emma Hewitt - Burn The Sky Down (2012) [FLAC]\CD2\16 - Emma Hewitt - Foolish Boy (KATFYR Remix).wav

Peak level 96.1 %
Extraction speed 13.3 X
Track quality 100.0 %
Test CRC D3110552
Copy CRC D3110552
Track not present in AccurateRip database
Copy OK

Track 17

Filename C:\EAC\Emma Hewitt - Burn The Sky Down (2012) [FLAC]\CD2\17 - Emma Hewitt - Miss You Paradise (Venom One Remix).wav

Peak level 93.0 %
Extraction speed 7.5 X
Track quality 99.9 %
Test CRC F9F959DA
Copy CRC F9F959DA
Track not present in AccurateRip database
Copy OK

None of the tracks are present in the AccurateRip database

No errors occurred

End of status report

---- CUETools DB Plugin V2.1.3

[CTDB TOCID: O6LcmBOii3t2OO4yO20qq5LFs3U-] disk not present in database, Submit result: O6LcmBOii3t2OO4yO20qq5LFs3U- has been uploaded

==== Log checksum 30E3F4980EC5605EAF8948890D7384562D99961F62C360BD547FB632C49332C3 ====
REM GENRE Electronic 
REM DATE 2012
REM DISCID E70F0311
REM COMMENT "ExactAudioCopy v1.0b3"
CATALOG 8718522008276
PERFORMER "Emma Hewitt"
TITLE "Burn The Sky Down"
FILE "01 - Emma Hewitt - Burn The Sky Down.wav" WAVE
TRACK 01 AUDIO
TITLE "Burn The Sky Down"
PERFORMER "Emma Hewitt"
ISRC NLF711203236
INDEX 01 00:00:00
FILE "02 - Emma Hewitt - Colours.wav" WAVE
TRACK 02 AUDIO
TITLE "Colours"
PERFORMER "Emma Hewitt"
ISRC NLF711104572
INDEX 01 00:00:00
FILE "03 - Emma Hewitt - Miss You Paradise.wav" WAVE
TRACK 03 AUDIO
TITLE "Miss You Paradise"
PERFORMER "Emma Hewitt"
ISRC NLF711203126
INDEX 01 00:00:00
FILE "04 - Emma Hewitt - These Days Are Ours.wav" WAVE
TRACK 04 AUDIO
TITLE "These Days Are Ours"
PERFORMER "Emma Hewitt"
ISRC NLF711203240
INDEX 01 00:00:00
FILE "05 - Emma Hewitt - Foolish Boy.wav" WAVE
TRACK 05 AUDIO
TITLE "Foolish Boy"
PERFORMER "Emma Hewitt"
ISRC NLF711203241
INDEX 01 00:00:00
FILE "06 - Emma Hewitt - Rewind.wav" WAVE
TRACK 06 AUDIO
TITLE "Rewind"
PERFORMER "Emma Hewitt"
ISRC NLF711203242
INDEX 01 00:00:00
FILE "07 - Emma Hewitt - Still Remember You (Stay Forever).wav" WAVE
TRACK 07 AUDIO
TITLE "Still Remember You (Stay Forever)"
PERFORMER "Emma Hewitt"
ISRC NLF711203243
INDEX 01 00:00:00
FILE "08 - Emma Hewitt - Can't Turn Around Now.wav" WAVE
TRACK 08 AUDIO
TITLE "Can't Turn Around Now"
PERFORMER "Emma Hewitt"
ISRC NLF711203237
INDEX 01 00:00:00
FILE "09 - Emma Hewitt - Crucify.wav" WAVE
TRACK 09 AUDIO
TITLE "Crucify"
PERFORMER "Emma Hewitt"
ISRC NLF711203238
INDEX 01 00:00:00
FILE "10 - Emma Hewitt - This Picture.wav" WAVE
TRACK 10 AUDIO
TITLE "This Picture"
PERFORMER "Emma Hewitt"
ISRC NLF711203244
INDEX 01 00:00:00
FILE "11 - Emma Hewitt - State That I'm In.wav" WAVE
TRACK 11 AUDIO
TITLE "State That I'm In"
PERFORMER "Emma Hewitt"
ISRC NLF711203239
INDEX 01 00:00:00
FILE "12 - Emma Hewitt & 16 Bit Lolitas - Circles.wav" WAVE
TRACK 12 AUDIO
TITLE "Circles"
PERFORMER "Emma Hewitt & 16 Bit Lolitas"
ISRC NLF711203245
INDEX 01 00:00:00
FILE "13 - Emma Hewitt - These Days Are Ours (Zetandel Chill Out Mix).wav" WAVE
TRACK 13 AUDIO
TITLE "These Days Are Ours (Zetandel Chill Out Mix)"
PERFORMER "Emma Hewitt"
ISRC NLF711203768
INDEX 01 00:00:00
FILE "14 - Emma Hewitt - State That I'm In (16 Bit Lolitas Remix).wav" WAVE
TRACK 14 AUDIO
TITLE "State That I'm In (16 Bit Lolitas Remix)"
PERFORMER "Emma Hewitt"
ISRC NLF711204119
INDEX 01 00:00:00
FILE "15 - Emma Hewitt & 16 Bit Lolitas - Circles (Blumpy Remix).wav" WAVE
TRACK 15 AUDIO
TITLE "Circles (Blumpy Remix)"
PERFORMER "Emma Hewitt & 16 Bit Lolitas"
ISRC NLF711204120
INDEX 01 00:00:00
FILE "16 - Emma Hewitt - Miss You Paradise (Strings & Accoustic Version).wav" WAVE
TRACK 16 AUDIO
TITLE "Miss You Paradise (Strings & Accoustic Version)"
PERFORMER "Emma Hewitt"
ISRC NLF711203210
INDEX 01 00:00:00
FILE "17 - Emma Hewitt - Colours (Strings & Vocals Mix).wav" WAVE
TRACK 17 AUDIO
TITLE "Colours (Strings & Vocals Mix)"
PERFORMER "Emma Hewitt"
ISRC NLF711200078
INDEX 01 00:00:00
REM GENRE Electronic 
REM DATE 2012
REM DISCID EC0FE711
REM COMMENT "ExactAudioCopy v1.0b3"
CATALOG 8718522008276
PERFORMER "Emma Hewitt"
TITLE "Burn The Sky Down"
FILE "01 - Emma Hewitt - Colours (Armin Van Buuren Remix).wav" WAVE
TRACK 01 AUDIO
TITLE "Colours (Armin Van Buuren Remix)"
PERFORMER "Emma Hewitt"
ISRC NLF711200075
INDEX 01 00:00:00
FILE "02 - Emma Hewitt - Miss You Paradise (Shogun Remix).wav" WAVE
TRACK 02 AUDIO
TITLE "Miss You Paradise (Shogun Remix)"
PERFORMER "Emma Hewitt"
ISRC NLF711203128
INDEX 01 00:00:00
FILE "03 - Emma Hewitt - Foolish Boy (Ivan Gough & Luke Chable Remix).wav" WAVE
TRACK 03 AUDIO
TITLE "Foolish Boy (Ivan Gough & Luke Chable Remix)"
PERFORMER "Emma Hewitt"
ISRC NLF711204121
INDEX 01 00:00:00
FILE "04 - Emma Hewitt - These Days Are Ours (Antillas & Dankann Remix).wav" WAVE
TRACK 04 AUDIO
TITLE "These Days Are Ours (Antillas & Dankann Remix)"
PERFORMER "Emma Hewitt"
ISRC NLF711204122
INDEX 01 00:00:00
FILE "05 - Emma Hewitt - Crucify (Arnej Remix).wav" WAVE
TRACK 05 AUDIO
TITLE "Crucify (Arnej Remix)"
PERFORMER "Emma Hewitt"
ISRC NLF711204123
INDEX 01 00:00:00
FILE "06 - Emma Hewitt - This Picture (Marlo Remix).wav" WAVE
TRACK 06 AUDIO
TITLE "This Picture (Marlo Remix)"
PERFORMER "Emma Hewitt"
ISRC NLF711204124
INDEX 01 00:00:00
FILE "07 - Emma Hewitt - Rewind (Dabruck & Klein Remix).wav" WAVE
TRACK 07 AUDIO
TITLE "Rewind (Dabruck & Klein Remix)"
PERFORMER "Emma Hewitt"
ISRC NLF711204125
INDEX 01 00:00:00
FILE "08 - Emma Hewitt - Miss You Paradise (Morgan Page Remix).wav" WAVE
TRACK 08 AUDIO
TITLE "Miss You Paradise (Morgan Page Remix)"
PERFORMER "Emma Hewitt"
ISRC NLF711203130
INDEX 01 00:00:00
FILE "09 - Emma Hewitt - Foolish Boy (John O'Callaghan Remix).wav" WAVE
TRACK 09 AUDIO
TITLE "Foolish Boy (John O'Callaghan Remix)"
PERFORMER "Emma Hewitt"
ISRC NLF711204127
INDEX 01 00:00:00
FILE "10 - Emma Hewitt - Rewind (KATFYR Remix).wav" WAVE
TRACK 10 AUDIO
TITLE "Rewind (KATFYR Remix)"
PERFORMER "Emma Hewitt"
ISRC NLF711204128
INDEX 01 00:00:00
FILE "11 - Emma Hewitt - Colours (Cosmix Gate Remix).wav" WAVE
TRACK 11 AUDIO
TITLE "Colours (Cosmix Gate Remix)"
PERFORMER "Emma Hewitt"
ISRC NLF711202353
INDEX 01 00:00:00
FILE "12 - Emma Hewitt & 16 Bit Lolitas - Circles (Pedro Del Mar & Doublev Remix).wav" WAVE
TRACK 12 AUDIO
TITLE "Circles (Pedro Del Mar & Doublev Remix)"
PERFORMER "Emma Hewitt & 16 Bit Lolitas"
ISRC NLF711204126
INDEX 01 00:00:00
FILE "13 - Emma Hewitt - Crucify (Marlo Remix).wav" WAVE
TRACK 13 AUDIO
TITLE "Crucify (Marlo Remix)"
PERFORMER "Emma Hewitt"
ISRC NLF711204129
INDEX 01 00:00:00
FILE "14 - Emma Hewitt - Colours (Jerome Isma-Ae Remix).wav" WAVE
TRACK 14 AUDIO
TITLE "Colours (Jerome Isma-Ae Remix)"
PERFORMER "Emma Hewitt"
ISRC NLF711201668
INDEX 01 00:00:00
FILE "15 - Emma Hewitt - Rewind (tyDi Remix).wav" WAVE
TRACK 15 AUDIO
TITLE "Rewind (tyDi Remix)"
PERFORMER "Emma Hewitt"
ISRC NLF711203849
INDEX 01 00:00:00
FILE "16 - Emma Hewitt - Foolish Boy (KATFYR Remix).wav" WAVE
TRACK 16 AUDIO
TITLE "Foolish Boy (KATFYR Remix)"
PERFORMER "Emma Hewitt"
ISRC NLF711204130
INDEX 01 00:00:00
FILE "17 - Emma Hewitt - Miss You Paradise (Venom One Remix).wav" WAVE
TRACK 17 AUDIO
TITLE "Miss You Paradise (Venom One Remix)"
PERFORMER "Emma Hewitt"
ISRC NLF711203207
INDEX 01 00:00:00
info [Профиль]  [ЛС] 
Показать сообщения:    
Ответить на тему

Текущее время: 19-Май 23:11

Часовой пояс: GMT + 4



Вы не можете начинать темы
Вы не можете отвечать на сообщения
Вы не можете редактировать свои сообщения
Вы не можете удалять свои сообщения
Вы не можете голосовать в опросах
Вы не можете прикреплять файлы к сообщениям
Вы не можете скачивать файлы