Ошибка

(Hip-Hop) Lupe Fiasco - Food & Liquor II: The Great American Rap Album Pt. 1 - 2012, Flac (tracks+.cue), lossless

Ответить на тему
 
Автор Сообщение

Raxent

Пол: Пол:Муж

Стаж: 12 лет

Сообщений: 219

Рейтинг

post 27-Сен-2012 15:11 1[+]

[Цитировать] 

Lupe Fiasco - Food & Liquor II: The Great American Rap Album Pt. 1

Жанр: Hip-Hop
Страна: USA/1st & 15th, Atlantic
Год издания: September 25, 2012
Аудиокодек: FLAC
Тип рипа: tracks+.cue
Битрейт аудио: lossless
Продолжительность: 01:08:58
Наличие сканов в содержимом раздачи: нет
01. Ayesha Says (Intro)
02. Strange Fruition (Feat. Casey Benjamin)
03. ITAL (Roses)
04. Around My Way (Freedom Ain't Free)
05. Audubon Ballroom
06. Bitch Bad
07. Lamborghini Angels
08. Put 'Em Up
09. Heart Donor (Feat. Poo Bear)
10. How Dare You (Feat. Bilal)
11. Battle Scars (Feat. Guy Sebastian)
12. Brave Heart (Feat. Poo Bear)
13. Form Follows Function
14. Cold War (Feat. Jane)
15. Unforgivable Youth (Feat. Jason Evigan)
16. Hood Now (Outro)
17. Things We Must Do For Others

 
Exact Audio Copy V1.0 beta 3 from 29. August 2011

EAC extraction logfile from 25. September 2012, 13:48

Lupe Fiasco / Food & Liquor II: The Great American Rap Album, Part 1

Used drive : HL-DT-STBDDVDRW GBC-H20L Adapter: 2 ID: 1

Read mode : Secure
Utilize accurate stream : Yes
Defeat audio cache : Yes
Make use of C2 pointers : No

Read offset correction : 667
Overread into Lead-In and Lead-Out : No
Fill up missing offset samples with silence : Yes
Delete leading and trailing silent blocks : No
Null samples used in CRC calculations : Yes
Used interface : Native Win32 interface for Win NT & 2000
Gap handling : Appended to previous track

Used output format : User Defined Encoder
Selected bitrate : 1024 kBit/s
Quality : High
Add ID3 tag : No
Command line compressor : C:\Program Files (x86)\Exact Audio Copy\Flac\flac.exe
Additional command line options : -8 -V -T "ARTIST=%artist%" -T "TITLE=%title%" -T "ALBUM=%albumtitle%" -T "DATE=%year%" -T "TRACKNUMBER=%tracknr%" -T "GENRE=%genre%" -T "PERFORMER=%albuminterpret%" -T "COMPOSER=%composer%" %haslyrics%--tag-from-file=LYRICS="%lyricsfile%"%haslyrics% -T "ALBUMARTIST=%albumartist%" -T "DISCNUMBER=%cdnumber%" -T "TOTALDISCS=%totalcds%" -T "TOTALTRACKS=%numtracks%" -T "COMMENT=%comment%" %source% -o %dest%

TOC of the extracted CD

Track | Start | Length | Start sector | End sector
---------------------------------------------------------
1 | 0:00.00 | 1:56.62 | 0 | 8761
2 | 1:56.62 | 3:41.65 | 8762 | 25401
3 | 5:38.52 | 4:24.57 | 25402 | 45258
4 | 10:03.34 | 4:15.58 | 45259 | 64441
5 | 14:19.17 | 4:40.26 | 64442 | 85467
6 | 18:59.43 | 4:49.32 | 85468 | 107174
7 | 23:49.00 | 3:16.19 | 107175 | 121893
8 | 27:05.19 | 3:56.27 | 121894 | 139620
9 | 31:01.46 | 4:00.03 | 139621 | 157623
10 | 35:01.49 | 4:09.13 | 157624 | 176311
11 | 39:10.62 | 4:10.24 | 176312 | 195085
12 | 43:21.11 | 3:25.65 | 195086 | 210525
13 | 46:47.01 | 4:22.67 | 210526 | 230242
14 | 51:09.68 | 6:27.05 | 230243 | 259272
15 | 57:36.73 | 4:55.41 | 259273 | 281438
16 | 62:32.39 | 6:21.37 | 281439 | 310050
17 | 68:54.01 | 0:12.34 | 310051 | 310984

Track 1

Filename C:\EAC Rips\Lupe Fiasco - Food & Liquor II - The Great American Rap Album, Part 1\01 - Ayesha Says (intro).wav

Pre-gap length 0:00:02.00

Peak level 53.6 %
Extraction speed 2.1 X
Track quality 99.9 %
Test CRC C17B47FB
Copy CRC C17B47FB
Track not present in AccurateRip database
Copy OK

Track 2

Filename C:\EAC Rips\Lupe Fiasco - Food & Liquor II - The Great American Rap Album, Part 1\02 - Strange Fruition (feat. Casey Benjamin).wav

Peak level 100.0 %
Extraction speed 3.7 X
Track quality 100.0 %
Test CRC 79DDC40F
Copy CRC 79DDC40F
Track not present in AccurateRip database
Copy OK

Track 3

Filename C:\EAC Rips\Lupe Fiasco - Food & Liquor II - The Great American Rap Album, Part 1\03 - ITAL (Roses).wav

Peak level 100.0 %
Extraction speed 4.2 X
Track quality 100.0 %
Test CRC 777371A2
Copy CRC 777371A2
Track not present in AccurateRip database
Copy OK

Track 4

Filename C:\EAC Rips\Lupe Fiasco - Food & Liquor II - The Great American Rap Album, Part 1\04 - Around My Way (Freedom Ain't Free).wav

Peak level 98.8 %
Extraction speed 4.5 X
Track quality 100.0 %
Test CRC 5F8A311D
Copy CRC 5F8A311D
Track not present in AccurateRip database
Copy OK

Track 5

Filename C:\EAC Rips\Lupe Fiasco - Food & Liquor II - The Great American Rap Album, Part 1\05 - Audubon Ballroom.wav

Peak level 100.0 %
Extraction speed 4.8 X
Track quality 100.0 %
Test CRC BE745A81
Copy CRC BE745A81
Track not present in AccurateRip database
Copy OK

Track 6

Filename C:\EAC Rips\Lupe Fiasco - Food & Liquor II - The Great American Rap Album, Part 1\06 - Bitch Bad.wav

Peak level 98.8 %
Extraction speed 5.1 X
Track quality 100.0 %
Test CRC 244E873B
Copy CRC 244E873B
Track not present in AccurateRip database
Copy OK

Track 7

Filename C:\EAC Rips\Lupe Fiasco - Food & Liquor II - The Great American Rap Album, Part 1\07 - Lamborghini Angels.wav

Peak level 100.0 %
Extraction speed 5.2 X
Track quality 100.0 %
Test CRC 42FA72FA
Copy CRC 42FA72FA
Track not present in AccurateRip database
Copy OK

Track 8

Filename C:\EAC Rips\Lupe Fiasco - Food & Liquor II - The Great American Rap Album, Part 1\08 - Put Em Up.wav

Peak level 100.0 %
Extraction speed 4.4 X
Track quality 99.9 %
Test CRC EF8553A7
Copy CRC EF8553A7
Track not present in AccurateRip database
Copy OK

Track 9

Filename C:\EAC Rips\Lupe Fiasco - Food & Liquor II - The Great American Rap Album, Part 1\09 - Heart Donor (feat. Poo Bear).wav

Peak level 100.0 %
Extraction speed 4.6 X
Track quality 99.9 %
Test CRC 11D02EA9
Copy CRC 11D02EA9
Track not present in AccurateRip database
Copy OK

Track 10

Filename C:\EAC Rips\Lupe Fiasco - Food & Liquor II - The Great American Rap Album, Part 1\10 - How Dare You (feat. Bilal).wav

Peak level 100.0 %
Extraction speed 5.8 X
Track quality 100.0 %
Test CRC B9A90144
Copy CRC B9A90144
Track not present in AccurateRip database
Copy OK

Track 11

Filename C:\EAC Rips\Lupe Fiasco - Food & Liquor II - The Great American Rap Album, Part 1\11 - Battle Scars (with Guy Sebastian).wav

Peak level 100.0 %
Extraction speed 5.0 X
Track quality 99.9 %
Test CRC 1A24A6B8
Copy CRC 1A24A6B8
Track not present in AccurateRip database
Copy OK

Track 12

Filename C:\EAC Rips\Lupe Fiasco - Food & Liquor II - The Great American Rap Album, Part 1\12 - Brave Heart (feat. Poo Bear).wav

Peak level 100.0 %
Extraction speed 6.2 X
Track quality 100.0 %
Test CRC A0D79CDE
Copy CRC A0D79CDE
Track not present in AccurateRip database
Copy OK

Track 13

Filename C:\EAC Rips\Lupe Fiasco - Food & Liquor II - The Great American Rap Album, Part 1\13 - Form Follows Function.wav

Peak level 100.0 %
Extraction speed 6.4 X
Track quality 100.0 %
Test CRC FE1E2048
Copy CRC FE1E2048
Track not present in AccurateRip database
Copy OK

Track 14

Filename C:\EAC Rips\Lupe Fiasco - Food & Liquor II - The Great American Rap Album, Part 1\14 - Cold War (feat. Jane $$$).wav

Peak level 100.0 %
Extraction speed 6.1 X
Track quality 99.9 %
Test CRC 582B66DE
Copy CRC 582B66DE
Track not present in AccurateRip database
Copy OK

Track 15

Filename C:\EAC Rips\Lupe Fiasco - Food & Liquor II - The Great American Rap Album, Part 1\15 - Unforgivable Youth (feat. Jason Evigan).wav

Peak level 100.0 %
Extraction speed 7.1 X
Track quality 100.0 %
Test CRC CD90D7C9
Copy CRC CD90D7C9
Track not present in AccurateRip database
Copy OK

Track 16

Filename C:\EAC Rips\Lupe Fiasco - Food & Liquor II - The Great American Rap Album, Part 1\16 - Hood Now (outro).wav

Peak level 100.0 %
Extraction speed 7.4 X
Track quality 100.0 %
Test CRC B627510D
Copy CRC B627510D
Track not present in AccurateRip database
Copy OK

Track 17

Filename C:\EAC Rips\Lupe Fiasco - Food & Liquor II - The Great American Rap Album, Part 1\17 - Things We Must Do for Others.wav

Peak level 26.5 %
Extraction speed 2.2 X
Track quality 100.0 %
Test CRC 9B65D934
Copy CRC 9B65D934
Track not present in AccurateRip database
Copy OK

None of the tracks are present in the AccurateRip database

No errors occurred

End of status report

---- CUETools DB Plugin V2.1.3

[CTDB TOCID: _aCjJRAYVCTaGcgK8jN6ih4EANo-] disk not present in database, Submit result: _aCjJRAYVCTaGcgK8jN6ih4EANo- has been uploaded

==== Log checksum 5A13120CEAC2F35B17EBA1072DF75C882C8D948EC6BD0FA48CB5A0176B692869 ====
 
REM DATE 2012
REM DISCID CF103211
REM COMMENT "ExactAudioCopy v1.0b3"
CATALOG 0075678762918
PERFORMER "Lupe Fiasco"
TITLE "Food & Liquor II: The Great American Rap Album, Part 1"
FILE "01 - Ayesha Says (intro).flac" WAVE
TRACK 01 AUDIO
TITLE "Ayesha Says (intro)"
PERFORMER "Lupe Fiasco"
FLAGS DCP
INDEX 01 00:00:00
FILE "02 - Strange Fruition (feat. Casey Benjamin).flac" WAVE
TRACK 02 AUDIO
TITLE "Strange Fruition (feat. Casey Benjamin)"
PERFORMER "Lupe Fiasco"
ISRC USAT21204158
FLAGS DCP
INDEX 01 00:00:00
FILE "03 - ITAL (Roses).flac" WAVE
TRACK 03 AUDIO
TITLE "ITAL (Roses)"
PERFORMER "Lupe Fiasco"
ISRC USAT21204168
FLAGS DCP
INDEX 01 00:00:00
FILE "04 - Around My Way (Freedom Ain't Free).flac" WAVE
TRACK 04 AUDIO
TITLE "Around My Way (Freedom Ain't Free)"
PERFORMER "Lupe Fiasco"
ISRC USAT21202268
FLAGS DCP
INDEX 01 00:00:00
FILE "05 - Audubon Ballroom.flac" WAVE
TRACK 05 AUDIO
TITLE "Audubon Ballroom"
PERFORMER "Lupe Fiasco"
ISRC USAT21204163
FLAGS DCP
INDEX 01 00:00:00
FILE "06 - Bitch Bad.flac" WAVE
TRACK 06 AUDIO
TITLE "Bitch Bad"
PERFORMER "Lupe Fiasco"
ISRC USAT21202779
FLAGS DCP
INDEX 01 00:00:00
FILE "07 - Lamborghini Angels.flac" WAVE
TRACK 07 AUDIO
TITLE "Lamborghini Angels"
PERFORMER "Lupe Fiasco"
ISRC USAT21204165
FLAGS DCP
INDEX 01 00:00:00
FILE "08 - Put Em Up.flac" WAVE
TRACK 08 AUDIO
TITLE "Put Em Up"
PERFORMER "Lupe Fiasco"
ISRC USAT21204162
FLAGS DCP
INDEX 01 00:00:00
FILE "09 - Heart Donor (feat. Poo Bear).flac" WAVE
TRACK 09 AUDIO
TITLE "Heart Donor (feat. Poo Bear)"
PERFORMER "Lupe Fiasco"
ISRC USAT21204164
FLAGS DCP
INDEX 01 00:00:00
FILE "10 - How Dare You (feat. Bilal).flac" WAVE
TRACK 10 AUDIO
TITLE "How Dare You (feat. Bilal)"
PERFORMER "Lupe Fiasco"
ISRC USAT21204160
FLAGS DCP
INDEX 01 00:00:00
FILE "11 - Battle Scars (with Guy Sebastian).flac" WAVE
TRACK 11 AUDIO
TITLE "Battle Scars (with Guy Sebastian)"
PERFORMER "Lupe Fiasco"
ISRC AUBM01200186
FLAGS DCP
INDEX 01 00:00:00
FILE "12 - Brave Heart (feat. Poo Bear).flac" WAVE
TRACK 12 AUDIO
TITLE "Brave Heart (feat. Poo Bear)"
PERFORMER "Lupe Fiasco"
ISRC USAT21204159
FLAGS DCP
INDEX 01 00:00:00
FILE "13 - Form Follows Function.flac" WAVE
TRACK 13 AUDIO
TITLE "Form Follows Function"
PERFORMER "Lupe Fiasco"
ISRC USAT21204161
FLAGS DCP
INDEX 01 00:00:00
FILE "14 - Cold War (feat. Jane $$$).flac" WAVE
TRACK 14 AUDIO
TITLE "Cold War (feat. Jane $$$)"
PERFORMER "Lupe Fiasco"
ISRC USAT21204166
FLAGS DCP
INDEX 01 00:00:00
FILE "15 - Unforgivable Youth (feat. Jason Evigan).flac" WAVE
TRACK 15 AUDIO
TITLE "Unforgivable Youth (feat. Jason Evigan)"
PERFORMER "Lupe Fiasco"
ISRC USAT21204167
FLAGS DCP
INDEX 01 00:00:00
FILE "16 - Hood Now (outro).flac" WAVE
TRACK 16 AUDIO
TITLE "Hood Now (outro)"
PERFORMER "Lupe Fiasco"
ISRC USAT21204169
FLAGS DCP
INDEX 01 00:00:00
FILE "17 - Things We Must Do for Others.flac" WAVE
TRACK 17 AUDIO
TITLE "Things We Must Do for Others"
PERFORMER "Lupe Fiasco"
ISRC USAT21204366
FLAGS DCP
INDEX 01 00:00:00
info [Профиль]  [ЛС] 

post 27-Сен-2012 15:11 (спустя 25 секунд) [-]0[+]

Топик был перенесен из форума Оформление раздач в форум Зарубежный Rap, Hip-Hop, R'n'B (lossless)

saGambit
 
Показать сообщения:    
Ответить на тему

Текущее время: 27-Май 10:03

Часовой пояс: GMT + 4



Вы не можете начинать темы
Вы не можете отвечать на сообщения
Вы не можете редактировать свои сообщения
Вы не можете удалять свои сообщения
Вы не можете голосовать в опросах
Вы не можете прикреплять файлы к сообщениям
Вы не можете скачивать файлы