Ошибка

(Rap, Hip-Hop) Slaughterhouse - Welcome to: Our House - 2012, FLAC (tracks+.cue), lossless

Ответить на тему
 
Автор Сообщение

kossmos

Пол: Пол:Муж

Стаж: 12 лет

Сообщений: 269

Украина
Рейтинг

post 29-Авг-2012 08:09 1[+]

[Цитировать] 

Slaughterhouse - Welcome to: Our House


pic="http://s002.youpic.su/pictures/1346184000/763c8b73d2230697d5fa978f1711d30f.jpg"


Жанр: Rap, Hip-Hop
Год издания данного носителя: 2012
Лейбл: Shady Records
Аудио кодек: FLAC
Тип рипа: tracks+.cue
Битрейт аудио: lossless
Продолжительность: 01:20:39
Источник (релизер): What.CD (playr852000)
Полиграфия: Отсутствует

Треклист:
01. The Slaughter (1:17)
02. Our House Feat Eminem and Skylar Grey (5:58)
03. Coffin Feat Busta Ryhmes (3:41)
04. Throw that Feat Eminem (3:58)
05. Hammer Dance (3:44)
06. Get Up (5:02)
07. My Life Feat Ceelo Green (4:21)
08. We Did it (0:41)
09. Flip A Bird (4:20)
10. Throw it Away Feat Swizz Beatz (4:15)
11. Rescue Me Feat Skylar Grey (3:40)
12. Frat House (3:48)
13. Goodbye (5:02)
14. Park it Sideways (3:56)
15. Die (5:04)
16. Our Way (5:40)
17. Asylum Feat Eminem (4:03)
18. Walk of Shame (4:06)
19. The Other Side (4:09)
20. Place to Be Feat B.O.B (3:54)
Exact Audio Copy V1.0 beta 3 from 29. August 2011 

EAC extraction logfile from 28. August 2012, 15:16

Slaughterhouse / Welcome To Our House

Used drive : HL-DT-STBDDVDRW GBC-H20L Adapter: 2 ID: 1

Read mode : Secure
Utilize accurate stream : Yes
Defeat audio cache : Yes
Make use of C2 pointers : No

Read offset correction : 667
Overread into Lead-In and Lead-Out : No
Fill up missing offset samples with silence : Yes
Delete leading and trailing silent blocks : No
Null samples used in CRC calculations : Yes
Used interface : Native Win32 interface for Win NT & 2000
Gap handling : Appended to previous track

Used output format : User Defined Encoder
Selected bitrate : 1024 kBit/s
Quality : High
Add ID3 tag : No
Command line compressor : C:Program Files (x86)Exact Audio CopyFlacflac.exe
Additional command line options : -8 -V -T "ARTIST=%artist%" -T "TITLE=%title%" -T "ALBUM=%albumtitle%" -T "DATE=%year%" -T "TRACKNUMBER=%tracknr%" -T "GENRE=%genre%" -T "PERFORMER=%albuminterpret%" -T "COMPOSER=%composer%" %haslyrics%--tag-from-file=LYRICS="%lyricsfile%"%haslyrics% -T "ALBUMARTIST=%albumartist%" -T "DISCNUMBER=%cdnumber%" -T "TOTALDISCS=%totalcds%" -T "TOTALTRACKS=%numtracks%" -T "COMMENT=%comment%" %source% -o %dest%

TOC of the extracted CD

Track | Start | Length | Start sector | End sector
---------------------------------------------------------
1 | 0:00.00 | 1:16.59 | 0 | 5758
2 | 1:16.59 | 5:58.12 | 5759 | 32620
3 | 7:14.71 | 3:41.04 | 32621 | 49199
4 | 10:56.00 | 3:57.43 | 49200 | 67017
5 | 14:53.43 | 3:43.56 | 67018 | 83798
6 | 18:37.24 | 5:01.67 | 83799 | 106440
7 | 23:39.16 | 4:21.19 | 106441 | 126034
8 | 28:00.35 | 0:41.20 | 126035 | 129129
9 | 28:41.55 | 4:20.03 | 129130 | 148632
10 | 33:01.58 | 4:15.21 | 148633 | 167778
11 | 37:17.04 | 3:39.38 | 167779 | 184241
12 | 40:56.42 | 3:48.04 | 184242 | 201345
13 | 44:44.46 | 5:02.35 | 201346 | 224030
14 | 49:47.06 | 3:56.04 | 224031 | 241734
15 | 53:43.10 | 5:04.04 | 241735 | 264538
16 | 58:47.14 | 5:39.44 | 264539 | 290007
17 | 64:26.58 | 4:03.12 | 290008 | 308244
18 | 68:29.70 | 4:06.29 | 308245 | 326723
19 | 72:36.24 | 4:09.25 | 326724 | 345423
20 | 76:45.49 | 3:53.73 | 345424 | 362971

Track 1

Filename C:EAC RipsSlaughterhouse - Welcome To Our House (2012) [FLAC]�1 - The Slaughter (Skit).wav

Pre-gap length 0:00:02.00

Peak level 98.8 %
Extraction speed 2.7 X
Track quality 100.0 %
Test CRC 74AF6839
Copy CRC 74AF6839
Track not present in AccurateRip database
Copy OK

Track 2

Filename C:EAC RipsSlaughterhouse - Welcome To Our House (2012) [FLAC]�2 - Our House (feat. Eminem & Skylar Grey).wav

Peak level 98.8 %
Extraction speed 3.9 X
Track quality 100.0 %
Test CRC E28F6A55
Copy CRC E28F6A55
Track not present in AccurateRip database
Copy OK

Track 3

Filename C:EAC RipsSlaughterhouse - Welcome To Our House (2012) [FLAC]�3 - Coffin (feat. Busta Rhymes).wav

Peak level 99.5 %
Extraction speed 4.0 X
Track quality 100.0 %
Test CRC BB3C899B
Copy CRC BB3C899B
Track not present in AccurateRip database
Copy OK

Track 4

Filename C:EAC RipsSlaughterhouse - Welcome To Our House (2012) [FLAC]�4 - Throw That (feat. Eminem).wav

Peak level 98.8 %
Extraction speed 4.3 X
Track quality 100.0 %
Test CRC F94137F0
Copy CRC F94137F0
Track not present in AccurateRip database
Copy OK

Track 5

Filename C:EAC RipsSlaughterhouse - Welcome To Our House (2012) [FLAC]�5 - Hammer Dance.wav

Peak level 98.8 %
Extraction speed 3.6 X
Track quality 99.9 %
Test CRC 29729471
Copy CRC 29729471
Track not present in AccurateRip database
Copy OK

Track 6

Filename C:EAC RipsSlaughterhouse - Welcome To Our House (2012) [FLAC]�6 - Get Up.wav

Peak level 100.0 %
Extraction speed 5.1 X
Track quality 100.0 %
Test CRC 7A75D775
Copy CRC 7A75D775
Track not present in AccurateRip database
Copy OK

Track 7

Filename C:EAC RipsSlaughterhouse - Welcome To Our House (2012) [FLAC]�7 - My Life (feat. Ceelo Green).wav

Peak level 99.9 %
Extraction speed 4.3 X
Track quality 99.9 %
Test CRC 13A44013
Copy CRC 13A44013
Track not present in AccurateRip database
Copy OK

Track 8

Filename C:EAC RipsSlaughterhouse - Welcome To Our House (2012) [FLAC]�8 - We Did It (Skit).wav

Peak level 98.8 %
Extraction speed 3.2 X
Track quality 100.0 %
Test CRC 5F0976F8
Copy CRC 5F0976F8
Track not present in AccurateRip database
Copy OK

Track 9

Filename C:EAC RipsSlaughterhouse - Welcome To Our House (2012) [FLAC]�9 - Flip A Bird.wav

Peak level 98.8 %
Extraction speed 5.5 X
Track quality 100.0 %
Test CRC FC460BAE
Copy CRC FC460BAE
Track not present in AccurateRip database
Copy OK

Track 10

Filename C:EAC RipsSlaughterhouse - Welcome To Our House (2012) [FLAC]10 - Throw It Away (feat. Swizz Beatz).wav

Peak level 99.3 %
Extraction speed 4.6 X
Track quality 99.9 %
Test CRC 0329E606
Copy CRC 0329E606
Track not present in AccurateRip database
Copy OK

Track 11

Filename C:EAC RipsSlaughterhouse - Welcome To Our House (2012) [FLAC]11 - Rescue Me (feat. Skylar Grey).wav

Peak level 99.9 %
Extraction speed 5.7 X
Track quality 100.0 %
Test CRC 9D77F670
Copy CRC 9D77F670
Track not present in AccurateRip database
Copy OK

Track 12

Filename C:EAC RipsSlaughterhouse - Welcome To Our House (2012) [FLAC]12 - Frat House.wav

Peak level 98.8 %
Extraction speed 4.7 X
Track quality 99.9 %
Test CRC 0D2F472B
Copy CRC 0D2F472B
Track not present in AccurateRip database
Copy OK

Track 13

Filename C:EAC RipsSlaughterhouse - Welcome To Our House (2012) [FLAC]13 - Goodbye.wav

Peak level 99.9 %
Extraction speed 5.3 X
Track quality 99.9 %
Test CRC 786BBC3A
Copy CRC 786BBC3A
Track not present in AccurateRip database
Copy OK

Track 14

Filename C:EAC RipsSlaughterhouse - Welcome To Our House (2012) [FLAC]14 - Park It Sideways.wav

Peak level 98.8 %
Extraction speed 5.1 X
Track quality 99.9 %
Test CRC 203808D8
Copy CRC 203808D8
Track not present in AccurateRip database
Copy OK

Track 15

Filename C:EAC RipsSlaughterhouse - Welcome To Our House (2012) [FLAC]15 - Die.wav

Peak level 100.0 %
Extraction speed 6.6 X
Track quality 100.0 %
Test CRC 4317957C
Copy CRC 4317957C
Track not present in AccurateRip database
Copy OK

Track 16

Filename C:EAC RipsSlaughterhouse - Welcome To Our House (2012) [FLAC]16 - Our Way (Outro).wav

Peak level 99.9 %
Extraction speed 5.9 X
Track quality 99.9 %
Test CRC D90D12B1
Copy CRC D90D12B1
Track not present in AccurateRip database
Copy OK

Track 17

Filename C:EAC RipsSlaughterhouse - Welcome To Our House (2012) [FLAC]17 - Asylum (feat. Eminem).wav

Peak level 100.0 %
Extraction speed 6.9 X
Track quality 100.0 %
Test CRC 82AA374C
Copy CRC 82AA374C
Track not present in AccurateRip database
Copy OK

Track 18

Filename C:EAC RipsSlaughterhouse - Welcome To Our House (2012) [FLAC]18 - Walk Of Shame.wav

Pre-gap length 0:00:00.56

Peak level 98.8 %
Extraction speed 7.0 X
Track quality 100.0 %
Test CRC 97BADA5E
Copy CRC 97BADA5E
Track not present in AccurateRip database
Copy OK

Track 19

Filename C:EAC RipsSlaughterhouse - Welcome To Our House (2012) [FLAC]19 - The Other Side.wav

Peak level 98.6 %
Extraction speed 5.8 X
Track quality 99.9 %
Test CRC 53569AFE
Copy CRC 53569AFE
Track not present in AccurateRip database
Copy OK

Track 20

Filename C:EAC RipsSlaughterhouse - Welcome To Our House (2012) [FLAC]20 - Place To Be (feat. B.O.B).wav

Peak level 99.7 %
Extraction speed 7.2 X
Track quality 100.0 %
Test CRC 93CF3DD3
Copy CRC 93CF3DD3
Track not present in AccurateRip database
Copy OK

None of the tracks are present in the AccurateRip database

No errors occurred

End of status report

---- CUETools DB Plugin V2.1.3

[CTDB TOCID: NlToXkvWwxhwEyaLuKfWy5pHYAk-] disk not present in database, Submit result: NlToXkvWwxhwEyaLuKfWy5pHYAk- has been uploaded

==== Log checksum 2C0694629B1EBD0BFAD395FE73296873D50F8017994D71AAE603BB0A1642D973 ====
REM GENRE Hip-Hop 
REM DATE 2012
REM DISCID 4812E714
REM COMMENT "ExactAudioCopy v1.0b3"
CATALOG 0602537077342
PERFORMER "Slaughterhouse"
TITLE "Welcome To Our House"
FILE "01 - The Slaughter (Skit).wav" WAVE
TRACK 01 AUDIO
TITLE "The Slaughter (Skit)"
PERFORMER "Slaughterhouse"
ISRC USUM71207972
INDEX 01 00:00:00
FILE "02 - Our House (feat. Eminem & Skylar Grey).wav" WAVE
TRACK 02 AUDIO
TITLE "Our House (feat. Eminem & Skylar Grey)"
PERFORMER "Slaughterhouse"
ISRC USUM71207971
INDEX 01 00:00:00
FILE "03 - Coffin (feat. Busta Rhymes).wav" WAVE
TRACK 03 AUDIO
TITLE "Coffin (feat. Busta Rhymes)"
PERFORMER "Slaughterhouse"
ISRC USUM71207982
INDEX 01 00:00:00
FILE "04 - Throw That (feat. Eminem).wav" WAVE
TRACK 04 AUDIO
TITLE "Throw That (feat. Eminem)"
PERFORMER "Slaughterhouse"
ISRC USUM71208148
INDEX 01 00:00:00
FILE "05 - Hammer Dance.wav" WAVE
TRACK 05 AUDIO
TITLE "Hammer Dance"
PERFORMER "Slaughterhouse"
ISRC USUM71208597
INDEX 01 00:00:00
FILE "06 - Get Up.wav" WAVE
TRACK 06 AUDIO
TITLE "Get Up"
PERFORMER "Slaughterhouse"
ISRC USUM71207988
INDEX 01 00:00:00
FILE "07 - My Life (feat. Ceelo Green).wav" WAVE
TRACK 07 AUDIO
TITLE "My Life (feat. Ceelo Green)"
PERFORMER "Slaughterhouse"
ISRC USUM71208765
INDEX 01 00:00:00
FILE "08 - We Did It (Skit).wav" WAVE
TRACK 08 AUDIO
TITLE "We Did It (Skit)"
PERFORMER "Slaughterhouse"
ISRC USUM71207989
INDEX 01 00:00:00
FILE "09 - Flip A Bird.wav" WAVE
TRACK 09 AUDIO
TITLE "Flip A Bird"
PERFORMER "Slaughterhouse"
ISRC USUM71207993
INDEX 01 00:00:00
FILE "10 - Throw It Away (feat. Swizz Beatz).wav" WAVE
TRACK 10 AUDIO
TITLE "Throw It Away (feat. Swizz Beatz)"
PERFORMER "Slaughterhouse"
ISRC USUM71208767
INDEX 01 00:00:00
FILE "11 - Rescue Me (feat. Skylar Grey).wav" WAVE
TRACK 11 AUDIO
TITLE "Rescue Me (feat. Skylar Grey)"
PERFORMER "Slaughterhouse"
ISRC USUM71207994
INDEX 01 00:00:00
FILE "12 - Frat House.wav" WAVE
TRACK 12 AUDIO
TITLE "Frat House"
PERFORMER "Slaughterhouse"
ISRC USUM71207997
INDEX 01 00:00:00
FILE "13 - Goodbye.wav" WAVE
TRACK 13 AUDIO
TITLE "Goodbye"
PERFORMER "Slaughterhouse"
ISRC USUM71208763
INDEX 01 00:00:00
FILE "14 - Park It Sideways.wav" WAVE
TRACK 14 AUDIO
TITLE "Park It Sideways"
PERFORMER "Slaughterhouse"
ISRC USUM71208001
INDEX 01 00:00:00
FILE "15 - Die.wav" WAVE
TRACK 15 AUDIO
TITLE "Die"
PERFORMER "Slaughterhouse"
ISRC USUM71208002
INDEX 01 00:00:00
FILE "16 - Our Way (Outro).wav" WAVE
TRACK 16 AUDIO
TITLE "Our Way (Outro)"
PERFORMER "Slaughterhouse"
ISRC USUM71208005
INDEX 01 00:00:00
FILE "17 - Asylum (feat. Eminem).wav" WAVE
TRACK 17 AUDIO
TITLE "Asylum (feat. Eminem)"
PERFORMER "Slaughterhouse"
ISRC USUM71208448
INDEX 01 00:00:00
TRACK 18 AUDIO
TITLE "Walk Of Shame"
PERFORMER "Slaughterhouse"
ISRC USUM71208449
INDEX 00 04:02:45
FILE "18 - Walk Of Shame.wav" WAVE
INDEX 01 00:00:00
FILE "19 - The Other Side.wav" WAVE
TRACK 19 AUDIO
TITLE "The Other Side"
PERFORMER "Slaughterhouse"
ISRC USUM71208450
INDEX 01 00:00:00
FILE "20 - Place To Be (feat. B.O.B).wav" WAVE
TRACK 20 AUDIO
TITLE "Place To Be (feat. B.O.B)"
PERFORMER "Slaughterhouse"
ISRC USUM71208451
INDEX 01 00:00:00
info [Профиль]  [ЛС] 

Destiny

Пол: Пол:Муж

Стаж: 9 лет

Сообщений: 149

Украина
Рейтинг

post 02-Сен-2012 20:53 (спустя 4 дня) [-]0[+]

[Цитировать] 

Ничего так альбом. Конечно от Слоперов ожидал большего, думал будет "мясо".
Да и Em порадовал.

Спасибо за lossless.

_________________
ОС - Windows 10 1607 LTSB
ЦП - Intel Core i7 2600K @ 3.40GHz
ОЗУ - 16 ГБ 2-канальная DDR3 @ 668 МГц (9-9-9-24)
Мат.плата - ASUSTeK COMPUTER INC. P8Z77-V LK (LGA1155)
Видеокарта - ASUS GeForce GTX 1070
ЖД - Western Digital Black 1TB
SSD - Samsung 860 Pro 512 gb
info [Профиль]  [ЛС] 
Показать сообщения:    
Ответить на тему

Текущее время: 29-Май 02:52

Часовой пояс: GMT + 4



Вы не можете начинать темы
Вы не можете отвечать на сообщения
Вы не можете редактировать свои сообщения
Вы не можете удалять свои сообщения
Вы не можете голосовать в опросах
Вы не можете прикреплять файлы к сообщениям
Вы не можете скачивать файлы