Ошибка

(Hip-Hop) Statik Selektah & Strong Arm Steady - Stereotype - 2012, FLAC (tracks+.cue), lossless

Ответить на тему
 
Автор Сообщение

Raxent

Пол: Пол:Муж

Стаж: 12 лет

Сообщений: 219

Рейтинг

post 18-Авг-2012 22:37 0[+]

[Цитировать] 

Statik Selektah & Strong Arm Steady - Stereotype
Жанр: Hip-Hop
Страна-производитель диска: USA
Год издания: 2012
Издатель: Stones Throw
Номер по каталогу: STH2299
Страна: USA
Аудиокодек: FLAC (*.flac)
Тип рипа: tracks+.cue
Битрейт аудио: lossless
Продолжительность: 00:54:57
Источник: what.cd (Monopatin)
Наличие сканов в содержимом раздачи: нет

01. Truth Of The Truth
02. Premium
03. Forever (feat. Chace Infinite)
04. Born Into It (feat. Bad Lucc)
05. Do Ya Thing Girl (JOOK) (feat. Casey Veggies & Picaso)
06. On My Job (feat. Skeme)
07. L.A. Blues (feat. Planet Asia & Tri-State)
08. Classic
09. Through The Motions (feat. David Banner & Fiend)
10. Married To The Game (feat. Chace Infinite & Double R)
11. Fair Fight (feat. Black Hippy)
12. Back On Up
13. Outta Control (feat. Reks)
14. Smoke On (feat. Dom Kennedy & Baby D)

 
Exact Audio Copy V1.0 beta 3 from 29. August 2011

EAC extraction logfile from 15. August 2012, 16:51

Strong Arm Steady and Statik Selektah / Stereotype

Used drive : Optiarc DVD RW AD-7585H Adapter: 1 ID: 0

Read mode : Secure
Utilize accurate stream : Yes
Defeat audio cache : Yes
Make use of C2 pointers : No

Read offset correction : 6
Overread into Lead-In and Lead-Out : No
Fill up missing offset samples with silence : Yes
Delete leading and trailing silent blocks : No
Null samples used in CRC calculations : Yes
Used interface : Native Win32 interface for Win NT & 2000
Gap handling : Appended to previous track

Used output format : User Defined Encoder
Selected bitrate : 320 kBit/s
Quality : High
Add ID3 tag : No
Command line compressor : C:\Program Files (x86)\Exact Audio Copy\Flac\flac.exe
Additional command line options : -V -8 -T "artist=%artist%" -T "title=%title%" -T "album=%albumtitle%" -T "date=%year%" -T "tracknumber=%tracknr%" -T "genre=%genre%" -5 %source%

TOC of the extracted CD

Track | Start | Length | Start sector | End sector
---------------------------------------------------------
1 | 0:00.00 | 3:24.09 | 0 | 15308
2 | 3:24.09 | 5:10.35 | 15309 | 38593
3 | 8:34.44 | 2:35.57 | 38594 | 50275
4 | 11:10.26 | 4:03.38 | 50276 | 68538
5 | 15:13.64 | 3:54.41 | 68539 | 86129
6 | 19:08.30 | 3:33.32 | 86130 | 102136
7 | 22:41.62 | 3:55.06 | 102137 | 119767
8 | 26:36.68 | 4:35.29 | 119768 | 140421
9 | 31:12.22 | 4:13.29 | 140422 | 159425
10 | 35:25.51 | 4:16.26 | 159426 | 178651
11 | 39:42.02 | 4:21.26 | 178652 | 198252
12 | 44:03.28 | 2:25.43 | 198253 | 209170
13 | 46:28.71 | 4:07.38 | 209171 | 227733
14 | 50:36.34 | 4:20.10 | 227734 | 247243

Track 1

Filename C:\Users\Julian\Music\Strong Arm Steady and Statik Selektah - Stereotype (FLAC)\Strong Arm Steady and Statik Selektah - Stereotype - 01 - Truth of the Truth.wav

Pre-gap length 0:00:02.00

Peak level 98.7 %
Extraction speed 1.0 X
Track quality 100.0 %
Test CRC 0662A9B0
Copy CRC 0662A9B0
Track not present in AccurateRip database
Copy OK

Track 2

Filename C:\Users\Julian\Music\Strong Arm Steady and Statik Selektah - Stereotype (FLAC)\Strong Arm Steady and Statik Selektah - Stereotype - 02 - Premium.wav

Peak level 98.7 %
Extraction speed 1.2 X
Track quality 100.0 %
Test CRC 9C6CD30A
Copy CRC 9C6CD30A
Track not present in AccurateRip database
Copy OK

Track 3

Filename C:\Users\Julian\Music\Strong Arm Steady and Statik Selektah - Stereotype (FLAC)\Strong Arm Steady and Statik Selektah - Stereotype - 03 - Forever.wav

Peak level 98.7 %
Extraction speed 1.2 X
Track quality 100.0 %
Test CRC 1455AE4D
Copy CRC 1455AE4D
Track not present in AccurateRip database
Copy OK

Track 4

Filename C:\Users\Julian\Music\Strong Arm Steady and Statik Selektah - Stereotype (FLAC)\Strong Arm Steady and Statik Selektah - Stereotype - 04 - Born Into It.wav

Peak level 98.7 %
Extraction speed 1.4 X
Track quality 100.0 %
Test CRC 6C220A0B
Copy CRC 6C220A0B
Track not present in AccurateRip database
Copy OK

Track 5

Filename C:\Users\Julian\Music\Strong Arm Steady and Statik Selektah - Stereotype (FLAC)\Strong Arm Steady and Statik Selektah - Stereotype - 05 - Do Ya Thang Girl (JOOK).wav

Peak level 98.7 %
Extraction speed 1.4 X
Track quality 100.0 %
Test CRC F1BBF16A
Copy CRC F1BBF16A
Track not present in AccurateRip database
Copy OK

Track 6

Filename C:\Users\Julian\Music\Strong Arm Steady and Statik Selektah - Stereotype (FLAC)\Strong Arm Steady and Statik Selektah - Stereotype - 06 - On My Job.wav

Peak level 99.9 %
Extraction speed 1.3 X
Track quality 99.9 %
Test CRC 9C30554A
Copy CRC 9C30554A
Track not present in AccurateRip database
Copy OK

Track 7

Filename C:\Users\Julian\Music\Strong Arm Steady and Statik Selektah - Stereotype (FLAC)\Strong Arm Steady and Statik Selektah - Stereotype - 07 - La Blues.wav

Peak level 98.7 %
Extraction speed 1.6 X
Track quality 100.0 %
Test CRC 346BE49E
Copy CRC 346BE49E
Track not present in AccurateRip database
Copy OK

Track 8

Filename C:\Users\Julian\Music\Strong Arm Steady and Statik Selektah - Stereotype (FLAC)\Strong Arm Steady and Statik Selektah - Stereotype - 08 - Classic.wav

Peak level 98.7 %
Extraction speed 1.7 X
Track quality 100.0 %
Test CRC 18F2C5E7
Copy CRC 18F2C5E7
Track not present in AccurateRip database
Copy OK

Track 9

Filename C:\Users\Julian\Music\Strong Arm Steady and Statik Selektah - Stereotype (FLAC)\Strong Arm Steady and Statik Selektah - Stereotype - 09 - Through the Motions.wav

Peak level 98.7 %
Extraction speed 1.8 X
Track quality 100.0 %
Test CRC 8F1F2092
Copy CRC 8F1F2092
Track not present in AccurateRip database
Copy OK

Track 10

Filename C:\Users\Julian\Music\Strong Arm Steady and Statik Selektah - Stereotype (FLAC)\Strong Arm Steady and Statik Selektah - Stereotype - 10 - Married To The Game.wav

Peak level 98.7 %
Extraction speed 1.9 X
Track quality 100.0 %
Test CRC 289FC2E6
Copy CRC 289FC2E6
Track not present in AccurateRip database
Copy OK

Track 11

Filename C:\Users\Julian\Music\Strong Arm Steady and Statik Selektah - Stereotype (FLAC)\Strong Arm Steady and Statik Selektah - Stereotype - 11 - Fair Fight.wav

Peak level 98.7 %
Extraction speed 1.9 X
Track quality 100.0 %
Test CRC 0C5274C9
Copy CRC 0C5274C9
Track not present in AccurateRip database
Copy OK

Track 12

Filename C:\Users\Julian\Music\Strong Arm Steady and Statik Selektah - Stereotype (FLAC)\Strong Arm Steady and Statik Selektah - Stereotype - 12 - Back On Up.wav

Peak level 98.7 %
Extraction speed 1.8 X
Track quality 100.0 %
Test CRC 6EC30551
Copy CRC 6EC30551
Track not present in AccurateRip database
Copy OK

Track 13

Filename C:\Users\Julian\Music\Strong Arm Steady and Statik Selektah - Stereotype (FLAC)\Strong Arm Steady and Statik Selektah - Stereotype - 13 - Outta Control.wav

Peak level 98.7 %
Extraction speed 2.0 X
Track quality 100.0 %
Test CRC 917A0396
Copy CRC 917A0396
Track not present in AccurateRip database
Copy OK

Track 14

Filename C:\Users\Julian\Music\Strong Arm Steady and Statik Selektah - Stereotype (FLAC)\Strong Arm Steady and Statik Selektah - Stereotype - 14 - Smoke On.wav

Peak level 98.8 %
Extraction speed 2.1 X
Track quality 100.0 %
Test CRC 1DF4104B
Copy CRC 1DF4104B
Track not present in AccurateRip database
Copy OK

None of the tracks are present in the AccurateRip database

No errors occurred

End of status report

---- CUETools DB Plugin V2.1.3

[CTDB TOCID: UdUK7qNyY35psZd1WdvdlfLMBBk-] found, Submit result: already submitted
[4cf93162] (1/1) Accurately ripped

==== Log checksum 4D37338BE908C723B950F07E1020805932A8C4ACA2A408F0DE8CD1B8CFDCB471 ====
 
REM GENRE Rap
REM DATE 2012
REM DISCID C10CE00E
REM COMMENT "ExactAudioCopy v1.0b3"
FILE "Strong Arm Steady and Statik Selektah - Stereotype - 01 - Truth of the Truth.wav" WAVE
TRACK 01 AUDIO
INDEX 01 00:00:00
FILE "Strong Arm Steady and Statik Selektah - Stereotype - 02 - Premium.wav" WAVE
TRACK 02 AUDIO
INDEX 01 00:00:00
FILE "Strong Arm Steady and Statik Selektah - Stereotype - 03 - Forever.wav" WAVE
TRACK 03 AUDIO
INDEX 01 00:00:00
FILE "Strong Arm Steady and Statik Selektah - Stereotype - 04 - Born Into It.wav" WAVE
TRACK 04 AUDIO
INDEX 01 00:00:00
FILE "Strong Arm Steady and Statik Selektah - Stereotype - 05 - Do Ya Thang Girl (JOOK).wav" WAVE
TRACK 05 AUDIO
INDEX 01 00:00:00
FILE "Strong Arm Steady and Statik Selektah - Stereotype - 06 - On My Job.wav" WAVE
TRACK 06 AUDIO
INDEX 01 00:00:00
FILE "Strong Arm Steady and Statik Selektah - Stereotype - 07 - La Blues.wav" WAVE
TRACK 07 AUDIO
INDEX 01 00:00:00
FILE "Strong Arm Steady and Statik Selektah - Stereotype - 08 - Classic.wav" WAVE
TRACK 08 AUDIO
INDEX 01 00:00:00
FILE "Strong Arm Steady and Statik Selektah - Stereotype - 09 - Through the Motions.wav" WAVE
TRACK 09 AUDIO
INDEX 01 00:00:00
FILE "Strong Arm Steady and Statik Selektah - Stereotype - 10 - Married To The Game.wav" WAVE
TRACK 10 AUDIO
INDEX 01 00:00:00
FILE "Strong Arm Steady and Statik Selektah - Stereotype - 11 - Fair Fight.wav" WAVE
TRACK 11 AUDIO
INDEX 01 00:00:00
FILE "Strong Arm Steady and Statik Selektah - Stereotype - 12 - Back On Up.wav" WAVE
TRACK 12 AUDIO
INDEX 01 00:00:00
FILE "Strong Arm Steady and Statik Selektah - Stereotype - 13 - Outta Control.wav" WAVE
TRACK 13 AUDIO
INDEX 01 00:00:00
FILE "Strong Arm Steady and Statik Selektah - Stereotype - 14 - Smoke On.wav" WAVE
TRACK 14 AUDIO
INDEX 01 00:00:00

info [Профиль]  [ЛС] 

post 19-Авг-2012 14:29 (спустя 15 часов) [-]0[+]

Топик был перенесен из форума Оформление раздач в форум Зарубежный Rap, Hip-Hop, R'n'B (lossless)

saGambit
 
Показать сообщения:    
Ответить на тему

Текущее время: 25-Май 02:12

Часовой пояс: GMT + 4



Вы не можете начинать темы
Вы не можете отвечать на сообщения
Вы не можете редактировать свои сообщения
Вы не можете удалять свои сообщения
Вы не можете голосовать в опросах
Вы не можете прикреплять файлы к сообщениям
Вы не можете скачивать файлы