Ошибка

(Hip-Hop) Reks - REBELutionary - 2012, FLAC (tracks+.cue), lossless

Ответить на тему
 
Автор Сообщение

Raxent

Пол: Пол:Муж

Стаж: 12 лет

Сообщений: 219

Рейтинг

post 29-Июл-2012 19:19 0[+]

[Цитировать] 

Reks - REBELutionary

pic="http://i42.fastpic.ru/big/2012/0725/b8/a0388592a03d927360db20823f225db8.jpg"


Жанр: Hip-Hop
Год издания данного носителя: 2012
Страна-производитель носителя: USA
Лейбл: Gracie Productions, MIM Ent.
Аудио кодек: FLAC
Тип рипа: tracks+.cue
Битрейт аудио: lossless
Продолжительность: 00:51:03
Источник (релизер): what.cd (Monopatin)
Полиграфия: Отсутствует
Треклист:
01. Intro
02. Unlearn
03. Hallelujah
04. Bang Bang (feat. J NiCS)
05. Shotgun (feat. Jon Connor & Venessa Renee)
06. War Is A Racket (Smedley Butler Interlude)
07. REBELutionary
08. Ignorance is Bliss (feat. Termanology)
09. Passports
10. Avarice (Interlude)
11. Avarice (feat. Knowledge Medina)
12. The Jones' (feat. Krondon)
13. The Edge (feat. Lucky Dice & Chi Knox)
14. La Luna (feat. Sene & Koncept)
15. Gepeto
16. Obedient Workers
17. Outro
18. Shotgun (Remix) (feat. Ea$y Money & Boycott Blues)
Exact Audio Copy V1.0 beta 3 from 29. August 2011 

EAC extraction logfile from 24. July 2012, 16:21

Reks / Rebelutionary

Used drive : Optiarc DVD RW AD-7585H Adapter: 1 ID: 0

Read mode : Secure
Utilize accurate stream : Yes
Defeat audio cache : Yes
Make use of C2 pointers : No

Read offset correction : 6
Overread into Lead-In and Lead-Out : No
Fill up missing offset samples with silence : Yes
Delete leading and trailing silent blocks : No
Null samples used in CRC calculations : Yes
Used interface : Native Win32 interface for Win NT & 2000
Gap handling : Appended to previous track

Used output format : User Defined Encoder
Selected bitrate : 320 kBit/s
Quality : High
Add ID3 tag : No
Command line compressor : C:Program Files (x86)Exact Audio CopyFlacflac.exe
Additional command line options : -V -8 -T "artist=%artist%" -T "title=%title%" -T "album=%albumtitle%" -T "date=%year%" -T "tracknumber=%tracknr%" -T "genre=%genre%" -5 %source%

TOC of the extracted CD

Track | Start | Length | Start sector | End sector
---------------------------------------------------------
1 | 0:00.00 | 1:14.19 | 0 | 5568
2 | 1:14.19 | 3:44.51 | 5569 | 22419
3 | 4:58.70 | 3:32.63 | 22420 | 38382
4 | 8:31.58 | 3:16.25 | 38383 | 53107
5 | 11:48.08 | 2:34.37 | 53108 | 64694
6 | 14:22.45 | 0:38.41 | 64695 | 67585
7 | 15:01.11 | 2:32.54 | 67586 | 79039
8 | 17:33.65 | 3:13.15 | 79040 | 93529
9 | 20:47.05 | 2:47.19 | 93530 | 106073
10 | 23:34.24 | 1:21.13 | 106074 | 112161
11 | 24:55.37 | 3:45.00 | 112162 | 129036
12 | 28:40.37 | 3:31.03 | 129037 | 144864
13 | 32:11.40 | 2:32.00 | 144865 | 156264
14 | 34:43.40 | 3:42.40 | 156265 | 172954
15 | 38:26.05 | 3:31.69 | 172955 | 188848
16 | 41:57.74 | 2:47.44 | 188849 | 201417
17 | 44:45.43 | 2:25.38 | 201418 | 212330
18 | 47:11.06 | 3:51.54 | 212331 | 229709

Track 1

Filename C:UsersJulianMusicReksReks - Rebelutionary (FLAC)Reks - Rebelutionary - 01 - Intro.wav

Pre-gap length 0:00:02.00

Peak level 98.8 %
Extraction speed 2.0 X
Track quality 100.0 %
Test CRC 99CEF0B4
Copy CRC 99CEF0B4
Track not present in AccurateRip database
Copy OK

Track 2

Filename C:UsersJulianMusicReksReks - Rebelutionary (FLAC)Reks - Rebelutionary - 02 - Unlearn.wav

Peak level 98.8 %
Extraction speed 2.8 X
Track quality 100.0 %
Test CRC F7C4E263
Copy CRC F7C4E263
Track not present in AccurateRip database
Copy OK

Track 3

Filename C:UsersJulianMusicReksReks - Rebelutionary (FLAC)Reks - Rebelutionary - 03 - Hallelujah.wav

Peak level 98.8 %
Extraction speed 2.5 X
Track quality 99.9 %
Test CRC 841ECD3E
Copy CRC 841ECD3E
Track not present in AccurateRip database
Copy OK

Track 4

Filename C:UsersJulianMusicReksReks - Rebelutionary (FLAC)Reks - Rebelutionary - 04 - Bang Bang.wav

Peak level 98.8 %
Extraction speed 3.2 X
Track quality 100.0 %
Test CRC 3906872B
Copy CRC 3906872B
Track not present in AccurateRip database
Copy OK

Track 5

Filename C:UsersJulianMusicReksReks - Rebelutionary (FLAC)Reks - Rebelutionary - 05 - Shotgun.wav

Peak level 98.8 %
Extraction speed 3.2 X
Track quality 100.0 %
Test CRC 4AC61D50
Copy CRC 4AC61D50
Track not present in AccurateRip database
Copy OK

Track 6

Filename C:UsersJulianMusicReksReks - Rebelutionary (FLAC)Reks - Rebelutionary - 06 - War Is a Racket.wav

Peak level 98.8 %
Extraction speed 2.0 X
Track quality 100.0 %
Test CRC F9371900
Copy CRC F9371900
Track not present in AccurateRip database
Copy OK

Track 7

Filename C:UsersJulianMusicReksReks - Rebelutionary (FLAC)Reks - Rebelutionary - 07 - Rebelutionary.wav

Peak level 98.8 %
Extraction speed 2.7 X
Track quality 99.9 %
Test CRC 3CC518C3
Copy CRC 3CC518C3
Track not present in AccurateRip database
Copy OK

Track 8

Filename C:UsersJulianMusicReksReks - Rebelutionary (FLAC)Reks - Rebelutionary - 08 - Ignorance Is Bliss.wav

Peak level 98.8 %
Extraction speed 2.9 X
Track quality 99.9 %
Test CRC EDABAF5F
Copy CRC EDABAF5F
Track not present in AccurateRip database
Copy OK

Track 9

Filename C:UsersJulianMusicReksReks - Rebelutionary (FLAC)Reks - Rebelutionary - 09 - Passports.wav

Peak level 98.8 %
Extraction speed 3.7 X
Track quality 100.0 %
Test CRC C08B94E0
Copy CRC C08B94E0
Track not present in AccurateRip database
Copy OK

Track 10

Filename C:UsersJulianMusicReksReks - Rebelutionary (FLAC)Reks - Rebelutionary - 10 - Ava Rice Interlude.wav

Peak level 98.8 %
Extraction speed 3.1 X
Track quality 100.0 %
Test CRC A7E56BFF
Copy CRC A7E56BFF
Track not present in AccurateRip database
Copy OK

Track 11

Filename C:UsersJulianMusicReksReks - Rebelutionary (FLAC)Reks - Rebelutionary - 11 - Ava Rice.wav

Peak level 98.8 %
Extraction speed 4.1 X
Track quality 100.0 %
Test CRC 1C784468
Copy CRC 1C784468
Track not present in AccurateRip database
Copy OK

Track 12

Filename C:UsersJulianMusicReksReks - Rebelutionary (FLAC)Reks - Rebelutionary - 12 - The Jones'.wav

Peak level 98.8 %
Extraction speed 4.3 X
Track quality 100.0 %
Test CRC B35B97A0
Copy CRC B35B97A0
Track not present in AccurateRip database
Copy OK

Track 13

Filename C:UsersJulianMusicReksReks - Rebelutionary (FLAC)Reks - Rebelutionary - 13 - The Edge.wav

Peak level 98.8 %
Extraction speed 4.1 X
Track quality 100.0 %
Test CRC B85527FA
Copy CRC B85527FA
Track not present in AccurateRip database
Copy OK

Track 14

Filename C:UsersJulianMusicReksReks - Rebelutionary (FLAC)Reks - Rebelutionary - 14 - La Luna.wav

Peak level 98.8 %
Extraction speed 4.6 X
Track quality 100.0 %
Test CRC C87484FB
Copy CRC C87484FB
Track not present in AccurateRip database
Copy OK

Track 15

Filename C:UsersJulianMusicReksReks - Rebelutionary (FLAC)Reks - Rebelutionary - 15 - Gepeto.wav

Peak level 98.8 %
Extraction speed 4.7 X
Track quality 100.0 %
Test CRC 7AF0F306
Copy CRC 7AF0F306
Track not present in AccurateRip database
Copy OK

Track 16

Filename C:UsersJulianMusicReksReks - Rebelutionary (FLAC)Reks - Rebelutionary - 16 - Obedient Workers.wav

Peak level 98.8 %
Extraction speed 4.6 X
Track quality 100.0 %
Test CRC DA514F80
Copy CRC DA514F80
Track not present in AccurateRip database
Copy OK

Track 17

Filename C:UsersJulianMusicReksReks - Rebelutionary (FLAC)Reks - Rebelutionary - 17 - Outro.wav

Peak level 98.8 %
Extraction speed 4.6 X
Track quality 100.0 %
Test CRC DCC52B23
Copy CRC DCC52B23
Track not present in AccurateRip database
Copy OK

Track 18

Filename C:UsersJulianMusicReksReks - Rebelutionary (FLAC)Reks - Rebelutionary - 18 - Shotgun Rmx.wav

Peak level 98.8 %
Extraction speed 4.1 X
Track quality 99.9 %
Test CRC 1A082F5B
Copy CRC 1A082F5B
Track not present in AccurateRip database
Copy OK

None of the tracks are present in the AccurateRip database

No errors occurred

End of status report

---- CUETools DB Plugin V2.1.3

[CTDB TOCID: HwQbGCBhcgYBWGsGgyk8uyLXFCg-] found, Submit result: already submitted
[3785297e] (1/1) Accurately ripped

==== Log checksum 8E97FA04499C09716531B3ED9C31AB55E6B98D12E06C1E78CF7EEEA6B58648B1 ====
REM GENRE Rap 
REM DATE 2012
REM DISCID ED0BF612
REM COMMENT "ExactAudioCopy v1.0b3"
FILE "Reks - Rebelutionary - 01 - Intro.wav" WAVE
TRACK 01 AUDIO
INDEX 01 00:00:00
FILE "Reks - Rebelutionary - 02 - Unlearn.wav" WAVE
TRACK 02 AUDIO
INDEX 01 00:00:00
FILE "Reks - Rebelutionary - 03 - Hallelujah.wav" WAVE
TRACK 03 AUDIO
INDEX 01 00:00:00
FILE "Reks - Rebelutionary - 04 - Bang Bang.wav" WAVE
TRACK 04 AUDIO
INDEX 01 00:00:00
FILE "Reks - Rebelutionary - 05 - Shotgun.wav" WAVE
TRACK 05 AUDIO
INDEX 01 00:00:00
FILE "Reks - Rebelutionary - 06 - War Is a Racket.wav" WAVE
TRACK 06 AUDIO
INDEX 01 00:00:00
FILE "Reks - Rebelutionary - 07 - Rebelutionary.wav" WAVE
TRACK 07 AUDIO
INDEX 01 00:00:00
FILE "Reks - Rebelutionary - 08 - Ignorance Is Bliss.wav" WAVE
TRACK 08 AUDIO
INDEX 01 00:00:00
FILE "Reks - Rebelutionary - 09 - Passports.wav" WAVE
TRACK 09 AUDIO
INDEX 01 00:00:00
FILE "Reks - Rebelutionary - 10 - Ava Rice Interlude.wav" WAVE
TRACK 10 AUDIO
INDEX 01 00:00:00
FILE "Reks - Rebelutionary - 11 - Ava Rice.wav" WAVE
TRACK 11 AUDIO
INDEX 01 00:00:00
FILE "Reks - Rebelutionary - 12 - The Jones'.wav" WAVE
TRACK 12 AUDIO
INDEX 01 00:00:00
FILE "Reks - Rebelutionary - 13 - The Edge.wav" WAVE
TRACK 13 AUDIO
INDEX 01 00:00:00
FILE "Reks - Rebelutionary - 14 - La Luna.wav" WAVE
TRACK 14 AUDIO
INDEX 01 00:00:00
FILE "Reks - Rebelutionary - 15 - Gepeto.wav" WAVE
TRACK 15 AUDIO
INDEX 01 00:00:00
FILE "Reks - Rebelutionary - 16 - Obedient Workers.wav" WAVE
TRACK 16 AUDIO
INDEX 01 00:00:00
FILE "Reks - Rebelutionary - 17 - Outro.wav" WAVE
TRACK 17 AUDIO
INDEX 01 00:00:00
FILE "Reks - Rebelutionary - 18 - Shotgun Rmx.wav" WAVE
TRACK 18 AUDIO
INDEX 01 00:00:00

info [Профиль]  [ЛС] 
Показать сообщения:    
Ответить на тему

Текущее время: 21-Май 07:40

Часовой пояс: GMT + 4



Вы не можете начинать темы
Вы не можете отвечать на сообщения
Вы не можете редактировать свои сообщения
Вы не можете удалять свои сообщения
Вы не можете голосовать в опросах
Вы не можете прикреплять файлы к сообщениям
Вы не можете скачивать файлы