Ошибка

(French Rap) R.E.D.K. & Soprano - E=2mc's - 2012, FLAC (tracks+.cue), lossless

Ответить на тему
 
Автор Сообщение

Raxent

Пол: Пол:Муж

Стаж: 12 лет

Сообщений: 219

Рейтинг

post 14-Июл-2012 19:01 1[+]

[Цитировать] 


Soprano & R.E.D.K.
"E=2MC's"
Жанр: French Hip-Hop
Страна: France
Год издания: 2012
Издатель (лейбл): EMI France
Страна: USA
Аудиокодек: FLAC (*.flac)
Тип рипа: tracks+.cue
Битрейт аудио: lossless
Продолжительность: 00:53:20
Источник (релизер): what.cd (PerrySch)
Наличие сканов в содержимом раздачи: нет

Треклист:
    01. Le Labo
    02. Flow Siamois
    03. Avant De S'en Aller
    04. Meskine
    05. J'ai Vu
    06. Simple Constat 5
    07. Reves Et Illusions
    08. Le Temps D'une Pause (Feat. Sarah Riani)
    09. Afrika
    10. Je Rappe Comme Ca Me Chante
    11. Secret De Polichinelle (Feat. Carpe Diem)
    12. A Plumes Ouvertes

 
Exact Audio Copy V1.0 beta 3 from 29. August 2011

EAC extraction logfile from 2. May 2012, 1:55

Soprano & R.E.D.K / E=2MC's

Used drive : TSSTcorpCDDVDW SN-S083C Adapter: 1 ID: 0

Read mode : Secure
Utilize accurate stream : Yes
Defeat audio cache : Yes
Make use of C2 pointers : No

Read offset correction : 6
Overread into Lead-In and Lead-Out : No
Fill up missing offset samples with silence : Yes
Delete leading and trailing silent blocks : No
Null samples used in CRC calculations : Yes
Used interface : Native Win32 interface for Win NT & 2000
Gap handling : Appended to previous track

Used output format : User Defined Encoder
Selected bitrate : 32 kBit/s
Quality : High
Add ID3 tag : No
Command line compressor : C:\Program Files\FLAC\flac.exe
Additional command line options : -8 -V -T "ARTIST=%artist%" -T "TITLE=%title%" -T "ALBUM=%albumtitle%" -T "DATE=%year%" -T "TRACKNUMBER=%tracknr%" -T "GENRE=%genre%" -T "PERFORMER=%albuminterpret%" -T "COMPOSER=%composer%" %haslyrics%--tag-from-file=LYRICS="%lyricsfile%"%haslyrics% -T "ALBUMARTIST=%albumartist%" -T "DISCNUMBER=%cdnumber%" -T "TOTALDISCS=%totalcds%" -T "TOTALTRACKS=%numtracks%" -T "COMMENT=%comment%" %source% -o %dest%

TOC of the extracted CD

Track | Start | Length | Start sector | End sector
---------------------------------------------------------
1 | 0:00.00 | 3:04.32 | 0 | 13831
2 | 3:04.32 | 3:43.16 | 13832 | 30572
3 | 6:47.48 | 3:56.62 | 30573 | 48334
4 | 10:44.35 | 3:53.07 | 48335 | 65816
5 | 14:37.42 | 3:58.40 | 65817 | 83706
6 | 18:36.07 | 4:21.07 | 83707 | 103288
7 | 22:57.14 | 3:47.28 | 103289 | 120341
8 | 26:44.42 | 4:05.35 | 120342 | 138751
9 | 30:50.02 | 6:32.24 | 138752 | 168175
10 | 37:22.26 | 5:30.20 | 168176 | 192945
11 | 42:52.46 | 4:26.00 | 192946 | 212895
12 | 47:18.46 | 6:01.12 | 212896 | 239982

Track 1

Filename E:\Flac\R.E.D.K. & Soprano - E=2mc's [2012]\01 - Le Labo.wav

Pre-gap length 0:00:02.00

Peak level 98.8 %
Extraction speed 2.4 X
Track quality 100.0 %
Test CRC 115D5302
Copy CRC 115D5302
Track not present in AccurateRip database
Copy OK

Track 2

Filename E:\Flac\R.E.D.K. & Soprano - E=2mc's [2012]\02 - Flow Sianmois.wav

Peak level 100.0 %
Extraction speed 2.7 X
Track quality 100.0 %
Test CRC AD6336BC
Copy CRC AD6336BC
Track not present in AccurateRip database
Copy OK

Track 3

Filename E:\Flac\R.E.D.K. & Soprano - E=2mc's [2012]\03 - Avant De S'en Aller.wav

Peak level 98.8 %
Extraction speed 2.9 X
Track quality 100.0 %
Test CRC E5F42FC1
Copy CRC E5F42FC1
Track not present in AccurateRip database
Copy OK

Track 4

Filename E:\Flac\R.E.D.K. & Soprano - E=2mc's [2012]\04 - Meskine.wav

Pre-gap length 0:00:01.33

Peak level 100.0 %
Extraction speed 3.1 X
Track quality 100.0 %
Test CRC 482EB61E
Copy CRC 482EB61E
Track not present in AccurateRip database
Copy OK

Track 5

Filename E:\Flac\R.E.D.K. & Soprano - E=2mc's [2012]\05 - J'ai Vu.wav

Peak level 98.8 %
Extraction speed 3.3 X
Track quality 100.0 %
Test CRC 8C2BED58
Copy CRC 8C2BED58
Track not present in AccurateRip database
Copy OK

Track 6

Filename E:\Flac\R.E.D.K. & Soprano - E=2mc's [2012]\06 - Simple Constat 5.wav

Peak level 100.0 %
Extraction speed 3.5 X
Track quality 100.0 %
Test CRC 857C0E51
Copy CRC 857C0E51
Track not present in AccurateRip database
Copy OK

Track 7

Filename E:\Flac\R.E.D.K. & Soprano - E=2mc's [2012]\07 - Reves Et Illusions.wav

Peak level 98.8 %
Extraction speed 3.0 X
Track quality 99.9 %
Test CRC 3D6536CE
Copy CRC 3D6536CE
Track not present in AccurateRip database
Copy OK

Track 8

Filename E:\Flac\R.E.D.K. & Soprano - E=2mc's [2012]\08 - Le Temps D'une Pause.wav

Peak level 100.0 %
Extraction speed 3.8 X
Track quality 100.0 %
Test CRC 048FF06D
Copy CRC 048FF06D
Track not present in AccurateRip database
Copy OK

Track 9

Filename E:\Flac\R.E.D.K. & Soprano - E=2mc's [2012]\09 - Afrika.wav

Peak level 100.0 %
Extraction speed 4.2 X
Track quality 100.0 %
Test CRC 4CFE4083
Copy CRC 4CFE4083
Track not present in AccurateRip database
Copy OK

Track 10

Filename E:\Flac\R.E.D.K. & Soprano - E=2mc's [2012]\10 - Je Rappe Comme Ca Me Chante.wav

Peak level 100.0 %
Extraction speed 4.4 X
Track quality 100.0 %
Test CRC E81D685F
Copy CRC E81D685F
Track not present in AccurateRip database
Copy OK

Track 11

Filename E:\Flac\R.E.D.K. & Soprano - E=2mc's [2012]\11 - Secret De Polichinelle.wav

Peak level 100.0 %
Extraction speed 4.4 X
Track quality 100.0 %
Test CRC 8B4FAA9C
Copy CRC 8B4FAA9C
Track not present in AccurateRip database
Copy OK

Track 12

Filename E:\Flac\R.E.D.K. & Soprano - E=2mc's [2012]\12 - A Plume Ouvertes.wav

Peak level 98.8 %
Extraction speed 4.8 X
Track quality 100.0 %
Test CRC F11A9142
Copy CRC F11A9142
Track not present in AccurateRip database
Copy OK

None of the tracks are present in the AccurateRip database

No errors occurred

End of status report

---- CUETools DB Plugin V2.1.3

[CTDB TOCID: _h2p0lADbRUfdStw8oel7kfvi_o-] disk not present in database, Submit result: _h2p0lADbRUfdStw8oel7kfvi_o- has been uploaded

==== Log checksum B4988ADE0B6C0204035CA86CD9F5D6BB16FEEE7FE4D99B978B849837DD72B8FF ====

------------------------------------------------------------

Exact Audio Copy V1.0 beta 3 from 29. August 2011

EAC extraction logfile from 2. May 2012, 1:56

Soprano & R.E.D.K / E=2MC's

Used drive : TSSTcorpCDDVDW SN-S083C Adapter: 1 ID: 0

Read mode : Secure
Utilize accurate stream : Yes
Defeat audio cache : Yes
Make use of C2 pointers : No

Read offset correction : 6
Overread into Lead-In and Lead-Out : No
Fill up missing offset samples with silence : Yes
Delete leading and trailing silent blocks : No
Null samples used in CRC calculations : Yes
Used interface : Native Win32 interface for Win NT & 2000
Gap handling : Appended to previous track

Used output format : User Defined Encoder
Selected bitrate : 32 kBit/s
Quality : High
Add ID3 tag : No
Command line compressor : C:\Program Files\FLAC\flac.exe
Additional command line options : -8 -V -T "ARTIST=%artist%" -T "TITLE=%title%" -T "ALBUM=%albumtitle%" -T "DATE=%year%" -T "TRACKNUMBER=%tracknr%" -T "GENRE=%genre%" -T "PERFORMER=%albuminterpret%" -T "COMPOSER=%composer%" %haslyrics%--tag-from-file=LYRICS="%lyricsfile%"%haslyrics% -T "ALBUMARTIST=%albumartist%" -T "DISCNUMBER=%cdnumber%" -T "TOTALDISCS=%totalcds%" -T "TOTALTRACKS=%numtracks%" -T "COMMENT=%comment%" %source% -o %dest%

TOC of the extracted CD

Track | Start | Length | Start sector | End sector
---------------------------------------------------------
1 | 0:00.00 | 3:04.32 | 0 | 13831
2 | 3:04.32 | 3:43.16 | 13832 | 30572
3 | 6:47.48 | 3:56.62 | 30573 | 48334
4 | 10:44.35 | 3:53.07 | 48335 | 65816
5 | 14:37.42 | 3:58.40 | 65817 | 83706
6 | 18:36.07 | 4:21.07 | 83707 | 103288
7 | 22:57.14 | 3:47.28 | 103289 | 120341
8 | 26:44.42 | 4:05.35 | 120342 | 138751
9 | 30:50.02 | 6:32.24 | 138752 | 168175
10 | 37:22.26 | 5:30.20 | 168176 | 192945
11 | 42:52.46 | 4:26.00 | 192946 | 212895
12 | 47:18.46 | 6:01.12 | 212896 | 239982

Track 1

Filename E:\Flac\R.E.D.K. & Soprano - E=2mc's [2012]\01 - Le Labo.wav

Pre-gap length 0:00:02.00

Peak level 98.8 %
Extraction speed 2.4 X
Track quality 100.0 %
Test CRC 115D5302
Copy CRC 115D5302
Track not present in AccurateRip database
Copy OK

Track 2

Filename E:\Flac\R.E.D.K. & Soprano - E=2mc's [2012]\02 - Flow Sianmois.wav

Peak level 100.0 %
Extraction speed 2.7 X
Track quality 100.0 %
Test CRC AD6336BC
Copy CRC AD6336BC
Track not present in AccurateRip database
Copy OK

Track 3

Filename E:\Flac\R.E.D.K. & Soprano - E=2mc's [2012]\03 - Avant De S'en Aller.wav

Peak level 98.8 %
Extraction speed 2.9 X
Track quality 100.0 %
Test CRC E5F42FC1
Copy CRC E5F42FC1
Track not present in AccurateRip database
Copy OK

Track 4

Filename E:\Flac\R.E.D.K. & Soprano - E=2mc's [2012]\04 - Meskine.wav

Pre-gap length 0:00:01.33

Peak level 100.0 %
Extraction speed 3.1 X
Track quality 100.0 %
Test CRC 482EB61E
Copy CRC 482EB61E
Track not present in AccurateRip database
Copy OK

Track 5

Filename E:\Flac\R.E.D.K. & Soprano - E=2mc's [2012]\05 - J'ai Vu.wav

Peak level 98.8 %
Extraction speed 3.3 X
Track quality 100.0 %
Test CRC 8C2BED58
Copy CRC 8C2BED58
Track not present in AccurateRip database
Copy OK

Track 6

Filename E:\Flac\R.E.D.K. & Soprano - E=2mc's [2012]\06 - Simple Constat 5.wav

Peak level 100.0 %
Extraction speed 3.5 X
Track quality 100.0 %
Test CRC 857C0E51
Copy CRC 857C0E51
Track not present in AccurateRip database
Copy OK

Track 7

Filename E:\Flac\R.E.D.K. & Soprano - E=2mc's [2012]\07 - Reves Et Illusions.wav

Peak level 98.8 %
Extraction speed 3.0 X
Track quality 99.9 %
Test CRC 3D6536CE
Copy CRC 3D6536CE
Track not present in AccurateRip database
Copy OK

Track 8

Filename E:\Flac\R.E.D.K. & Soprano - E=2mc's [2012]\08 - Le Temps D'une Pause.wav

Peak level 100.0 %
Extraction speed 3.8 X
Track quality 100.0 %
Test CRC 048FF06D
Copy CRC 048FF06D
Track not present in AccurateRip database
Copy OK

Track 9

Filename E:\Flac\R.E.D.K. & Soprano - E=2mc's [2012]\09 - Afrika.wav

Peak level 100.0 %
Extraction speed 4.2 X
Track quality 100.0 %
Test CRC 4CFE4083
Copy CRC 4CFE4083
Track not present in AccurateRip database
Copy OK

Track 10

Filename E:\Flac\R.E.D.K. & Soprano - E=2mc's [2012]\10 - Je Rappe Comme Ca Me Chante.wav

Peak level 100.0 %
Extraction speed 4.4 X
Track quality 100.0 %
Test CRC E81D685F
Copy CRC E81D685F
Track not present in AccurateRip database
Copy OK

Track 11

Filename E:\Flac\R.E.D.K. & Soprano - E=2mc's [2012]\11 - Secret De Polichinelle.wav

Peak level 100.0 %
Extraction speed 4.4 X
Track quality 100.0 %
Test CRC 8B4FAA9C
Copy CRC 8B4FAA9C
Track not present in AccurateRip database
Copy OK

Track 12

Filename E:\Flac\R.E.D.K. & Soprano - E=2mc's [2012]\12 - A Plume Ouvertes.wav

Peak level 98.8 %
Extraction speed 4.8 X
Track quality 100.0 %
Test CRC F11A9142
Copy CRC F11A9142
Track not present in AccurateRip database
Copy OK

None of the tracks are present in the AccurateRip database

No errors occurred

End of status report

---- CUETools DB Plugin V2.1.3

[CTDB TOCID: _h2p0lADbRUfdStw8oel7kfvi_o-] disk not present in database, Submit result: _h2p0lADbRUfdStw8oel7kfvi_o- has been uploaded

==== Log checksum F0AAD711C47193DB28D2598731F6920E8D0D3F7C2C553557E4F4C765404CF447 ====

 
REM GENRE Rap
REM DATE 2012
REM DISCID AE0C7F0C
REM COMMENT "ExactAudioCopy v1.0b3"
CATALOG 5099962301329
PERFORMER "Soprano & R.E.D.K"
TITLE "E=2MC's"
FILE "01 - Le Labo.wav" WAVE
TRACK 01 AUDIO
TITLE "Le Labo"
PERFORMER "Soprano & R.E.D.K"
ISRC FRZ111200407
INDEX 01 00:00:00
FILE "02 - Flow Sianmois.wav" WAVE
TRACK 02 AUDIO
TITLE "Flow Sianmois"
PERFORMER "Soprano & R.E.D.K"
ISRC FRZ111200407
INDEX 01 00:00:00
FILE "03 - Avant De S'en Aller.wav" WAVE
TRACK 03 AUDIO
TITLE "Avant De S'en Aller"
PERFORMER "Soprano & R.E.D.K"
ISRC FRZ111200401
INDEX 01 00:00:00
TRACK 04 AUDIO
TITLE "Meskine"
PERFORMER "Soprano & R.E.D.K"
ISRC FRZ111200391
INDEX 00 03:55:37
FILE "04 - Meskine.wav" WAVE
INDEX 01 00:00:00
FILE "05 - J'ai Vu.wav" WAVE
TRACK 05 AUDIO
TITLE "J'ai Vu"
PERFORMER "Soprano & R.E.D.K"
ISRC FRZ111200402
INDEX 01 00:00:00
FILE "06 - Simple Constat 5.wav" WAVE
TRACK 06 AUDIO
TITLE "Simple Constat 5"
PERFORMER "Soprano & R.E.D.K"
ISRC FRZ111200409
INDEX 01 00:00:00
FILE "07 - Reves Et Illusions.wav" WAVE
TRACK 07 AUDIO
TITLE "Reves Et Illusions"
PERFORMER "Soprano & R.E.D.K"
ISRC FRZ111200400
INDEX 01 00:00:00
FILE "08 - Le Temps D'une Pause.wav" WAVE
TRACK 08 AUDIO
TITLE "Le Temps D'une Pause"
PERFORMER "Soprano & R.E.D.K"
ISRC FRZ111200403
INDEX 01 00:00:00
FILE "09 - Afrika.wav" WAVE
TRACK 09 AUDIO
TITLE "Afrika"
PERFORMER "Soprano & R.E.D.K"
ISRC FRZ111200406
INDEX 01 00:00:00
FILE "10 - Je Rappe Comme Ca Me Chante.wav" WAVE
TRACK 10 AUDIO
TITLE "Je Rappe Comme Ca Me Chante"
PERFORMER "Soprano & R.E.D.K"
ISRC FRZ111200408
INDEX 01 00:00:00
FILE "11 - Secret De Polichinelle.wav" WAVE
TRACK 11 AUDIO
TITLE "Secret De Polichinelle"
PERFORMER "Soprano & R.E.D.K"
ISRC FRZ111200426
INDEX 01 00:00:00
FILE "12 - A Plume Ouvertes.wav" WAVE
TRACK 12 AUDIO
TITLE "A Plume Ouvertes"
PERFORMER "Soprano & R.E.D.K"
ISRC FRZ111200404
INDEX 01 00:00:00

info [Профиль]  [ЛС] 

Raxent

Пол: Пол:Муж

Стаж: 12 лет

Сообщений: 219

Рейтинг

post 14-Июл-2012 19:02 (спустя 1 минута) [-]0[+]

[Цитировать] 

info [Профиль]  [ЛС] 

post 14-Июл-2012 19:02 (спустя 17 секунд) [-]0[+]

Топик был перенесен из форума Оформление раздач в форум Зарубежный Rap, Hip-Hop, R'n'B (lossless)

saGambit
 
Показать сообщения:    
Ответить на тему

Текущее время: 26-Май 21:32

Часовой пояс: GMT + 4



Вы не можете начинать темы
Вы не можете отвечать на сообщения
Вы не можете редактировать свои сообщения
Вы не можете удалять свои сообщения
Вы не можете голосовать в опросах
Вы не можете прикреплять файлы к сообщениям
Вы не можете скачивать файлы