Ошибка

(Dance, Hip Hop) Flo Rida - Wild Ones - 2012, FLAC (image+.cue)+cover, lossless

Ответить на тему
 
Автор Сообщение

Resistance

Пол: Пол:Муж

Стаж: 12 лет

Сообщений: 3640

Россия
Рейтинг

post 26-Июн-2012 18:34 0[+]

[Цитировать] 

Flo Rida - Wild Ones


pic="http://i43.fastpic.ru/big/2012/0624/e3/41373dec1ebc33af05816f72732217e3.jpg"


Жанр: Dance, Hip Hop
Год издания данного носителя: 2012
Страна-производитель носителя: USA
Лейбл: Atlantic
Каталоговый номер: 7567-88334-0
Аудио кодек: FLAC
Тип рипа: image+.cue
Битрейт аудио: lossless
Продолжительность: 00:34:37
Полиграфия: Присутствует
Треклист:
01. Whistle (3:45)
02. Wild Ones (feat. Sia) (3:54)
03. Let It Roll (3:14)
04. Good Feeling (4:08)
05. In My Mind, Pt. 2 (feat. Georgi Kay) (4:30)
06. Sweet Spot (feat. Jennifer Lopez) (3:49)
07. Thinking Of You (3:40)
08. I Cry (3:45)
09. Run (feat. RedFoo of LMFAO) (3:52)
Exact Audio Copy V1.0 beta 3 from 29. August 2011 

EAC uitlezen log bestand van 24. Juni 2012, 13:00

Flo Rida / Wild Ones

gebruikt loopwerk : PIONEER DVD-RW DVR-219L Adapter: 3 ID: 0

Lees mode : : Veilig
Gebruik accurate stream : Ja
Audio buffer uitgeschakeld : Neen
Maak gebruik van C2 pointers : Ja

Lees-offset correctie : : 6
Overlees in Lead-In en Lead-Out : Neen
Vul ontbrekende offset samples met stiltes aan : Ja
Wis stilte blokken aan het begin en einde : Neen
Nul samples gebruikt in CRC berekeningen : Ja
Gebruikte interface : Native Win32 interface voor Win NT & 2000

Gebruik uitgave formaat : : Interne WAV Routines
Sample formaat : 44.100 Hz; 16 Bit; Stereo

TOC van de uitgelezen CD

Track | Start | Lengte | Start sector | Eind sector
----------------------------------------------------------
1 | 0:00.00 | 3:45.00 | 0 | 16874
2 | 3:45.00 | 3:54.06 | 16875 | 34430
3 | 7:39.06 | 3:14.34 | 34431 | 49014
4 | 10:53.40 | 4:08.10 | 49015 | 67624
5 | 15:01.50 | 4:30.14 | 67625 | 87888
6 | 19:31.64 | 3:48.55 | 87889 | 105043
7 | 23:20.44 | 3:40.02 | 105044 | 121545
8 | 27:00.46 | 3:44.64 | 121546 | 138409
9 | 30:45.35 | 3:52.07 | 138410 | 155816

Bereikstatus en fouten

Geselecteerd bereik

Bestands naam C:POST 2Flo Rida - Wild Ones (EAC)Flo Rida - Wild Ones.wav

Piek niveau 99.8 %
Uitlees snelheid 7.9 X
Bereikskwaliteit 100.0 %
Kopie CRC D1209690
Kopie OK

Geen fouten opgetreden

AccurateRip samenvatting
Track 1 niet aanwezig in database
Track 2 niet aanwezig in database
Track 3 niet aanwezig in database
Track 4 niet aanwezig in database
Track 5 niet aanwezig in database
Track 6 niet aanwezig in database
Track 7 niet aanwezig in database
Track 8 niet aanwezig in database
Track 9 niet aanwezig in database
Geen enkele Track aanwezig in AccurateRip database

Einde status report
REM GENRE Dance 
REM DATE 2012
REM DISCID 66081D09
REM COMMENT ExactAudioCopy v1.0b3
PERFORMER "Flo Rida"
TITLE "Wild Ones"
FILE "Flo Rida - Wild Ones.flac" WAVE
TRACK 01 AUDIO
TITLE "Whistle"
INDEX 01 00:00:00
TRACK 02 AUDIO
TITLE "Wild Ones (feat. Sia)"
INDEX 01 03:45:00
TRACK 03 AUDIO
TITLE "Let It Roll"
INDEX 01 07:39:06
TRACK 04 AUDIO
TITLE "Good Feeling"
INDEX 01 10:53:40
TRACK 05 AUDIO
TITLE "In My Mind, Pt. 2 (feat. Georgi Kay)"
INDEX 01 15:01:50
TRACK 06 AUDIO
TITLE "Sweet Spot (feat. Jennifer Lopez)"
INDEX 01 19:31:64
TRACK 07 AUDIO
TITLE "Thinking Of You"
INDEX 01 23:20:44
TRACK 08 AUDIO
TITLE "I Cry"
INDEX 01 27:00:46
TRACK 09 AUDIO
TITLE "Run (feat. RedFoo of LMFAO)"
INDEX 00 30:44:31
INDEX 01 30:45:35
info [Профиль]  [ЛС] 
Показать сообщения:    
Ответить на тему

Текущее время: 28-Май 18:09

Часовой пояс: GMT + 4



Вы не можете начинать темы
Вы не можете отвечать на сообщения
Вы не можете редактировать свои сообщения
Вы не можете удалять свои сообщения
Вы не можете голосовать в опросах
Вы не можете прикреплять файлы к сообщениям
Вы не можете скачивать файлы