Ошибка

(Hip-Hop) Kendrick Lamar - Section.80 - 2011, FLAC (tracks+.cue), lossless

Ответить на тему
 
Автор Сообщение

Raxent

Пол: Пол:Муж

Стаж: 12 лет

Сообщений: 219

Рейтинг

post 18-Июн-2012 11:47 1[+]

[Цитировать] 


Kendrick Lamar
"Section.80"
Жанр: Hip-Hop
Страна-производитель диска: USA
Год издания: 2012
Страна: USA
Аудиокодек: FLAC (*.flac)
Тип рипа: tracks+.cue
Битрейт аудио: lossless
Продолжительность: 59:24
Источник (релизер): What.cd (chrissmith)
Наличие сканов в содержимом раздачи: нет

Треклист:
    1. Fuck Your Ethnicity 3:44
    2. Hol’ Up 2:53
    3. A.D.H.D. 3:35
    4. No Makeup (Her Vice) (featuring Colin Munroe) 3:55
    5. Tammy’s Song (Her Evils) 2:41
    6. Chapter Six 2:41
    7. Ronald Reagan Era 3:36
    8. Poe Man's Dreams (His Vice) (featuring GLC) 4:21
    9. The Spiteful Chant (featuring ScHoolboy Q) 5:20
    10. Chapter Ten 1:15
    11. Keisha's Song (Her Pain) (featuring Ashtrobot) 3:47
    12. Rigamortus 2:48
    13. Kush & Corinthians (featuring BJ The Chicago Kid) 5:04
    14. Blow My High (Members Only) 3:35
    15. Ab-Soul's Outro (featuring Ab-Soul) 3:17
    16. HiiiPoWeR 4:39

 
Exact Audio Copy V1.0 beta 2 from 29. April 2011

EAC extraction logfile from 26. August 2011, 18:45

Kendrick Lamar / Section.80

Used drive : HL-DT-STDVDRAM GT30N Adapter: 1 ID: 0

Read mode : Secure
Utilize accurate stream : Yes
Defeat audio cache : Yes
Make use of C2 pointers : No

Read offset correction : 103
Overread into Lead-In and Lead-Out : No
Fill up missing offset samples with silence : Yes
Delete leading and trailing silent blocks : No
Null samples used in CRC calculations : Yes
Used interface : Native Win32 interface for Win NT & 2000
Gap handling : Appended to previous track

Used output format : User Defined Encoder
Selected bitrate : 1024 kBit/s
Quality : High
Add ID3 tag : No
Command line compressor : C:\Program Files (x86)\Exact Audio Copy\Flac\flac.exe
Additional command line options : -8 -V -T "ARTIST=%artist%" -T "TITLE=%title%" -T "ALBUM=%albumtitle%" -T "DATE=%year%" -T "TRACKNUMBER=%tracknr%" -T "GENRE=%genre%" -T "PERFORMER=%albuminterpret%" -T "COMPOSER=%composer%" %haslyrics%--tag-from-file=LYRICS

TOC of the extracted CD

Track | Start | Length | Start sector | End sector
---------------------------------------------------------
1 | 0:00.00 | 3:44.55 | 0 | 16854
2 | 3:44.55 | 2:53.17 | 16855 | 29846
3 | 6:37.72 | 3:35.43 | 29847 | 46014
4 | 10:13.40 | 3:56.00 | 46015 | 63714
5 | 14:09.40 | 2:41.55 | 63715 | 75844
6 | 16:51.20 | 2:41.16 | 75845 | 87935
7 | 19:32.36 | 3:36.73 | 87936 | 104208
8 | 23:09.34 | 4:21.70 | 104209 | 123853
9 | 27:31.29 | 5:21.02 | 123854 | 147930
10 | 32:52.31 | 1:15.45 | 147931 | 153600
11 | 34:08.01 | 3:47.26 | 153601 | 170651
12 | 37:55.27 | 2:48.49 | 170652 | 183300
13 | 40:44.01 | 5:04.56 | 183301 | 206156
14 | 45:48.57 | 3:35.64 | 206157 | 222345
15 | 49:24.46 | 5:50.05 | 222346 | 248600
16 | 55:14.51 | 4:39.70 | 248601 | 269595

Track 1

Filename C:\EAC Rips\Kendrick Lamar - Section.80 (2011) [FLAC]\01 Fuck Your Ethnicity.wav

Pre-gap length 0:00:02.00

Peak level 100.0 %
Extraction speed 1.1 X
Track quality 99.9 %
Test CRC 094D24A4
Copy CRC 094D24A4
Track not present in AccurateRip database
Copy OK

Track 2

Filename C:\EAC Rips\Kendrick Lamar - Section.80 (2011) [FLAC]\02 Hol' Up.wav

Peak level 100.0 %
Extraction speed 1.3 X
Track quality 100.0 %
Test CRC 592630C7
Copy CRC 592630C7
Track not present in AccurateRip database
Copy OK

Track 3

Filename C:\EAC Rips\Kendrick Lamar - Section.80 (2011) [FLAC]\03 A.D.H.D.wav

Peak level 100.0 %
Extraction speed 1.5 X
Track quality 100.0 %
Test CRC 43147AED
Copy CRC 43147AED
Track not present in AccurateRip database
Copy OK

Track 4

Filename C:\EAC Rips\Kendrick Lamar - Section.80 (2011) [FLAC]\04 No Makeup (Her Vice).wav

Peak level 85.7 %
Extraction speed 1.6 X
Track quality 100.0 %
Test CRC 460F5612
Copy CRC 460F5612
Track not present in AccurateRip database
Copy OK

Track 5

Filename C:\EAC Rips\Kendrick Lamar - Section.80 (2011) [FLAC]\05 Tammy's Song (Her Evils).wav

Peak level 100.0 %
Extraction speed 1.5 X
Track quality 100.0 %
Test CRC 49139AAE
Copy CRC 49139AAE
Track not present in AccurateRip database
Copy OK

Track 6

Filename C:\EAC Rips\Kendrick Lamar - Section.80 (2011) [FLAC]\06 Chapter Six.wav

Peak level 100.0 %
Extraction speed 1.6 X
Track quality 100.0 %
Test CRC A831FF9E
Copy CRC A831FF9E
Track not present in AccurateRip database
Copy OK

Track 7

Filename C:\EAC Rips\Kendrick Lamar - Section.80 (2011) [FLAC]\07 Ronald Reagan Era (His Evils).wav

Peak level 100.0 %
Extraction speed 1.8 X
Track quality 100.0 %
Test CRC 46B83EE1
Copy CRC 46B83EE1
Track not present in AccurateRip database
Copy OK

Track 8

Filename C:\EAC Rips\Kendrick Lamar - Section.80 (2011) [FLAC]\08 Poe Mans Dream (His Vice).wav

Peak level 100.0 %
Extraction speed 1.7 X
Track quality 99.9 %
Test CRC 1F7524CE
Copy CRC 1F7524CE
Track not present in AccurateRip database
Copy OK

Track 9

Filename C:\EAC Rips\Kendrick Lamar - Section.80 (2011) [FLAC]\09 The Spiteful Chant.wav

Peak level 100.0 %
Extraction speed 1.9 X
Track quality 99.9 %
Test CRC 80CAD84D
Copy CRC 80CAD84D
Track not present in AccurateRip database
Copy OK

Track 10

Filename C:\EAC Rips\Kendrick Lamar - Section.80 (2011) [FLAC]\10 Chapter Ten.wav

Peak level 100.0 %
Extraction speed 1.5 X
Track quality 100.0 %
Test CRC F8EFE8BA
Copy CRC F8EFE8BA
Track not present in AccurateRip database
Copy OK

Track 11

Filename C:\EAC Rips\Kendrick Lamar - Section.80 (2011) [FLAC]\11 Keishas Song (Her Pain).wav

Peak level 97.7 %
Extraction speed 2.1 X
Track quality 100.0 %
Test CRC C7B0B6CC
Copy CRC C7B0B6CC
Track not present in AccurateRip database
Copy OK

Track 12

Filename C:\EAC Rips\Kendrick Lamar - Section.80 (2011) [FLAC]\12 Rigamortis.wav

Peak level 100.0 %
Extraction speed 1.7 X
Track quality 99.9 %
Test CRC C305D276
Copy CRC C305D276
Track not present in AccurateRip database
Copy OK

Track 13

Filename C:\EAC Rips\Kendrick Lamar - Section.80 (2011) [FLAC]\13 Kush & Corinthians (His Pain).wav

Peak level 94.0 %
Extraction speed 2.1 X
Track quality 99.9 %
Test CRC D36FFEC7
Copy CRC D36FFEC7
Track not present in AccurateRip database
Copy OK

Track 14

Filename C:\EAC Rips\Kendrick Lamar - Section.80 (2011) [FLAC]\14 Members Only.wav

Peak level 100.0 %
Extraction speed 2.3 X
Track quality 100.0 %
Test CRC A471BCEE
Copy CRC A471BCEE
Track not present in AccurateRip database
Copy OK

Track 15

Filename C:\EAC Rips\Kendrick Lamar - Section.80 (2011) [FLAC]\15 Ab-Soul's Outro.wav

Peak level 100.0 %
Extraction speed 2.5 X
Track quality 100.0 %
Test CRC 8EFD2189
Copy CRC 8EFD2189
Track not present in AccurateRip database
Copy OK

Track 16

Filename C:\EAC Rips\Kendrick Lamar - Section.80 (2011) [FLAC]\16 HiiPoWeR.wav

Peak level 100.0 %
Extraction speed 2.5 X
Track quality 100.0 %
Test CRC CA304A7C
Copy CRC CA304A7C
Track not present in AccurateRip database
Copy OK

None of the tracks are present in the AccurateRip database

No errors occurred

End of status report

==== Log checksum 7D9F8849FFEE5B9528BBA317599BB02F25BB06C8EBBFDA91796DE607B2DE9100 ====
 
REM GENRE Hip-Hop
REM DATE 2011
REM DISCID DA0E0A10
REM COMMENT "ExactAudioCopy v1.0b2"
PERFORMER "Kendrick Lamar"
TITLE "Section.80"
FILE "01 Fuck Your Ethnicity.wav" WAVE
TRACK 01 AUDIO
TITLE "Fuck Your Ethnicity"
PERFORMER "Kendrick Lamar"
ISRC 000000000000
INDEX 01 00:00:00
FILE "02 Hol' Up.wav" WAVE
TRACK 02 AUDIO
TITLE "Hol' Up"
PERFORMER "Kendrick Lamar"
ISRC 000000000000
INDEX 01 00:00:00
FILE "03 A.D.H.D.wav" WAVE
TRACK 03 AUDIO
TITLE "A.D.H.D"
PERFORMER "Kendrick Lamar"
ISRC 000000000000
INDEX 01 00:00:00
FILE "04 No Makeup (Her Vice).wav" WAVE
TRACK 04 AUDIO
TITLE "No Makeup (Her Vice)"
PERFORMER "Kendrick Lamar Feat. Colin Munroe"
ISRC 000000000000
INDEX 01 00:00:00
FILE "05 Tammy's Song (Her Evils).wav" WAVE
TRACK 05 AUDIO
TITLE "Tammy's Song (Her Evils)"
PERFORMER "Kendrick Lamar"
ISRC 000000000000
INDEX 01 00:00:00
FILE "06 Chapter Six.wav" WAVE
TRACK 06 AUDIO
TITLE "Chapter Six"
PERFORMER "Kendrick Lamar"
ISRC 000000000000
INDEX 01 00:00:00
FILE "07 Ronald Reagan Era (His Evils).wav" WAVE
TRACK 07 AUDIO
TITLE "Ronald Reagan Era (His Evils)"
PERFORMER "Kendrick Lamar"
ISRC 000000000000
INDEX 01 00:00:00
FILE "08 Poe Mans Dream (His Vice).wav" WAVE
TRACK 08 AUDIO
TITLE "Poe Mans Dream (His Vice)"
PERFORMER "Kendrick Lamar Feat. GLC"
ISRC 000000000000
INDEX 01 00:00:00
FILE "09 The Spiteful Chant.wav" WAVE
TRACK 09 AUDIO
TITLE "The Spiteful Chant"
PERFORMER "Kendrick Lamar Feat. Schoolboy Q"
ISRC 000000000000
INDEX 01 00:00:00
FILE "10 Chapter Ten.wav" WAVE
TRACK 10 AUDIO
TITLE "Chapter Ten"
PERFORMER "Kendrick Lamar"
ISRC 000000000000
INDEX 01 00:00:00
FILE "11 Keishas Song (Her Pain).wav" WAVE
TRACK 11 AUDIO
TITLE "Keishas Song (Her Pain)"
PERFORMER "Kendrick Lamar Feat. Astro Bot"
ISRC 000000000000
INDEX 01 00:00:00
FILE "12 Rigamortis.wav" WAVE
TRACK 12 AUDIO
TITLE "Rigamortis"
PERFORMER "Kendrick Lamar"
ISRC 000000000000
INDEX 01 00:00:00
FILE "13 Kush & Corinthians (His Pain).wav" WAVE
TRACK 13 AUDIO
TITLE "Kush & Corinthians (His Pain)"
PERFORMER "Kendrick Lamar Feat. Bj The Chicago Kid"
ISRC 000000000000
INDEX 01 00:00:00
FILE "14 Members Only.wav" WAVE
TRACK 14 AUDIO
TITLE "Members Only"
PERFORMER "Kendrick Lamar"
ISRC 000000000000
INDEX 01 00:00:00
FILE "15 Ab-Soul's Outro.wav" WAVE
TRACK 15 AUDIO
TITLE "Ab-Soul's Outro"
PERFORMER "Kendrick Lamar"
ISRC 000000000000
INDEX 01 00:00:00
FILE "16 HiiPoWeR.wav" WAVE
TRACK 16 AUDIO
TITLE "HiiPoWeR"
PERFORMER "Kendrick Lamar"
ISRC 000000000000
INDEX 01 00:00:00

info [Профиль]  [ЛС] 

post 18-Июн-2012 11:50 (спустя 2 минуты) [-]0[+]

Топик был перенесен из форума Оформление раздач в форум Зарубежный Rap, Hip-Hop, R'n'B (lossless)

saGambit
 

Raxent

Пол: Пол:Муж

Стаж: 12 лет

Сообщений: 219

Рейтинг

post 18-Июн-2012 11:51 (спустя 3 минуты) [-]0[+]

[Цитировать] 

info [Профиль]  [ЛС] 

gohara

Стаж: 12 лет

Сообщений: 67

Предупреждений: 1

Аргентина
Рейтинг

post 19-Июн-2012 10:45 (спустя 22 часа) [-]1[+]

[Цитировать] 

А когда раздавать будешь? Уже два дня качаю эту раздачу.
info [Профиль]  [ЛС] 
Показать сообщения:    
Ответить на тему

Текущее время: 28-Май 02:16

Часовой пояс: GMT + 4



Вы не можете начинать темы
Вы не можете отвечать на сообщения
Вы не можете редактировать свои сообщения
Вы не можете удалять свои сообщения
Вы не можете голосовать в опросах
Вы не можете прикреплять файлы к сообщениям
Вы не можете скачивать файлы