Ошибка

(Reggaeton, Latin) Don Omar - Meet The Orphans (Deluxe Edition) - 2010, FLAC (tracks+.cue), lossless

Ответить на тему
 
Автор Сообщение

Raxent

Пол: Пол:Муж

Стаж: 12 лет

Сообщений: 219

Рейтинг

post 21-Май-2012 14:35 1[+]

[Цитировать] 

Don Omar - Meet The Orphans (Deluxe Edition)

Год: 2010
Жанр: Reggaeton, Latin
Страна: Пуэрто-Рико
Аудиокодека: FLAC
Тип рипа: tracks + .cue
Битрейт: lossless
Продолжительность: 1:17:08
Источник: what.cd (teddybear4703)
Трэклист:
01. Don Omar - Orphanization (feat. Kendo Kaponi y Syko)
02. Don Omar - El Duro (feat. Kendo Kaponi)
03. Don Omar - Hasta Abajo
04. Don Omar - Hooka (feat. Plan B)
05. Don Omar - Ángeles Y Demonios
06. Don Omar - Good Looking
07. Don Omar - Taboo
08. Don Omar - Viviendo Con El Enemigo (feat. Kendo Kaponi)
09. Don Omar - Sr. Destino
10. Don Omar - Luna Llena
11. Don Omar - Huérfano De Amor
12. Don Omar - RX (feat. Kendo Kaponi)
13. Don Omar - Ella, Ella (feat. Zion y Lennox)
14. Don Omar - Danza Kuduro (feat. Lucenzo)
15. Don Omar - Vivos Y Activos
16. Don Omar - Que Es La Que Hay (feat. Kendo Kaponi)
17. Don Omar - Beyond 3000 (feat. Syko)
18. Don Omar - Incógnita (feat. Kendo Kaponi)
19. Danny Fornaris - Estoy Enamorado


Код:

Exact Audio Copy V1.0 beta 1 from 15. November 2010

EAC extraction logfile from 23. August 2011, 22:55

Don Omar / Meet The Orphans

Used drive  : PIONEER DVD-RW  DVR-112D   Adapter: 0  ID: 0

Read mode               : Secure
Utilize accurate stream : Yes
Defeat audio cache      : Yes
Make use of C2 pointers : No

Read offset correction                      : 48
Overread into Lead-In and Lead-Out          : No
Fill up missing offset samples with silence : Yes
Delete leading and trailing silent blocks   : No
Null samples used in CRC calculations       : Yes
Used interface                              : Native Win32 interface for Win NT & 2000
Gap handling                                : Appended to previous track

Used output format              : User Defined Encoder
Selected bitrate                : 320 kBit/s
Quality                         : High
Add ID3 tag                     : No
Command line compressor         : C:\Archivos de programa\Exact Audio Copy\Flac\flac.exe
Additional command line options : -V -8 -T "artist=%a" -T "title=%t" -T "album=%g" -T "date=%y" -T "tracknumber=%n" -T "genre=%m" %s

TOC of the extracted CD

     Track |   Start  |  Length  | Start sector | End sector
    ---------------------------------------------------------
        1  |  0:00.00 |  3:55.36 |         0    |    17660
        2  |  3:55.36 |  4:07.24 |     17661    |    36209
        3  |  8:02.60 |  3:52.16 |     36210    |    53625
        4  | 11:55.01 |  3:57.72 |     53626    |    71472
        5  | 15:52.73 |  6:01.72 |     71473    |    98619
        6  | 21:54.70 |  4:18.45 |     98620    |   118014
        7  | 26:13.40 |  4:52.12 |    118015    |   139926
        8  | 31:05.52 |  4:24.60 |    139927    |   159786
        9  | 35:30.37 |  3:44.06 |    159787    |   176592
       10  | 39:14.43 |  4:08.46 |    176593    |   195238
       11  | 43:23.14 |  4:52.09 |    195239    |   217147
       12  | 48:15.23 |  3:45.00 |    217148    |   234022
       13  | 52:00.23 |  3:22.45 |    234023    |   249217
       14  | 55:22.68 |  3:18.57 |    249218    |   264124
       15  | 58:41.50 |  3:46.37 |    264125    |   281111
       16  | 62:28.12 |  4:06.13 |    281112    |   299574
       17  | 66:34.25 |  3:30.00 |    299575    |   315324
       18  | 70:04.25 |  3:41.66 |    315325    |   331965
       19  | 73:46.16 |  3:21.70 |    331966    |   347110

Track  1

     Filename C:\EAC\01 - Don Omar , Orphanization (feat. Kendo Kaponi y Syko).wav

     Pre-gap length  0:00:02.00

     Peak level 100.0 %
     Extraction speed 4.6 X
     Track quality 100.0 %
     Test CRC 4226F8AA
     Copy CRC 4226F8AA
     Track not present in AccurateRip database
     Copy OK

Track  2

     Filename C:\EAC\02 - Don Omar , El Duro (feat. Kendo Kaponi).wav

     Peak level 100.0 %
     Extraction speed 5.0 X
     Track quality 100.0 %
     Test CRC 23F4514A
     Copy CRC 23F4514A
     Track not present in AccurateRip database
     Copy OK

Track  3

     Filename C:\EAC\03 - Don Omar , Hasta Abajo.wav

     Peak level 100.0 %
     Extraction speed 5.3 X
     Track quality 100.0 %
     Test CRC F09547BF
     Copy CRC F09547BF
     Track not present in AccurateRip database
     Copy OK

Track  4

     Filename C:\EAC\04 - Don Omar , Hooka (feat. Plan B).wav

     Peak level 100.0 %
     Extraction speed 5.6 X
     Track quality 100.0 %
     Test CRC 64809612
     Copy CRC 64809612
     Track not present in AccurateRip database
     Copy OK

Track  5

     Filename C:\EAC\05 - Don Omar , Ángeles y Demonios.wav

     Peak level 100.0 %
     Extraction speed 5.8 X
     Track quality 99.9 %
     Test CRC 3781D8B0
     Copy CRC 3781D8B0
     Track not present in AccurateRip database
     Copy OK

Track  6

     Filename C:\EAC\06 - Don Omar , Good Looking.wav

     Peak level 100.0 %
     Extraction speed 6.4 X
     Track quality 100.0 %
     Test CRC ECEC672C
     Copy CRC ECEC672C
     Track not present in AccurateRip database
     Copy OK

Track  7

     Filename C:\EAC\07 - Don Omar , Taboo.wav

     Peak level 100.0 %
     Extraction speed 6.8 X
     Track quality 100.0 %
     Test CRC A46AA252
     Copy CRC A46AA252
     Track not present in AccurateRip database
     Copy OK

Track  8

     Filename C:\EAC\08 - Don Omar , Viviendo con el Enemigo (feat. Kendo Kaponi).wav

     Peak level 99.7 %
     Extraction speed 7.0 X
     Track quality 100.0 %
     Test CRC C500BAB0
     Copy CRC C500BAB0
     Track not present in AccurateRip database
     Copy OK

Track  9

     Filename C:\EAC\09 - Don Omar , Sr. Destino.wav

     Peak level 100.0 %
     Extraction speed 7.0 X
     Track quality 100.0 %
     Test CRC EDA23B82
     Copy CRC EDA23B82
     Track not present in AccurateRip database
     Copy OK

Track 10

     Filename C:\EAC\10 - Don Omar , Luna Llena.wav

     Peak level 100.0 %
     Extraction speed 7.3 X
     Track quality 100.0 %
     Test CRC 33B0A178
     Copy CRC 33B0A178
     Track not present in AccurateRip database
     Copy OK

Track 11

     Filename C:\EAC\11 - Don Omar , Huérfano de Amor.wav

     Peak level 100.0 %
     Extraction speed 7.7 X
     Track quality 100.0 %
     Test CRC EFC21719
     Copy CRC EFC21719
     Track not present in AccurateRip database
     Copy OK

Track 12

     Filename C:\EAC\12 - Don Omar , RX (feat. Kendo Kaponi).wav

     Peak level 100.0 %
     Extraction speed 7.6 X
     Track quality 100.0 %
     Test CRC BD50D157
     Copy CRC BD50D157
     Track not present in AccurateRip database
     Copy OK

Track 13

     Filename C:\EAC\13 - Don Omar , Ella, Ella (feat. Zion y Lennox).wav

     Peak level 100.0 %
     Extraction speed 7.7 X
     Track quality 100.0 %
     Test CRC 7172AC8E
     Copy CRC 7172AC8E
     Track not present in AccurateRip database
     Copy OK

Track 14

     Filename C:\EAC\14 - Don Omar , Danza Kuduro (feat. Lucenzo).wav

     Peak level 100.0 %
     Extraction speed 7.8 X
     Track quality 100.0 %
     Test CRC BCBC9F4A
     Copy CRC BCBC9F4A
     Track not present in AccurateRip database
     Copy OK

Track 15

     Filename C:\EAC\15 - Don Omar , Vivos y Activos.wav

     Peak level 100.0 %
     Extraction speed 8.0 X
     Track quality 100.0 %
     Test CRC 987AAC58
     Copy CRC 987AAC58
     Track not present in AccurateRip database
     Copy OK

Track 16

     Filename C:\EAC\16 - Don Omar , Que Es La Que Hay (feat. Kendo Kaponi).wav

     Peak level 100.0 %
     Extraction speed 8.3 X
     Track quality 100.0 %
     Test CRC C9DFD214
     Copy CRC C9DFD214
     Track not present in AccurateRip database
     Copy OK

Track 17

     Filename C:\EAC\17 - Don Omar , Beyond 3000 (feat. Syko).wav

     Peak level 100.0 %
     Extraction speed 8.2 X
     Track quality 100.0 %
     Test CRC A382640C
     Copy CRC A382640C
     Track not present in AccurateRip database
     Copy OK

Track 18

     Filename C:\EAC\18 - Don Omar , Incógnita (feat. Kendo Kaponi).wav

     Peak level 100.0 %
     Extraction speed 8.6 X
     Track quality 100.0 %
     Test CRC 87E0DC5D
     Copy CRC 87E0DC5D
     Track not present in AccurateRip database
     Copy OK

Track 19

     Filename C:\EAC\19 - Danny Fornaris , Estoy Enamorado.wav

     Peak level 100.0 %
     Extraction speed 7.4 X
     Track quality 99.9 %
     Test CRC C81C9267
     Copy CRC C81C9267
     Track not present in AccurateRip database
     Copy OK

None of the tracks are present in the AccurateRip database

No errors occurred

End of status report

Код:

REM GENRE Reggaeton
REM DATE 2010
REM DISCID 1B121413
REM COMMENT "ExactAudioCopy v1.0b1"
FILE "01 - Don Omar , Orphanization (feat. Kendo Kaponi y Syko).wav" WAVE
  TRACK 01 AUDIO
    FLAGS DCP
    INDEX 01 00:00:00
FILE "02 - Don Omar - El Duro (feat. Kendo Kaponi).wav" WAVE
  TRACK 02 AUDIO
    FLAGS DCP
    INDEX 01 00:00:00
FILE "03 - Don Omar - Hasta Abajo.wav" WAVE
  TRACK 03 AUDIO
    FLAGS DCP
    INDEX 01 00:00:00
FILE "04 - Don Omar - Hooka (feat. Plan B).wav" WAVE
  TRACK 04 AUDIO
    FLAGS DCP
    INDEX 01 00:00:00
FILE "05 - Don Omar - ┴ngeles y Demonios.wav" WAVE
  TRACK 05 AUDIO
    FLAGS DCP
    INDEX 01 00:00:00
FILE "06 - Don Omar - Good Looking.wav" WAVE
  TRACK 06 AUDIO
    FLAGS DCP
    INDEX 01 00:00:00
FILE "07 - Don Omar - Taboo.wav" WAVE
  TRACK 07 AUDIO
    FLAGS DCP
    INDEX 01 00:00:00
FILE "08 - Don Omar - Viviendo con el Enemigo (feat. Kendo Kaponi).wav" WAVE
  TRACK 08 AUDIO
    FLAGS DCP
    INDEX 01 00:00:00
FILE "09 - Don Omar - Sr. Destino.wav" WAVE
  TRACK 09 AUDIO
    FLAGS DCP
    INDEX 01 00:00:00
FILE "10 - Don Omar - Luna Llena.wav" WAVE
  TRACK 10 AUDIO
    FLAGS DCP
    INDEX 01 00:00:00
FILE "11 - Don Omar - Huщrfano de Amor.wav" WAVE
  TRACK 11 AUDIO
    FLAGS DCP
    INDEX 01 00:00:00
FILE "12 - Don Omar - RX (feat. Kendo Kaponi).wav" WAVE
  TRACK 12 AUDIO
    FLAGS DCP
    INDEX 01 00:00:00
FILE "13 - Don Omar - Ella, Ella (feat. Zion y Lennox).wav" WAVE
  TRACK 13 AUDIO
    FLAGS DCP
    INDEX 01 00:00:00
FILE "14 - Don Omar - Danza Kuduro (feat. Lucenzo).wav" WAVE
  TRACK 14 AUDIO
    FLAGS DCP
    INDEX 01 00:00:00
FILE "15 - Don Omar - Vivos y Activos.wav" WAVE
  TRACK 15 AUDIO
    FLAGS DCP
    INDEX 01 00:00:00
FILE "16 - Don Omar - Que Es La Que Hay (feat. Kendo Kaponi).wav" WAVE
  TRACK 16 AUDIO
    FLAGS DCP
    INDEX 01 00:00:00
FILE "17 - Don Omar - Beyond 3000 (feat. Syko).wav" WAVE
  TRACK 17 AUDIO
    FLAGS DCP
    INDEX 01 00:00:00
FILE "18 - Don Omar - Incєgnita (feat. Kendo Kaponi).wav" WAVE
  TRACK 18 AUDIO
    FLAGS DCP
    INDEX 01 00:00:00
FILE "19 - Danny Fornaris - Estoy Enamorado.wav" WAVE
  TRACK 19 AUDIO
    FLAGS DCP
    INDEX 01 00:00:00


info [Профиль]  [ЛС] 

post 21-Май-2012 14:36 (спустя 26 секунд) [-]0[+]

Топик был перенесен из форума Оформление раздач в форум Зарубежный Rap, Hip-Hop, R'n'B (lossless)

saGambit
 
Показать сообщения:    
Ответить на тему

Текущее время: 28-Май 01:44

Часовой пояс: GMT + 4



Вы не можете начинать темы
Вы не можете отвечать на сообщения
Вы не можете редактировать свои сообщения
Вы не можете удалять свои сообщения
Вы не можете голосовать в опросах
Вы не можете прикреплять файлы к сообщениям
Вы не можете скачивать файлы