Ошибка

(Experimental Hip Hop) Death Grips - The Money Store - 2012, FLAC (tracks+.cue), lossless

Ответить на тему
 
Автор Сообщение

Resistance

Пол: Пол:Муж

Стаж: 12 лет

Сообщений: 3640

Россия
Рейтинг

post 13-Май-2012 11:14 0[+]

[Цитировать] 

Death Grips - The Money Store


pic="http://farm8.staticflickr.com/7042/6969895516_3bd4533492.jpg"


Жанр: Experimental Hip Hop
Год издания данного носителя: 2012
Страна-производитель носителя: USA
Лейбл: Epic
Каталоговый номер: 88691963512
Аудио кодек: FLAC
Тип рипа: tracks+.cue
Битрейт аудио: lossless
Продолжительность: 00:41:17
Полиграфия: Отсутствует
Треклист:
01. Get Got (2:52)
02. The Fever (3:07)
03. Lost Boys (3:06)
04. Black Jack (2:22)
05. Hustle Bones (3:12)
06. I've Seen Footage (3:23)
07. Double Helix (2:40)
08. System Blower (3:48)
09. The Cage (3:31)
10. Punk Weight (3:24)
11. Fuck That (2:25)
12. Bitch Please (2:56)
13. Hacker (4:36)
X Lossless Decoder version 20120407 (140.0) 

XLD extraction logfile from 2012-04-16 10:09:54 -0700

Death Grips / The Money Store

Used drive : MATSHITA DVD-R UJ-868 (revision KB19)

Ripper mode : XLD Secure Ripper
Disable audio cache : OK for the drive with a cache less than 1375KiB
Make use of C2 pointers : NO
Read offset correction : 102
Max retry count : 100
Gap status : Analyzed, Appended (except HTOA)

TOC of the extracted CD
Track | Start | Length | Start sector | End sector
---------------------------------------------------------
1 | 00:00:00 | 02:51:65 | 0 | 12889
2 | 02:51:65 | 03:06:73 | 12890 | 26912
3 | 05:58:63 | 03:06:24 | 26913 | 40886
4 | 09:05:12 | 02:22:00 | 40887 | 51536
5 | 11:27:12 | 03:12:27 | 51537 | 65963
6 | 14:39:39 | 03:22:64 | 65964 | 81177
7 | 18:02:28 | 02:40:07 | 81178 | 93184
8 | 20:42:35 | 03:48:07 | 93185 | 110291
9 | 24:30:42 | 03:31:07 | 110292 | 126123
10 | 28:01:49 | 03:24:18 | 126124 | 141441
11 | 31:25:67 | 02:24:65 | 141442 | 152306
12 | 33:50:57 | 02:56:00 | 152307 | 165506
13 | 36:46:57 | 04:35:39 | 165507 | 186170

AccurateRip Summary
Disc not found in AccurateRip DB.

All Tracks
Album gain : -10.31 dB
Peak : 0.977020
Statistics
Read error : 0
Jitter error (maybe fixed) : 0
Retry sector count : 0
Damaged sector count : 0

Track 01
Filename : /Users/gavinevans/Desktop/The Money Store (flac)/Death Grips - The Money Store (2012) [FLAC]/01 Get Got.flac
Pre-gap length : 00:02:00

Track gain : -11.74 dB
Peak : 0.977020
CRC32 hash (test run) : AC991AB3
CRC32 hash : AC991AB3
CRC32 hash (skip zero) : CDCACC22
AccurateRip signature : 5C835712
->Track not present in AccurateRip database.
Statistics
Read error : 0
Jitter error (maybe fixed) : 0
Retry sector count : 0
Damaged sector count : 0

Track 02
Filename : /Users/gavinevans/Desktop/The Money Store (flac)/Death Grips - The Money Store (2012) [FLAC]/02 The Fever.flac

Track gain : -10.18 dB
Peak : 0.977020
CRC32 hash (test run) : 726DE924
CRC32 hash : 726DE924
CRC32 hash (skip zero) : 809DD7F9
AccurateRip signature : D45EAAFF
->Track not present in AccurateRip database.
Statistics
Read error : 0
Jitter error (maybe fixed) : 0
Retry sector count : 0
Damaged sector count : 0

Track 03
Filename : /Users/gavinevans/Desktop/The Money Store (flac)/Death Grips - The Money Store (2012) [FLAC]/03 Lost Boys.flac

Track gain : -11.59 dB
Peak : 0.977020
CRC32 hash (test run) : F9507067
CRC32 hash : F9507067
CRC32 hash (skip zero) : 1934F544
AccurateRip signature : 80368DC5
->Track not present in AccurateRip database.
Statistics
Read error : 0
Jitter error (maybe fixed) : 0
Retry sector count : 0
Damaged sector count : 0

Track 04
Filename : /Users/gavinevans/Desktop/The Money Store (flac)/Death Grips - The Money Store (2012) [FLAC]/04 Black Jack.flac

Track gain : -11.00 dB
Peak : 0.977020
CRC32 hash (test run) : 7B7CA884
CRC32 hash : 7B7CA884
CRC32 hash (skip zero) : D1A54C19
AccurateRip signature : 324C2477
->Track not present in AccurateRip database.
Statistics
Read error : 0
Jitter error (maybe fixed) : 0
Retry sector count : 0
Damaged sector count : 0

Track 05
Filename : /Users/gavinevans/Desktop/The Money Store (flac)/Death Grips - The Money Store (2012) [FLAC]/05 Hustle Bones.flac

Track gain : -10.35 dB
Peak : 0.977020
CRC32 hash (test run) : 9D220ADC
CRC32 hash : 9D220ADC
CRC32 hash (skip zero) : 4EFECD63
AccurateRip signature : F05BC84E
->Track not present in AccurateRip database.
Statistics
Read error : 0
Jitter error (maybe fixed) : 0
Retry sector count : 0
Damaged sector count : 0

Track 06
Filename : /Users/gavinevans/Desktop/The Money Store (flac)/Death Grips - The Money Store (2012) [FLAC]/06 I've Seen Footage.flac

Track gain : -10.29 dB
Peak : 0.977020
CRC32 hash (test run) : A8014681
CRC32 hash : A8014681
CRC32 hash (skip zero) : D7475A71
AccurateRip signature : AFC564ED
->Track not present in AccurateRip database.
Statistics
Read error : 0
Jitter error (maybe fixed) : 0
Retry sector count : 0
Damaged sector count : 0

Track 07
Filename : /Users/gavinevans/Desktop/The Money Store (flac)/Death Grips - The Money Store (2012) [FLAC]/07 Double Helix.flac

Track gain : -8.29 dB
Peak : 0.977020
CRC32 hash (test run) : E9E28455
CRC32 hash : E9E28455
CRC32 hash (skip zero) : 4B937A5A
AccurateRip signature : 40A2F60C
->Track not present in AccurateRip database.
Statistics
Read error : 0
Jitter error (maybe fixed) : 0
Retry sector count : 0
Damaged sector count : 0

Track 08
Filename : /Users/gavinevans/Desktop/The Money Store (flac)/Death Grips - The Money Store (2012) [FLAC]/08 System Blower.flac

Track gain : -9.84 dB
Peak : 0.977020
CRC32 hash (test run) : A5BC7E16
CRC32 hash : A5BC7E16
CRC32 hash (skip zero) : F0A2FB4E
AccurateRip signature : C81433F7
->Track not present in AccurateRip database.
Statistics
Read error : 0
Jitter error (maybe fixed) : 0
Retry sector count : 0
Damaged sector count : 0

Track 09
Filename : /Users/gavinevans/Desktop/The Money Store (flac)/Death Grips - The Money Store (2012) [FLAC]/09 The Cage.flac

Track gain : -9.22 dB
Peak : 0.977020
CRC32 hash (test run) : 763567A9
CRC32 hash : 763567A9
CRC32 hash (skip zero) : BD06D44E
AccurateRip signature : DB964EF1
->Track not present in AccurateRip database.
Statistics
Read error : 0
Jitter error (maybe fixed) : 0
Retry sector count : 0
Damaged sector count : 0

Track 10
Filename : /Users/gavinevans/Desktop/The Money Store (flac)/Death Grips - The Money Store (2012) [FLAC]/10 Punk Weight.flac

Track gain : -8.39 dB
Peak : 0.977020
CRC32 hash (test run) : 7C7B8CFC
CRC32 hash : 7C7B8CFC
CRC32 hash (skip zero) : B018F7F2
AccurateRip signature : 22FD23CA
->Track not present in AccurateRip database.
Statistics
Read error : 0
Jitter error (maybe fixed) : 0
Retry sector count : 0
Damaged sector count : 0

Track 11
Filename : /Users/gavinevans/Desktop/The Money Store (flac)/Death Grips - The Money Store (2012) [FLAC]/11 Fuck That.flac

Track gain : -10.28 dB
Peak : 0.977020
CRC32 hash (test run) : AD41144B
CRC32 hash : AD41144B
CRC32 hash (skip zero) : 584D2E06
AccurateRip signature : 8A7431B8
->Track not present in AccurateRip database.
Statistics
Read error : 0
Jitter error (maybe fixed) : 0
Retry sector count : 0
Damaged sector count : 0

Track 12
Filename : /Users/gavinevans/Desktop/The Money Store (flac)/Death Grips - The Money Store (2012) [FLAC]/12 Bitch Please.flac

Track gain : -10.83 dB
Peak : 0.977020
CRC32 hash (test run) : 55F967A7
CRC32 hash : 55F967A7
CRC32 hash (skip zero) : 2F3BF344
AccurateRip signature : DA55B35F
->Track not present in AccurateRip database.
Statistics
Read error : 0
Jitter error (maybe fixed) : 0
Retry sector count : 0
Damaged sector count : 0

Track 13
Filename : /Users/gavinevans/Desktop/The Money Store (flac)/Death Grips - The Money Store (2012) [FLAC]/13 Hacker.flac

Track gain : -9.54 dB
Peak : 0.977020
CRC32 hash (test run) : 57BBCD30
CRC32 hash : 57BBCD30
CRC32 hash (skip zero) : A8AC43C7
AccurateRip signature : B5D76679
->Track not present in AccurateRip database.
Statistics
Read error : 0
Jitter error (maybe fixed) : 0
Retry sector count : 0
Damaged sector count : 0

No errors occurred

End of status report
TITLE "The Money Store" 
PERFORMER "Death Grips"
REM GENRE "Alternative"
REM DATE "2012"
REM DISCNUMBER 1
REM TOTALDISCS 1
REM DISCID B109B20D
REM REPLAYGAIN_ALBUM_GAIN -10.31 dB
REM REPLAYGAIN_ALBUM_PEAK 0.977020
FILE "01 Get Got.flac" WAVE
TRACK 01 AUDIO
TITLE "Get Got"
SONGWRITER "Andy Morin/Stefan Burnett/Zach Hill"
ISRC USSM11200903
REM REPLAYGAIN_TRACK_GAIN -11.74 dB
REM REPLAYGAIN_TRACK_PEAK 0.977020
INDEX 01 00:00:00
FILE "02 The Fever.flac" WAVE
TRACK 02 AUDIO
TITLE "The Fever"
SONGWRITER "Andy Morin/Stefan Burnett/Zach Hill"
ISRC USSM11200904
REM REPLAYGAIN_TRACK_GAIN -10.18 dB
REM REPLAYGAIN_TRACK_PEAK 0.977020
INDEX 01 00:00:00
FILE "03 Lost Boys.flac" WAVE
TRACK 03 AUDIO
TITLE "Lost Boys"
SONGWRITER "Andy Morin/Stefan Burnett/Zach Hill"
ISRC USSM11200905
REM REPLAYGAIN_TRACK_GAIN -11.59 dB
REM REPLAYGAIN_TRACK_PEAK 0.977020
INDEX 01 00:00:00
FILE "04 Black Jack.flac" WAVE
TRACK 04 AUDIO
TITLE "Black Jack"
SONGWRITER "Andy Morin/Stefan Burnett/Zach Hill"
ISRC USSM11200906
REM REPLAYGAIN_TRACK_GAIN -11.00 dB
REM REPLAYGAIN_TRACK_PEAK 0.977020
INDEX 01 00:00:00
FILE "05 Hustle Bones.flac" WAVE
TRACK 05 AUDIO
TITLE "Hustle Bones"
SONGWRITER "Andy Morin/Stefan Burnett/Zach Hill"
ISRC USSM11200909
REM REPLAYGAIN_TRACK_GAIN -10.35 dB
REM REPLAYGAIN_TRACK_PEAK 0.977020
INDEX 01 00:00:00
FILE "06 I've Seen Footage.flac" WAVE
TRACK 06 AUDIO
TITLE "I've Seen Footage"
SONGWRITER "Andy Morin/Stefan Burnett/Zach Hill"
ISRC USSM11200908
REM REPLAYGAIN_TRACK_GAIN -10.29 dB
REM REPLAYGAIN_TRACK_PEAK 0.977020
INDEX 01 00:00:00
FILE "07 Double Helix.flac" WAVE
TRACK 07 AUDIO
TITLE "Double Helix"
SONGWRITER "Andy Morin/Stefan Burnett/Zach Hill"
ISRC USSM11200907
REM REPLAYGAIN_TRACK_GAIN -8.29 dB
REM REPLAYGAIN_TRACK_PEAK 0.977020
INDEX 01 00:00:00
FILE "08 System Blower.flac" WAVE
TRACK 08 AUDIO
TITLE "System Blower"
SONGWRITER "Andy Morin/Stefan Burnett/Zach Hill"
ISRC USSM11200916
REM REPLAYGAIN_TRACK_GAIN -9.84 dB
REM REPLAYGAIN_TRACK_PEAK 0.977020
INDEX 01 00:00:00
FILE "09 The Cage.flac" WAVE
TRACK 09 AUDIO
TITLE "The Cage"
SONGWRITER "Andy Morin/Stefan Burnett/Zach Hill"
ISRC USSM11200914
REM REPLAYGAIN_TRACK_GAIN -9.22 dB
REM REPLAYGAIN_TRACK_PEAK 0.977020
INDEX 01 00:00:00
FILE "10 Punk Weight.flac" WAVE
TRACK 10 AUDIO
TITLE "Punk Weight"
SONGWRITER "Andy Morin/Stefan Burnett/Zach Hill"
ISRC USSM11200910
REM REPLAYGAIN_TRACK_GAIN -8.39 dB
REM REPLAYGAIN_TRACK_PEAK 0.977020
INDEX 01 00:00:00
FILE "11 Fuck That.flac" WAVE
TRACK 11 AUDIO
TITLE "Fuck That"
SONGWRITER "Andy Morin/Stefan Burnett/Zach Hill"
ISRC USSM11200915
REM REPLAYGAIN_TRACK_GAIN -10.28 dB
REM REPLAYGAIN_TRACK_PEAK 0.977020
INDEX 01 00:00:00
FILE "12 Bitch Please.flac" WAVE
TRACK 12 AUDIO
TITLE "Bitch Please"
SONGWRITER "Andy Morin/Stefan Burnett/Zach Hill"
ISRC USSM11200912
REM REPLAYGAIN_TRACK_GAIN -10.83 dB
REM REPLAYGAIN_TRACK_PEAK 0.977020
INDEX 01 00:00:00
FILE "13 Hacker.flac" WAVE
TRACK 13 AUDIO
TITLE "Hacker"
SONGWRITER "Andy Morin/Stefan Burnett/Zach Hill"
ISRC USSM11200911
REM REPLAYGAIN_TRACK_GAIN -9.54 dB
REM REPLAYGAIN_TRACK_PEAK 0.977020
INDEX 01 00:00:00
info [Профиль]  [ЛС] 

Resistance

Пол: Пол:Муж

Стаж: 12 лет

Сообщений: 3640

Россия
Рейтинг

post 13-Май-2012 11:15 (спустя 46 секунд) [-]0[+]

[Цитировать] 

Злой экспериментальный хардкор, маст-хэв.
info [Профиль]  [ЛС] 

VlaDai

Пол: Пол:Муж

Стаж: 10 лет

Сообщений: 1051

Россия
Рейтинг

post 13-Май-2012 14:36 (спустя 3 часа) [-]5[+]

[Цитировать] 

Оболжка таки блековая Смеюсь

_________________
Слушаю митол и читаю мангу - айко наркоман.
info [Профиль]  [ЛС] 
Показать сообщения:    
Ответить на тему

Текущее время: 27-Май 10:37

Часовой пояс: GMT + 4



Вы не можете начинать темы
Вы не можете отвечать на сообщения
Вы не можете редактировать свои сообщения
Вы не можете удалять свои сообщения
Вы не можете голосовать в опросах
Вы не можете прикреплять файлы к сообщениям
Вы не можете скачивать файлы