Ошибка

(Hip-Hop, R&B) Diggy - Unexpected Arrival - 2012, FLAC (tracks+.cue), lossless

Ответить на тему
 
Автор Сообщение

Raxent

Пол: Пол:Муж

Стаж: 12 лет

Сообщений: 219

Рейтинг

post 08-Май-2012 09:12 0[+]

[Цитировать] 

Diggy - Unexpected Arrival

Год: 2012
Жанр: Hip-Hop, R&B
Страна: США
Аудиокодека: FLAC
Тип рипа: tracks + .cue
Битрейт: lossless
Продолжительность: 00:43:34
Источник: what.cd (sasafrass)
Трэклист:
01. The Arrival (Intro) 1:15
02. Hello World 3:11
03. Need To Know 3:34
04. 88 (Feat. Jadakiss) 3:06
05. Two Up 3:30
06. Unforgiveable Blackness 4:15
07. Special Occasion (Feat. Tank) 3:52
08. Glow In The Dark 5:59
09. 4 Letter Word 3:40
10. Do It Like You (Feat. Jeremih) 3:53
11. Tom Edison 3:32
12. The Reign 3:59[/color]


Код:

Exact Audio Copy V1.0 beta 3 from 29. August 2011

EAC extraction logfile from 18. April 2012, 17:22

Diggy / Unexpected Arrival

Used drive  : TSSTcorpCDDVDW TS-H653G   Adapter: 0  ID: 0

Read mode               : Secure
Utilize accurate stream : Yes
Defeat audio cache      : Yes
Make use of C2 pointers : No

Read offset correction                      : 6
Overread into Lead-In and Lead-Out          : No
Fill up missing offset samples with silence : Yes
Delete leading and trailing silent blocks   : No
Null samples used in CRC calculations       : Yes
Used interface                              : Native Win32 interface for Win NT & 2000
Gap handling                                : Appended to previous track

Used output format              : User Defined Encoder
Selected bitrate                : 1024 kBit/s
Quality                         : High
Add ID3 tag                     : No
Command line compressor         : D:\Program Files (x86)\FLAC\flac.exe
Additional command line options : -8 -V -T "ARTIST=%artist%" -T "TITLE=%title%" -T "ALBUM=%albumtitle%" -T "DATE=%year%" -T "TRACKNUMBER=%tracknr%" -T "GENRE=%genre%" -T "PERFORMER=%albuminterpret%" -T "COMPOSER=%composer%" %haslyrics%--tag-from-file=LYRICS="%lyricsfile%"%haslyrics% -T "ALBUMARTIST=%albumartist%" -T "DISCNUMBER=%cdnumber%" -T "TOTALDISCS=%totalcds%" -T "TOTALTRACKS=%numtracks%" -T "COMMENT=%comment%" %source% -o %dest%

TOC of the extracted CD

     Track |   Start  |  Length  | Start sector | End sector
    ---------------------------------------------------------
        1  |  0:00.00 |  1:15.40 |         0    |     5664
        2  |  1:15.40 |  3:11.21 |      5665    |    20010
        3  |  4:26.61 |  3:34.51 |     20011    |    36111
        4  |  8:01.37 |  3:06.37 |     36112    |    50098
        5  | 11:07.74 |  3:30.66 |     50099    |    65914
        6  | 14:38.65 |  4:15.12 |     65915    |    85051
        7  | 18:54.02 |  3:52.69 |     85052    |   102520
        8  | 22:46.71 |  5:59.01 |    102521    |   129446
        9  | 28:45.72 |  3:40.49 |    129447    |   145995
       10  | 32:26.46 |  3:53.37 |    145996    |   163507
       11  | 36:20.08 |  3:32.23 |    163508    |   179430
       12  | 39:52.31 |  3:59.16 |    179431    |   197371

Track  1

     Filename D:\EAC Rips\Diggy - Unexpected Arrival (2012)\Diggy - Unexpected Arrival (2012) [FLAC]\01 - The Arrival.wav

     Pre-gap length  0:00:02.00

     Peak level 77.6 %
     Extraction speed 3.1 X
     Track quality 100.0 %
     Test CRC 8807AF7A
     Copy CRC 8807AF7A
     Track not present in AccurateRip database
     Copy OK

Track  2

     Filename D:\EAC Rips\Diggy - Unexpected Arrival (2012)\Diggy - Unexpected Arrival (2012) [FLAC]\02 - Hello World.wav

     Peak level 100.0 %
     Extraction speed 4.2 X
     Track quality 100.0 %
     Test CRC 9E57D84F
     Copy CRC 9E57D84F
     Track not present in AccurateRip database
     Copy OK

Track  3

     Filename D:\EAC Rips\Diggy - Unexpected Arrival (2012)\Diggy - Unexpected Arrival (2012) [FLAC]\03 - I Need to Know.wav

     Pre-gap length  0:00:00.01

     Peak level 98.8 %
     Extraction speed 4.6 X
     Track quality 100.0 %
     Test CRC 45C6F29B
     Copy CRC 45C6F29B
     Track not present in AccurateRip database
     Copy OK

Track  4

     Filename D:\EAC Rips\Diggy - Unexpected Arrival (2012)\Diggy - Unexpected Arrival (2012) [FLAC]\04 - 88.wav

     Pre-gap length  0:00:00.01

     Peak level 98.8 %
     Extraction speed 4.8 X
     Track quality 100.0 %
     Test CRC 909D096A
     Copy CRC 909D096A
     Track not present in AccurateRip database
     Copy OK

Track  5

     Filename D:\EAC Rips\Diggy - Unexpected Arrival (2012)\Diggy - Unexpected Arrival (2012) [FLAC]\05 - Two Up.wav

     Pre-gap length  0:00:00.01

     Peak level 98.8 %
     Extraction speed 5.3 X
     Track quality 100.0 %
     Test CRC A11A2DE7
     Copy CRC A11A2DE7
     Track not present in AccurateRip database
     Copy OK

Track  6

     Filename D:\EAC Rips\Diggy - Unexpected Arrival (2012)\Diggy - Unexpected Arrival (2012) [FLAC]\06 - Unforgivable Blackness.wav

     Pre-gap length  0:00:00.01

     Peak level 98.8 %
     Extraction speed 5.7 X
     Track quality 100.0 %
     Test CRC 137BE148
     Copy CRC 137BE148
     Track not present in AccurateRip database
     Copy OK

Track  7

     Filename D:\EAC Rips\Diggy - Unexpected Arrival (2012)\Diggy - Unexpected Arrival (2012) [FLAC]\07 - Special Occasion.wav

     Pre-gap length  0:00:00.01

     Peak level 98.8 %
     Extraction speed 5.9 X
     Track quality 100.0 %
     Test CRC 2EB4472A
     Copy CRC 2EB4472A
     Track not present in AccurateRip database
     Copy OK

Track  8

     Filename D:\EAC Rips\Diggy - Unexpected Arrival (2012)\Diggy - Unexpected Arrival (2012) [FLAC]\08 - Glow in the Dark.wav

     Pre-gap length  0:00:00.01

     Peak level 98.8 %
     Extraction speed 6.7 X
     Track quality 100.0 %
     Test CRC EC1FDD77
     Copy CRC EC1FDD77
     Track not present in AccurateRip database
     Copy OK

Track  9

     Filename D:\EAC Rips\Diggy - Unexpected Arrival (2012)\Diggy - Unexpected Arrival (2012) [FLAC]\09 - 4 Letter Word.wav

     Pre-gap length  0:00:00.01

     Peak level 98.8 %
     Extraction speed 6.6 X
     Track quality 100.0 %
     Test CRC F18E0104
     Copy CRC F18E0104
     Track not present in AccurateRip database
     Copy OK

Track 10

     Filename D:\EAC Rips\Diggy - Unexpected Arrival (2012)\Diggy - Unexpected Arrival (2012) [FLAC]\10 - Do It Like You.wav

     Pre-gap length  0:00:01.00

     Peak level 98.8 %
     Extraction speed 6.9 X
     Track quality 100.0 %
     Test CRC D6B1C53A
     Copy CRC D6B1C53A
     Track not present in AccurateRip database
     Copy OK

Track 11

     Filename D:\EAC Rips\Diggy - Unexpected Arrival (2012)\Diggy - Unexpected Arrival (2012) [FLAC]\11 - Tom Edison.wav

     Pre-gap length  0:00:00.01

     Peak level 98.8 %
     Extraction speed 7.1 X
     Track quality 100.0 %
     Test CRC 25D4289F
     Copy CRC 25D4289F
     Track not present in AccurateRip database
     Copy OK

Track 12

     Filename D:\EAC Rips\Diggy - Unexpected Arrival (2012)\Diggy - Unexpected Arrival (2012) [FLAC]\12 - The Reign.wav

     Pre-gap length  0:00:00.01

     Peak level 98.8 %
     Extraction speed 7.4 X
     Track quality 100.0 %
     Test CRC 5235D39D
     Copy CRC 5235D39D
     Track not present in AccurateRip database
     Copy OK

None of the tracks are present in the AccurateRip database

No errors occurred

End of status report

---- CUETools DB Plugin V2.1.3

[CTDB TOCID: cgX0_cY1TS13FUL2cugwQrigSic-] disk not present in database, Submit result: cgX0_cY1TS13FUL2cugwQrigSic- has been uploaded

==== Log checksum 9C33427C2467AAD18215D49068E029DD1D12A983E6ACBD1BE3338EE54CBE26AB ====

Код:

REM GENRE Hip-Hop
REM DATE 2012
REM DISCID B70A470C
REM COMMENT "ExactAudioCopy v1.0b3"
CATALOG 0075678826481
PERFORMER "Diggy"
TITLE "Unexpected Arrival"
FILE "01 - The Arrival.wav" WAVE
  TRACK 01 AUDIO
    TITLE "The Arrival"
    PERFORMER "Diggy"
    ISRC USAT21200430
    FLAGS DCP
    INDEX 01 00:00:00
FILE "02 - Hello World.wav" WAVE
  TRACK 02 AUDIO
    TITLE "Hello World"
    PERFORMER "Diggy"
    ISRC USAT21200431
    FLAGS DCP
    INDEX 01 00:00:00
  TRACK 03 AUDIO
    TITLE "I Need to Know"
    PERFORMER "Diggy"
    ISRC USAT21200432
    FLAGS DCP
    INDEX 00 03:11:20
FILE "03 - I Need to Know.wav" WAVE
    INDEX 01 00:00:00
  TRACK 04 AUDIO
    TITLE "88"
    PERFORMER "Diggy"
    ISRC USAT21200433
    FLAGS DCP
    INDEX 00 03:34:50
FILE "04 - 88.wav" WAVE
    INDEX 01 00:00:00
  TRACK 05 AUDIO
    TITLE "Two Up"
    PERFORMER "Diggy"
    ISRC USAT21200434
    FLAGS DCP
    INDEX 00 03:06:36
FILE "05 - Two Up.wav" WAVE
    INDEX 01 00:00:00
  TRACK 06 AUDIO
    TITLE "Unforgivable Blackness"
    PERFORMER "Diggy"
    ISRC USAT21200435
    FLAGS DCP
    INDEX 00 03:30:65
FILE "06 - Unforgivable Blackness.wav" WAVE
    INDEX 01 00:00:00
  TRACK 07 AUDIO
    TITLE "Special Occasion"
    PERFORMER "Diggy"
    ISRC USAT21200436
    FLAGS DCP
    INDEX 00 04:15:11
FILE "07 - Special Occasion.wav" WAVE
    INDEX 01 00:00:00
  TRACK 08 AUDIO
    TITLE "Glow in the Dark"
    PERFORMER "Diggy"
    ISRC USAT21200437
    FLAGS DCP
    INDEX 00 03:52:68
FILE "08 - Glow in the Dark.wav" WAVE
    INDEX 01 00:00:00
  TRACK 09 AUDIO
    TITLE "4 Letter Word"
    PERFORMER "Diggy"
    ISRC USAT21200438
    FLAGS DCP
    INDEX 00 05:59:00
FILE "09 - 4 Letter Word.wav" WAVE
    INDEX 01 00:00:00
  TRACK 10 AUDIO
    TITLE "Do It Like You"
    PERFORMER "Diggy"
    ISRC USAT21102323
    FLAGS DCP
    INDEX 00 03:39:49
FILE "10 - Do It Like You.wav" WAVE
    INDEX 01 00:00:00
  TRACK 11 AUDIO
    TITLE "Tom Edison"
    PERFORMER "Diggy"
    ISRC USAT21200439
    FLAGS DCP
    INDEX 00 03:53:36
FILE "11 - Tom Edison.wav" WAVE
    INDEX 01 00:00:00
  TRACK 12 AUDIO
    TITLE "The Reign"
    PERFORMER "Diggy"
    ISRC USAT21200440
    FLAGS DCP
    INDEX 00 03:32:22
FILE "12 - The Reign.wav" WAVE
    INDEX 01 00:00:00


info [Профиль]  [ЛС] 

Raxent

Пол: Пол:Муж

Стаж: 12 лет

Сообщений: 219

Рейтинг

post 08-Май-2012 09:16 (спустя 3 минуты) [-]0[+]

[Цитировать] 

(Hip-Hop, R&B) Diggy - Unexpected Arrival - 2012, MP3 (tracks), 320 kbps
info [Профиль]  [ЛС] 

post 08-Май-2012 09:16 (спустя 16 секунд) [-]0[+]

Топик был перенесен из форума Оформление раздач в форум Зарубежный Rap, Hip-Hop, R'n'B (lossless)

saGambit
 
Показать сообщения:    
Ответить на тему

Текущее время: 27-Май 19:56

Часовой пояс: GMT + 4



Вы не можете начинать темы
Вы не можете отвечать на сообщения
Вы не можете редактировать свои сообщения
Вы не можете удалять свои сообщения
Вы не можете голосовать в опросах
Вы не можете прикреплять файлы к сообщениям
Вы не можете скачивать файлы