Ошибка

(Comedy Rap) The Lonely Island - Turtleneck & Chain - 2011, FLAC (tracks+.cue), lossless

Ответить на тему
 
Автор Сообщение

Resistance

Пол: Пол:Муж

Стаж: 12 лет

Сообщений: 3640

Россия
Рейтинг

post 29-Апр-2012 20:23 0[+]

[Цитировать] 

The Lonely Island - Turtleneck & Chain
pic="http://formofintellect.files.wordpress.com/2011/05/turtleneck_and_chain.jpg"
Жанр: Comedy Rap
Год издания данного носителя: 2011
Страна-производитель носителя: USA
Лейбл: Universal Republic
Каталоговый номер: B001554710
Аудио кодек: FLAC
Тип рипа: tracks+.cue
Битрейт аудио: lossless
Продолжительность: 00:39:04
Полиграфия: Отсутствует
Треклист:
01. We're Back! (1:50)
02. Mama (2:00)
03. I Just Had Sex (feat. Akon) (2:47)
04. Jack Sparrow (feat. Michael Bolton) (3:08)
05. Attracted To Us (feat. Beck) (1:52)
06. Rocky (2:33)
07. My Mic - Interlude (0:23)
08. Turtleneck & Chain (feat. Snoop Dogg) (2:44)
09. Shy Ronnie 2: Ronnie & Clyde (feat. Rihanna) (2:27)
10. Trouble on Dookie Island (2:10)
11. Falcor vs. Atreyu - Classy Skit #1 (0:29)
12. Motherlover (feat. Justin Timberlake) (2:50)
13. The Creep (feat. Nicki Minaj and John Waters) (2:39)
14. Watch Me Do Me - Classy Skit #2 (0:27)
15. Threw It on the Ground (2:39)
16. Japan (2:31)
17. After Party (feat. Santigold) (2:53)
18. No Homo (2:03)
19. No Homo Outro (0:41)
Exact Audio Copy V0.99 prebeta 5 from 4. May 2009 

EAC extraction logfile from 6. May 2011, 21:23

The Lonely Island / Turtleneck & Chain

Used drive : hp DVD RW AD-7586H Adapter: 1 ID: 0

Read mode : Secure
Utilize accurate stream : Yes
Defeat audio cache : Yes
Make use of C2 pointers : No

Read offset correction : 6
Overread into Lead-In and Lead-Out : No
Fill up missing offset samples with silence : Yes
Delete leading and trailing silent blocks : No
Null samples used in CRC calculations : Yes
Used interface : Native Win32 interface for Win NT & 2000
Gap handling : Appended to previous track

Used output format : User Defined Encoder
Selected bitrate : 320 kBit/s
Quality : High
Add ID3 tag : No
Command line compressor : C:Program Files (x86)Exact Audio CopyFlacflac.exe
Additional command line options : -V -8 -T "artist=%a" -T "title=%t" -T "album=%g" -T "date=%y" -T "tracknumber=%n" -T "genre=%m" %s

TOC of the extracted CD

Track | Start | Length | Start sector | End sector
---------------------------------------------------------
1 | 0:00.00 | 1:50.27 | 0 | 8276
2 | 1:50.27 | 1:59.60 | 8277 | 17261
3 | 3:50.12 | 2:46.42 | 17262 | 29753
4 | 6:36.54 | 3:07.56 | 29754 | 43834
5 | 9:44.35 | 1:52.27 | 43835 | 52261
6 | 11:36.62 | 2:33.34 | 52262 | 63770
7 | 14:10.21 | 0:22.48 | 63771 | 65468
8 | 14:32.69 | 2:44.18 | 65469 | 77786
9 | 17:17.12 | 2:26.38 | 77787 | 88774
10 | 19:43.50 | 2:09.48 | 88775 | 98497
11 | 21:53.23 | 0:29.34 | 98498 | 100706
12 | 22:22.57 | 2:49.38 | 100707 | 113419
13 | 25:12.20 | 2:39.00 | 113420 | 125344
14 | 27:51.20 | 0:27.11 | 125345 | 127380
15 | 28:18.31 | 2:38.39 | 127381 | 139269
16 | 30:56.70 | 2:30.54 | 139270 | 150573
17 | 33:27.49 | 2:52.61 | 150574 | 163534
18 | 36:20.35 | 2:02.66 | 163535 | 172750
19 | 38:23.26 | 0:41.33 | 172751 | 175858

Track 1

Filename C:EACripsThe Lonely Island - 2011 - Turtleneck & Chain�1 - We're Back!.wav

Pre-gap length 0:00:02.00

Peak level 99.8 %
Track quality 100.0 %
Test CRC E220B739
Copy CRC E220B739
Track not present in AccurateRip database
Copy OK

Track 2

Filename C:EACripsThe Lonely Island - 2011 - Turtleneck & Chain�2 - Mama.wav

Peak level 99.8 %
Track quality 100.0 %
Test CRC 8BA9D293
Copy CRC 8BA9D293
Track not present in AccurateRip database
Copy OK

Track 3

Filename C:EACripsThe Lonely Island - 2011 - Turtleneck & Chain�3 - I Just Had Sex (feat. Akon).wav

Peak level 99.8 %
Track quality 100.0 %
Test CRC B0BA18F5
Copy CRC B0BA18F5
Track not present in AccurateRip database
Copy OK

Track 4

Filename C:EACripsThe Lonely Island - 2011 - Turtleneck & Chain�4 - Jack Sparrow (feat. Michael Bolton).wav

Peak level 99.8 %
Track quality 100.0 %
Test CRC 11DC17EC
Copy CRC 11DC17EC
Track not present in AccurateRip database
Copy OK

Track 5

Filename C:EACripsThe Lonely Island - 2011 - Turtleneck & Chain�5 - Attracted To Us (feat. Beck).wav

Peak level 99.8 %
Track quality 100.0 %
Test CRC 8617D1C0
Copy CRC 8617D1C0
Track not present in AccurateRip database
Copy OK

Track 6

Filename C:EACripsThe Lonely Island - 2011 - Turtleneck & Chain�6 - Rocky.wav

Peak level 99.8 %
Track quality 100.0 %
Test CRC 958F1EC4
Copy CRC 958F1EC4
Track not present in AccurateRip database
Copy OK

Track 7

Filename C:EACripsThe Lonely Island - 2011 - Turtleneck & Chain�7 - My Mic - Interlude.wav

Peak level 94.8 %
Track quality 100.0 %
Test CRC AFB0DEF4
Copy CRC AFB0DEF4
Track not present in AccurateRip database
Copy OK

Track 8

Filename C:EACripsThe Lonely Island - 2011 - Turtleneck & Chain�8 - Turtleneck & Chain (feat. Snoop Dogg).wav

Peak level 99.8 %
Track quality 100.0 %
Test CRC C227A22B
Copy CRC C227A22B
Track not present in AccurateRip database
Copy OK

Track 9

Filename C:EACripsThe Lonely Island - 2011 - Turtleneck & Chain�9 - Shy Ronnie 2- Ronnie & Clyde (feat. Rihanna).wav

Peak level 91.0 %
Track quality 100.0 %
Test CRC ECEB0630
Copy CRC ECEB0630
Track not present in AccurateRip database
Copy OK

Track 10

Filename C:EACripsThe Lonely Island - 2011 - Turtleneck & Chain10 - Trouble on Dookie Island.wav

Peak level 99.8 %
Track quality 100.0 %
Test CRC D15757B3
Copy CRC D15757B3
Track not present in AccurateRip database
Copy OK

Track 11

Filename C:EACripsThe Lonely Island - 2011 - Turtleneck & Chain11 - Falcor vs. Atreyu - Classy Skit #1.wav

Peak level 61.8 %
Track quality 100.0 %
Test CRC 11E91AFC
Copy CRC 11E91AFC
Track not present in AccurateRip database
Copy OK

Track 12

Filename C:EACripsThe Lonely Island - 2011 - Turtleneck & Chain12 - Motherlover (feat. Justin Timberlake).wav

Peak level 99.8 %
Track quality 100.0 %
Test CRC 45E24889
Copy CRC 45E24889
Track not present in AccurateRip database
Copy OK

Track 13

Filename C:EACripsThe Lonely Island - 2011 - Turtleneck & Chain13 - The Creep (feat. Nicki Minaj and John Waters).wav

Peak level 99.8 %
Track quality 100.0 %
Test CRC 0D30CB2F
Copy CRC 0D30CB2F
Track not present in AccurateRip database
Copy OK

Track 14

Filename C:EACripsThe Lonely Island - 2011 - Turtleneck & Chain14 - Watch Me Do Me - Classy Skit #2.wav

Peak level 87.1 %
Track quality 100.0 %
Test CRC E98E1652
Copy CRC E98E1652
Track not present in AccurateRip database
Copy OK

Track 15

Filename C:EACripsThe Lonely Island - 2011 - Turtleneck & Chain15 - Threw It on the Ground.wav

Peak level 99.8 %
Track quality 100.0 %
Test CRC C849E4B5
Copy CRC C849E4B5
Track not present in AccurateRip database
Copy OK

Track 16

Filename C:EACripsThe Lonely Island - 2011 - Turtleneck & Chain16 - Japan.wav

Peak level 99.8 %
Track quality 100.0 %
Test CRC D16B1F19
Copy CRC D16B1F19
Track not present in AccurateRip database
Copy OK

Track 17

Filename C:EACripsThe Lonely Island - 2011 - Turtleneck & Chain17 - After Party (feat. Santigold).wav

Peak level 99.8 %
Track quality 100.0 %
Test CRC 3F35142B
Copy CRC 3F35142B
Track not present in AccurateRip database
Copy OK

Track 18

Filename C:EACripsThe Lonely Island - 2011 - Turtleneck & Chain18 - No Homo.wav

Peak level 99.8 %
Track quality 99.9 %
Test CRC A4706DB4
Copy CRC A4706DB4
Track not present in AccurateRip database
Copy OK

Track 19

Filename C:EACripsThe Lonely Island - 2011 - Turtleneck & Chain19 - No Homo Outro.wav

Peak level 99.8 %
Track quality 100.0 %
Test CRC 02D53DE8
Copy CRC 02D53DE8
Track not present in AccurateRip database
Copy OK

None of the tracks are present in the AccurateRip database

No errors occurred

End of status report
REM GENRE Comedy 
REM DATE 2011
REM DISCID FB092813
REM COMMENT "ExactAudioCopy v0.99pb5"
PERFORMER "The Lonely Island"
TITLE "Turtleneck & Chain"
FILE "01 - We're Back!.wav" WAVE
TRACK 01 AUDIO
TITLE "We're Back!"
PERFORMER "The Lonely Island"
INDEX 01 00:00:00
FILE "02 - Mama.wav" WAVE
TRACK 02 AUDIO
TITLE "Mama"
PERFORMER "The Lonely Island"
INDEX 01 00:00:00
FILE "03 - I Just Had Sex (feat. Akon).wav" WAVE
TRACK 03 AUDIO
TITLE "I Just Had Sex (feat. Akon)"
PERFORMER "The Lonely Island"
INDEX 01 00:00:00
FILE "04 - Jack Sparrow (feat. Michael Bolton).wav" WAVE
TRACK 04 AUDIO
TITLE "Jack Sparrow (feat. Michael Bolton)"
PERFORMER "The Lonely Island"
INDEX 01 00:00:00
FILE "05 - Attracted To Us (feat. Beck).wav" WAVE
TRACK 05 AUDIO
TITLE "Attracted To Us (feat. Beck)"
PERFORMER "The Lonely Island"
INDEX 01 00:00:00
FILE "06 - Rocky.wav" WAVE
TRACK 06 AUDIO
TITLE "Rocky"
PERFORMER "The Lonely Island"
INDEX 01 00:00:00
FILE "07 - My Mic - Interlude.wav" WAVE
TRACK 07 AUDIO
TITLE "My Mic - Interlude"
PERFORMER "The Lonely Island"
INDEX 01 00:00:00
FILE "08 - Turtleneck & Chain (feat. Snoop Dogg).wav" WAVE
TRACK 08 AUDIO
TITLE "Turtleneck & Chain (feat. Snoop Dogg)"
PERFORMER "The Lonely Island"
INDEX 01 00:00:00
FILE "09 - Shy Ronnie 2- Ronnie & Clyde (feat. Rihanna).wav" WAVE
TRACK 09 AUDIO
TITLE "Shy Ronnie 2: Ronnie & Clyde (feat. Rihanna)"
PERFORMER "The Lonely Island"
INDEX 01 00:00:00
FILE "10 - Trouble on Dookie Island.wav" WAVE
TRACK 10 AUDIO
TITLE "Trouble on Dookie Island"
PERFORMER "The Lonely Island"
INDEX 01 00:00:00
FILE "11 - Falcor vs. Atreyu - Classy Skit #1.wav" WAVE
TRACK 11 AUDIO
TITLE "Falcor vs. Atreyu - Classy Skit #1"
PERFORMER "The Lonely Island"
INDEX 01 00:00:00
FILE "12 - Motherlover (feat. Justin Timberlake).wav" WAVE
TRACK 12 AUDIO
TITLE "Motherlover (feat. Justin Timberlake)"
PERFORMER "The Lonely Island"
INDEX 01 00:00:00
FILE "13 - The Creep (feat. Nicki Minaj and John Waters).wav" WAVE
TRACK 13 AUDIO
TITLE "The Creep (feat. Nicki Minaj and John Waters)"
PERFORMER "The Lonely Island"
INDEX 01 00:00:00
FILE "14 - Watch Me Do Me - Classy Skit #2.wav" WAVE
TRACK 14 AUDIO
TITLE "Watch Me Do Me - Classy Skit #2"
PERFORMER "The Lonely Island"
INDEX 01 00:00:00
FILE "15 - Threw It on the Ground.wav" WAVE
TRACK 15 AUDIO
TITLE "Threw It on the Ground"
PERFORMER "The Lonely Island"
INDEX 01 00:00:00
FILE "16 - Japan.wav" WAVE
TRACK 16 AUDIO
TITLE "Japan"
PERFORMER "The Lonely Island"
INDEX 01 00:00:00
FILE "17 - After Party (feat. Santigold).wav" WAVE
TRACK 17 AUDIO
TITLE "After Party (feat. Santigold)"
PERFORMER "The Lonely Island"
INDEX 01 00:00:00
FILE "18 - No Homo.wav" WAVE
TRACK 18 AUDIO
TITLE "No Homo"
PERFORMER "The Lonely Island"
INDEX 01 00:00:00
FILE "19 - No Homo Outro.wav" WAVE
TRACK 19 AUDIO
TITLE "No Homo Outro"
PERFORMER "The Lonely Island"
INDEX 01 00:00:00
info [Профиль]  [ЛС] 
Показать сообщения:    
Ответить на тему

Текущее время: 28-Май 03:07

Часовой пояс: GMT + 4



Вы не можете начинать темы
Вы не можете отвечать на сообщения
Вы не можете редактировать свои сообщения
Вы не можете удалять свои сообщения
Вы не можете голосовать в опросах
Вы не можете прикреплять файлы к сообщениям
Вы не можете скачивать файлы