Ошибка

(Hip-Hop) Nicki Minaj - Pink Friday Roman Reloaded (Deluxe Edition), 2012, FLAC (tracks + .cue), lossless

Ответить на тему
 
Автор Сообщение

Raxent

Пол: Пол:Муж

Стаж: 12 лет

Сообщений: 219

Рейтинг

post 14-Апр-2012 23:54 0[+]

[Цитировать] 

Nicki Minaj - Pink Friday Roman Reloaded (Deluxe Edition)

Год: 2012
Жанр: Hip-Hop
Страна: США
Аудиокодек: FLAC
Тип рипа: tracks + .cue
Битрейт: lossless
Продолжительность: 01:19:21
Источник: what.cd (Cameron_Crazy)
Трэклист:
01. Nicki Minaj - Roman Holiday [00:04:05]
02. Nicki Minaj - Come On A Cone [00:03:05]
03. Nicki Minaj - I Am Your Leader Feat Cam ron & Rick Ross [00:03:33]
04. Nicki Minaj - Beez In The Trap Feat 2 Chainz [00:04:28]
05. Nicki Minaj - HOV Lane [00:03:13]
06. Nicki Minaj - Roman Reloaded Feat Lil Wayne [00:03:16]
07. Nicki Minaj - Champion Feat Nas - Drake - Young Jeezy [00:04:56]
08. Nicki Minaj - Right By My Side Feat Chris Brown [00:04:25]
09. Nicki Minaj - Sex In the Lounge Feat Lil Wayne - Bobby V [00:03:27]
10. Nicki Minaj - Starships [00:03:30]
11. Nicki Minaj - Pound The Alarm [00:03:25]
12. Nicki Minaj - Whip It [00:03:15]
13. Nicki Minaj - Automatic [00:03:18]
14. Nicki Minaj - Beautiful Sinner [00:03:47]
15. Nicki Minaj - Marilyn Monroe [00:03:16]
16. Nicki Minaj - Young Forever [00:03:06]
17. Nicki Minaj - Fire Burns [00:02:59]
18. Nicki Minaj - Gun Shot Feat Beenie Man [00:04:39]
19. Nicki Minaj - Stupid Hoe [00:03:16]
20. Nicki Minaj - Turn me on [00:03:19]
21. Nicki Minaj - Va va voom [00:03:03]
22. Nicki Minaj - Masquerade [00:03:48]


Код:

Exact Audio Copy V1.0 beta 1 from 15. November 2010

EAC extraction logfile from 3. April 2012, 14:03

Nicki Minaj / Pink Friday Roman Reloaded

Used drive  : ATAPI   iHAS124   Y   Adapter: 0  ID: 1

Read mode               : Secure
Utilize accurate stream : Yes
Defeat audio cache      : Yes
Make use of C2 pointers : No

Read offset correction                      : 48
Overread into Lead-In and Lead-Out          : No
Fill up missing offset samples with silence : Yes
Delete leading and trailing silent blocks   : No
Null samples used in CRC calculations       : Yes
Used interface                              : Native Win32 interface for Win NT & 2000
Gap handling                                : Appended to previous track

Used output format              : User Defined Encoder
Selected bitrate                : 256 kBit/s
Quality                         : High
Add ID3 tag                     : No
Command line compressor         : C:\Program Files (x86)\Exact Audio Copy\Flac\flac.exe
Additional command line options : -8 -V -T "ARTIST=%a" -T "TITLE=%t" -T "ALBUM=%g" -T "DATE=%y" -T "TRACKNUMBER=%n" -T "TOTALTRACKS=%x" -T "GENRE=%m" -T "ALBUMARTIST=%v" -T "ALBUM ARTIST=%v" -T "COMMENT=EAC Secure Mode, Test & Copy, AccurateRip, FLAC -8" %s

TOC of the extracted CD

     Track |   Start  |  Length  | Start sector | End sector
    ---------------------------------------------------------
        1  |  0:00.00 |  4:05.53 |         0    |    18427
        2  |  4:05.53 |  3:05.21 |     18428    |    32323
        3  |  7:10.74 |  3:33.55 |     32324    |    48353
        4  | 10:44.54 |  4:28.37 |     48354    |    68490
        5  | 15:13.16 |  3:13.36 |     68491    |    83001
        6  | 18:26.52 |  3:16.59 |     83002    |    97760
        7  | 21:43.36 |  4:56.03 |     97761    |   119963
        8  | 26:39.39 |  4:25.25 |    119964    |   139863
        9  | 31:04.64 |  3:27.58 |    139864    |   155446
       10  | 34:32.47 |  3:30.47 |    155447    |   171243
       11  | 38:03.19 |  3:25.48 |    171244    |   186666
       12  | 41:28.67 |  3:15.63 |    186667    |   201354
       13  | 44:44.55 |  3:18.05 |    201355    |   216209
       14  | 48:02.60 |  3:47.24 |    216210    |   233258
       15  | 51:50.09 |  3:16.32 |    233259    |   247990
       16  | 55:06.41 |  3:06.53 |    247991    |   261993
       17  | 58:13.19 |  2:59.57 |    261994    |   275475
       18  | 61:13.01 |  4:39.44 |    275476    |   296444
       19  | 65:52.45 |  3:16.60 |    296445    |   311204
       20  | 69:09.30 |  3:19.52 |    311205    |   326181
       21  | 72:29.07 |  3:03.42 |    326182    |   339948
       22  | 75:32.49 |  3:48.45 |    339949    |   357093

Track  1

     Filename C:\Nicki Minaj - Pink Friday Roman Reloaded (2012) [FLAC]\01 - Roman Holiday.wav

     Pre-gap length  0:00:02.00

     Peak level 99.4 %
     Extraction speed 2.2 X
     Track quality 99.9 %
     Test CRC 1E53A67C
     Copy CRC 1E53A67C
     Track not present in AccurateRip database
     Copy OK

Track  2

     Filename C:\Nicki Minaj - Pink Friday Roman Reloaded (2012) [FLAC]\02 - Come On A Cone.wav

     Peak level 99.7 %
     Extraction speed 2.2 X
     Track quality 99.9 %
     Test CRC 300B89DF
     Copy CRC 300B89DF
     Track not present in AccurateRip database
     Copy OK

Track  3

     Filename C:\Nicki Minaj - Pink Friday Roman Reloaded (2012) [FLAC]\03 - I Am Your Leader Feat Cam ron & Rick Ross.wav

     Peak level 90.1 %
     Extraction speed 2.8 X
     Track quality 100.0 %
     Test CRC 21A575D5
     Copy CRC 21A575D5
     Track not present in AccurateRip database
     Copy OK

Track  4

     Filename C:\Nicki Minaj - Pink Friday Roman Reloaded (2012) [FLAC]\04 - Beez In The Trap Feat 2 Chainz.wav

     Peak level 99.4 %
     Extraction speed 3.1 X
     Track quality 100.0 %
     Test CRC 38F5BB6F
     Copy CRC 38F5BB6F
     Track not present in AccurateRip database
     Copy OK

Track  5

     Filename C:\Nicki Minaj - Pink Friday Roman Reloaded (2012) [FLAC]\05 - HOV Lane.wav

     Peak level 99.7 %
     Extraction speed 3.2 X
     Track quality 100.0 %
     Test CRC EEDE89FF
     Copy CRC EEDE89FF
     Track not present in AccurateRip database
     Copy OK

Track  6

     Filename C:\Nicki Minaj - Pink Friday Roman Reloaded (2012) [FLAC]\06 - Roman Reloaded Feat Lil Wayne.wav

     Peak level 98.8 %
     Extraction speed 3.3 X
     Track quality 100.0 %
     Test CRC A4A8D058
     Copy CRC A4A8D058
     Track not present in AccurateRip database
     Copy OK

Track  7

     Filename C:\Nicki Minaj - Pink Friday Roman Reloaded (2012) [FLAC]\07 - Champion Feat Nas - Drake - Young Jeezy.wav

     Peak level 99.7 %
     Extraction speed 3.7 X
     Track quality 100.0 %
     Test CRC 8733DB2B
     Copy CRC 8733DB2B
     Track not present in AccurateRip database
     Copy OK

Track  8

     Filename C:\Nicki Minaj - Pink Friday Roman Reloaded (2012) [FLAC]\08 - Right By My Side Feat Chris Brown.wav

     Peak level 97.9 %
     Extraction speed 3.4 X
     Track quality 99.9 %
     Test CRC 3D57ED96
     Copy CRC 3D57ED96
     Track not present in AccurateRip database
     Copy OK

Track  9

     Filename C:\Nicki Minaj - Pink Friday Roman Reloaded (2012) [FLAC]\09 - Sex In the Lounge Feat Lil Wayne - Bobby V.wav

     Peak level 99.4 %
     Extraction speed 3.8 X
     Track quality 100.0 %
     Test CRC 2379C8A1
     Copy CRC 2379C8A1
     Track not present in AccurateRip database
     Copy OK

Track 10

     Filename C:\Nicki Minaj - Pink Friday Roman Reloaded (2012) [FLAC]\10 - Starships.wav

     Peak level 99.7 %
     Extraction speed 4.0 X
     Track quality 100.0 %
     Test CRC 943106AF
     Copy CRC 943106AF
     Track not present in AccurateRip database
     Copy OK

Track 11

     Filename C:\Nicki Minaj - Pink Friday Roman Reloaded (2012) [FLAC]\11 - Pound The Alarm.wav

     Peak level 98.8 %
     Extraction speed 4.1 X
     Track quality 100.0 %
     Test CRC 27109A81
     Copy CRC 27109A81
     Track not present in AccurateRip database
     Copy OK

Track 12

     Filename C:\Nicki Minaj - Pink Friday Roman Reloaded (2012) [FLAC]\12 - Whip It.wav

     Peak level 99.7 %
     Extraction speed 4.1 X
     Track quality 100.0 %
     Test CRC D5FD1C13
     Copy CRC D5FD1C13
     Track not present in AccurateRip database
     Copy OK

Track 13

     Filename C:\Nicki Minaj - Pink Friday Roman Reloaded (2012) [FLAC]\13 - Automatic.wav

     Peak level 98.8 %
     Extraction speed 4.3 X
     Track quality 100.0 %
     Test CRC 6C75AEFC
     Copy CRC 6C75AEFC
     Track not present in AccurateRip database
     Copy OK

Track 14

     Filename C:\Nicki Minaj - Pink Friday Roman Reloaded (2012) [FLAC]\14 - Beautiful Sinner.wav

     Peak level 98.7 %
     Extraction speed 4.5 X
     Track quality 100.0 %
     Test CRC ADFB6549
     Copy CRC ADFB6549
     Track not present in AccurateRip database
     Copy OK

Track 15

     Filename C:\Nicki Minaj - Pink Friday Roman Reloaded (2012) [FLAC]\15 - Marilyn Monroe.wav

     Peak level 94.9 %
     Extraction speed 4.5 X
     Track quality 100.0 %
     Test CRC FEB3D8F8
     Copy CRC FEB3D8F8
     Track not present in AccurateRip database
     Copy OK

Track 16

     Filename C:\Nicki Minaj - Pink Friday Roman Reloaded (2012) [FLAC]\16 - Young Forever.wav

     Peak level 98.8 %
     Extraction speed 4.6 X
     Track quality 100.0 %
     Test CRC 804B0DE0
     Copy CRC 804B0DE0
     Track not present in AccurateRip database
     Copy OK

Track 17

     Filename C:\Nicki Minaj - Pink Friday Roman Reloaded (2012) [FLAC]\17 - Fire Burns.wav

     Peak level 99.7 %
     Extraction speed 4.7 X
     Track quality 100.0 %
     Test CRC 0B9F7860
     Copy CRC 0B9F7860
     Track not present in AccurateRip database
     Copy OK

Track 18

     Filename C:\Nicki Minaj - Pink Friday Roman Reloaded (2012) [FLAC]\18 - Gun Shot Feat Beenie Man.wav

     Peak level 99.7 %
     Extraction speed 4.6 X
     Track quality 99.9 %
     Test CRC D6142027
     Copy CRC D6142027
     Track not present in AccurateRip database
     Copy OK

Track 19

     Filename C:\Nicki Minaj - Pink Friday Roman Reloaded (2012) [FLAC]\19 - Stupid Hoe.wav

     Peak level 98.1 %
     Extraction speed 4.9 X
     Track quality 100.0 %
     Test CRC 6485193F
     Copy CRC 6485193F
     Track not present in AccurateRip database
     Copy OK

Track 20

     Filename C:\Nicki Minaj - Pink Friday Roman Reloaded (2012) [FLAC]\20 - Turn me on.wav

     Peak level 81.5 %
     Extraction speed 5.1 X
     Track quality 100.0 %
     Test CRC 8549DC26
     Copy CRC 8549DC26
     Track not present in AccurateRip database
     Copy OK

Track 21

     Filename C:\Nicki Minaj - Pink Friday Roman Reloaded (2012) [FLAC]\21 - Va va voom.wav

     Peak level 94.2 %
     Extraction speed 5.0 X
     Track quality 100.0 %
     Test CRC 478EF480
     Copy CRC 478EF480
     Track not present in AccurateRip database
     Copy OK

Track 22

     Filename C:\Nicki Minaj - Pink Friday Roman Reloaded (2012) [FLAC]\22 - Masquerade.wav

     Peak level 98.8 %
     Extraction speed 5.4 X
     Track quality 100.0 %
     Test CRC AB79F649
     Copy CRC AB79F649
     Track not present in AccurateRip database
     Copy OK

None of the tracks are present in the AccurateRip database

No errors occurred

End of status report

==== Log checksum C03A49E7E1857437C4E3CCFDE4D57D62824299C2DA0E55EBD5EDD19E28ECC919 ====

Код:

REM GENRE Rap
REM DATE 2012
REM DISCID 3D129916
REM COMMENT "ExactAudioCopy v1.0b1"
PERFORMER "Nicki Minaj"
TITLE "Pink Friday Roman Reloaded"
FILE "01 - Roman Holiday.wav" WAVE
  TRACK 01 AUDIO
    TITLE "Roman Holiday"
    PERFORMER "Nicki Minaj"
    INDEX 01 00:00:00
FILE "02 - Come On A Cone.wav" WAVE
  TRACK 02 AUDIO
    TITLE "Come On A Cone"
    PERFORMER "Nicki Minaj"
    INDEX 01 00:00:00
FILE "03 - I Am Your Leader Feat Cam ron & Rick Ross.wav" WAVE
  TRACK 03 AUDIO
    TITLE "I Am Your Leader Feat Cam ron & Rick Ross"
    PERFORMER "Nicki Minaj"
    INDEX 01 00:00:00
FILE "04 - Beez In The Trap Feat 2 Chainz.wav" WAVE
  TRACK 04 AUDIO
    TITLE "Beez In The Trap Feat 2 Chainz"
    PERFORMER "Nicki Minaj"
    INDEX 01 00:00:00
FILE "05 - HOV Lane.wav" WAVE
  TRACK 05 AUDIO
    TITLE "HOV Lane"
    PERFORMER "Nicki Minaj"
    INDEX 01 00:00:00
FILE "06 - Roman Reloaded Feat Lil Wayne.wav" WAVE
  TRACK 06 AUDIO
    TITLE "Roman Reloaded Feat Lil Wayne"
    PERFORMER "Nicki Minaj"
    INDEX 01 00:00:00
FILE "07 - Champion Feat Nas - Drake - Young Jeezy.wav" WAVE
  TRACK 07 AUDIO
    TITLE "Champion Feat Nas - Drake - Young Jeezy"
    PERFORMER "Nicki Minaj"
    INDEX 01 00:00:00
FILE "08 - Right By My Side Feat Chris Brown.wav" WAVE
  TRACK 08 AUDIO
    TITLE "Right By My Side Feat Chris Brown"
    PERFORMER "Nicki Minaj"
    INDEX 01 00:00:00
FILE "09 - Sex In the Lounge Feat Lil Wayne - Bobby V.wav" WAVE
  TRACK 09 AUDIO
    TITLE "Sex In the Lounge Feat Lil Wayne - Bobby V"
    PERFORMER "Nicki Minaj"
    INDEX 01 00:00:00
FILE "10 - Starships.wav" WAVE
  TRACK 10 AUDIO
    TITLE "Starships"
    PERFORMER "Nicki Minaj"
    INDEX 01 00:00:00
FILE "11 - Pound The Alarm.wav" WAVE
  TRACK 11 AUDIO
    TITLE "Pound The Alarm"
    PERFORMER "Nicki Minaj"
    INDEX 01 00:00:00
FILE "12 - Whip It.wav" WAVE
  TRACK 12 AUDIO
    TITLE "Whip It"
    PERFORMER "Nicki Minaj"
    INDEX 01 00:00:00
FILE "13 - Automatic.wav" WAVE
  TRACK 13 AUDIO
    TITLE "Automatic"
    PERFORMER "Nicki Minaj"
    INDEX 01 00:00:00
FILE "14 - Beautiful Sinner.wav" WAVE
  TRACK 14 AUDIO
    TITLE "Beautiful Sinner"
    PERFORMER "Nicki Minaj"
    INDEX 01 00:00:00
FILE "15 - Marilyn Monroe.wav" WAVE
  TRACK 15 AUDIO
    TITLE "Marilyn Monroe"
    PERFORMER "Nicki Minaj"
    INDEX 01 00:00:00
FILE "16 - Young Forever.wav" WAVE
  TRACK 16 AUDIO
    TITLE "Young Forever"
    PERFORMER "Nicki Minaj"
    INDEX 01 00:00:00
FILE "17 - Fire Burns.wav" WAVE
  TRACK 17 AUDIO
    TITLE "Fire Burns"
    PERFORMER "Nicki Minaj"
    INDEX 01 00:00:00
FILE "18 - Gun Shot Feat Beenie Man.wav" WAVE
  TRACK 18 AUDIO
    TITLE "Gun Shot Feat Beenie Man"
    PERFORMER "Nicki Minaj"
    INDEX 01 00:00:00
FILE "19 - Stupid Hoe.wav" WAVE
  TRACK 19 AUDIO
    TITLE "Stupid Hoe"
    PERFORMER "Nicki Minaj"
    INDEX 01 00:00:00
FILE "20 - Turn me on.wav" WAVE
  TRACK 20 AUDIO
    TITLE "Turn me on"
    PERFORMER "Nicki Minaj"
    INDEX 01 00:00:00
FILE "21 - Va va voom.wav" WAVE
  TRACK 21 AUDIO
    TITLE "Va va voom"
    PERFORMER "Nicki Minaj"
    INDEX 01 00:00:00
FILE "22 - Masquerade.wav" WAVE
  TRACK 22 AUDIO
    TITLE "Masquerade"
    PERFORMER "Nicki Minaj"
    INDEX 01 00:00:00



info [Профиль]  [ЛС] 

post 14-Апр-2012 23:55 (спустя 1 минута) [-]0[+]

Топик был перенесен из форума Оформление раздач в форум Зарубежный Rap, Hip-Hop, R'n'B (lossless)

saGambit
 

l676

Пол: Пол:Муж

Стаж: 12 лет

Сообщений: 23

Россия
Рейтинг

post 15-Апр-2012 17:38 (спустя 17 часов) [-]0[+]

[Цитировать] 

На обложке Путин
info [Профиль]  [ЛС] 
Показать сообщения:    
Ответить на тему

Текущее время: 21-Май 16:13

Часовой пояс: GMT + 4



Вы не можете начинать темы
Вы не можете отвечать на сообщения
Вы не можете редактировать свои сообщения
Вы не можете удалять свои сообщения
Вы не можете голосовать в опросах
Вы не можете прикреплять файлы к сообщениям
Вы не можете скачивать файлы