Ошибка

(Rap) DJ Premier & Bumpy Knuckles - Kolexxxion, 2012, FLAC (tracks+.cue), lossless

Ответить на тему
 
Автор Сообщение

Raxent

Пол: Пол:Муж

Стаж: 12 лет

Сообщений: 219

Рейтинг

post 30-Мар-2012 23:25 0[+]

[Цитировать] 

DJ Premier & Bumpy Knuckles - Kolexxxion

Жанр: Rap
Год издания данного носителя: 2012
Страна-производитель носителя: USA

Аудио кодек: FLAC
Тип рипа: tracks+.cue
Битрейт: lossless
Продолжительность: 01:03:00
Полиграфия: Отсутствует
Трэклист:
01. DJ Premier & Bumpy Knuckles - My Thoughts [00:04:03]
02. DJ Premier & Bumpy Knuckles - Shake The Room [00:03:52]
03. DJ Premier & Bumpy Knuckles - B.A.P. (Bumpy and Premier) [00:05:19]
04. DJ Premier & Bumpy Knuckles - Evreebodee [00:02:17]
05. DJ Premier & Bumpy Knuckles - Weare aT WaR [00:03:26]
06. DJ Premier & Bumpy Knuckles - P.A.I.N.E. [00:04:30]
07. DJ Premier & Bumpy Knuckles - The Life [00:03:49]
08. DJ Premier & Bumpy Knuckles - FYPAU [00:03:00]
09. DJ Premier & Bumpy Knuckles - D'Lah [00:04:27]
10. DJ Premier & Bumpy Knuckles - More Levels [00:04:50]
11. DJ Premier & Bumpy Knuckles - Greatness [00:02:47]
12. DJ Premier & Bumpy Knuckles - Eyeneverputmy4cusaway [00:04:21]
13. DJ Premier & Bumpy Knuckles - Turn Up The Mic (DJ Premier Rmx) [00:03:32]
14. DJ Premier & Bumpy Knuckles - The Key [00:03:00]
15. DJ Premier & Bumpy Knuckles - Ownit [00:02:37]
16. DJ Premier & Bumpy Knuckles - The Gang Starr Bus [00:02:55]
17. DJ Premier & Bumpy Knuckles - Word Iz Bond [00:04:09]

Код:

Exact Audio Copy V1.0 beta 3 from 29. August 2011

EAC extraction logfile from 27. March 2012, 17:09

DJ Premier & Bumpy Knuckles / Kolexxxion

Used drive  : Optiarc DVD RW AD-7585H   Adapter: 1  ID: 0

Read mode               : Secure
Utilize accurate stream : Yes
Defeat audio cache      : Yes
Make use of C2 pointers : No

Read offset correction                      : 6
Overread into Lead-In and Lead-Out          : No
Fill up missing offset samples with silence : Yes
Delete leading and trailing silent blocks   : No
Null samples used in CRC calculations       : Yes
Used interface                              : Native Win32 interface for Win NT & 2000
Gap handling                                : Appended to previous track

Used output format              : User Defined Encoder
Selected bitrate                : 320 kBit/s
Quality                         : High
Add ID3 tag                     : No
Command line compressor         : C:\Program Files (x86)\Exact Audio Copy\Flac\flac.exe
Additional command line options : -V -8 -T "artist=%artist%" -T "title=%title%" -T "album=%albumtitle%" -T "date=%year%" -T "tracknumber=%tracknr%" -T "genre=%genre%" %source%

TOC of the extracted CD

     Track |   Start  |  Length  | Start sector | End sector
    ---------------------------------------------------------
        1  |  0:00.00 |  4:03.56 |         0    |    18280
        2  |  4:03.56 |  3:52.04 |     18281    |    35684
        3  |  7:55.60 |  5:19.19 |     35685    |    59628
        4  | 13:15.04 |  2:17.58 |     59629    |    69961
        5  | 15:32.62 |  3:26.01 |     69962    |    85412
        6  | 18:58.63 |  4:30.05 |     85413    |   105667
        7  | 23:28.68 |  3:49.10 |    105668    |   122852
        8  | 27:18.03 |  3:00.44 |    122853    |   136396
        9  | 30:18.47 |  4:27.26 |    136397    |   156447
       10  | 34:45.73 |  4:50.06 |    156448    |   178203
       11  | 39:36.04 |  2:47.22 |    178204    |   190750
       12  | 42:23.26 |  4:21.53 |    190751    |   210378
       13  | 46:45.04 |  3:32.66 |    210379    |   226344
       14  | 50:17.70 |  3:00.47 |    226345    |   239891
       15  | 53:18.42 |  2:37.20 |    239892    |   251686
       16  | 55:55.62 |  2:55.04 |    251687    |   264815
       17  | 58:50.66 |  4:09.51 |    264816    |   283541

Track  1

     Filename C:\Users\Julian\Music\DJ Premier & Bumpy Knuckles - Kolexxxion (FLAC)\DJ Premier & Bumpy Knuckles - Kolexxxion - 01 - My Thoughts.wav

     Pre-gap length  0:00:02.00

     Peak level 98.9 %
     Extraction speed 2.6 X
     Track quality 100.0 %
     Test CRC 0F105C47
     Copy CRC 0F105C47
     Track not present in AccurateRip database
     Copy OK

Track  2

     Filename C:\Users\Julian\Music\DJ Premier & Bumpy Knuckles - Kolexxxion (FLAC)\DJ Premier & Bumpy Knuckles - Kolexxxion - 02 - Shake The Room.wav

     Peak level 98.8 %
     Extraction speed 2.4 X
     Track quality 99.9 %
     Test CRC 3D0D5D43
     Copy CRC 3D0D5D43
     Track not present in AccurateRip database
     Copy OK

Track  3

     Filename C:\Users\Julian\Music\DJ Premier & Bumpy Knuckles - Kolexxxion (FLAC)\DJ Premier & Bumpy Knuckles - Kolexxxion - 03 - B.A.P. (Bumpy and Premier).wav

     Pre-gap length  0:00:00.34

     Peak level 98.9 %
     Extraction speed 3.3 X
     Track quality 100.0 %
     Test CRC 8C267138
     Copy CRC 8C267138
     Track not present in AccurateRip database
     Copy OK

Track  4

     Filename C:\Users\Julian\Music\DJ Premier & Bumpy Knuckles - Kolexxxion (FLAC)\DJ Premier & Bumpy Knuckles - Kolexxxion - 04 - Evreebodee.wav

     Pre-gap length  0:00:01.46

     Peak level 98.9 %
     Extraction speed 2.4 X
     Track quality 99.9 %
     Test CRC B2C5DF5C
     Copy CRC B2C5DF5C
     Track not present in AccurateRip database
     Copy OK

Track  5

     Filename C:\Users\Julian\Music\DJ Premier & Bumpy Knuckles - Kolexxxion (FLAC)\DJ Premier & Bumpy Knuckles - Kolexxxion - 05 - Weare aT WaR.wav

     Pre-gap length  0:00:00.14

     Peak level 98.9 %
     Extraction speed 3.5 X
     Track quality 100.0 %
     Test CRC C785C8C1
     Copy CRC C785C8C1
     Track not present in AccurateRip database
     Copy OK

Track  6

     Filename C:\Users\Julian\Music\DJ Premier & Bumpy Knuckles - Kolexxxion (FLAC)\DJ Premier & Bumpy Knuckles - Kolexxxion - 06 - P.A.I.N.E..wav

     Pre-gap length  0:00:00.56

     Peak level 98.4 %
     Extraction speed 3.8 X
     Track quality 100.0 %
     Test CRC 866D3ECA
     Copy CRC 866D3ECA
     Track not present in AccurateRip database
     Copy OK

Track  7

     Filename C:\Users\Julian\Music\DJ Premier & Bumpy Knuckles - Kolexxxion (FLAC)\DJ Premier & Bumpy Knuckles - Kolexxxion - 07 - The Life.wav

     Pre-gap length  0:00:00.37

     Peak level 100.0 %
     Extraction speed 3.9 X
     Track quality 100.0 %
     Test CRC 61C29FEB
     Copy CRC 61C29FEB
     Track not present in AccurateRip database
     Copy OK

Track  8

     Filename C:\Users\Julian\Music\DJ Premier & Bumpy Knuckles - Kolexxxion (FLAC)\DJ Premier & Bumpy Knuckles - Kolexxxion - 08 - FYPAU.wav

     Pre-gap length  0:00:01.17

     Peak level 98.9 %
     Extraction speed 3.1 X
     Track quality 99.9 %
     Test CRC 93A676A0
     Copy CRC 93A676A0
     Track not present in AccurateRip database
     Copy OK

Track  9

     Filename C:\Users\Julian\Music\DJ Premier & Bumpy Knuckles - Kolexxxion (FLAC)\DJ Premier & Bumpy Knuckles - Kolexxxion - 09 - D'Lah.wav

     Pre-gap length  0:00:01.50

     Peak level 98.9 %
     Extraction speed 4.3 X
     Track quality 100.0 %
     Test CRC 349503D0
     Copy CRC 349503D0
     Track not present in AccurateRip database
     Copy OK

Track 10

     Filename C:\Users\Julian\Music\DJ Premier & Bumpy Knuckles - Kolexxxion (FLAC)\DJ Premier & Bumpy Knuckles - Kolexxxion - 10 - More Levels.wav

     Pre-gap length  0:00:00.60

     Peak level 100.0 %
     Extraction speed 4.6 X
     Track quality 100.0 %
     Test CRC EC697AC4
     Copy CRC EC697AC4
     Track not present in AccurateRip database
     Copy OK

Track 11

     Filename C:\Users\Julian\Music\DJ Premier & Bumpy Knuckles - Kolexxxion (FLAC)\DJ Premier & Bumpy Knuckles - Kolexxxion - 11 - Greatness.wav

     Pre-gap length  0:00:01.30

     Peak level 98.9 %
     Extraction speed 3.4 X
     Track quality 99.9 %
     Test CRC A744EEDE
     Copy CRC A744EEDE
     Track not present in AccurateRip database
     Copy OK

Track 12

     Filename C:\Users\Julian\Music\DJ Premier & Bumpy Knuckles - Kolexxxion (FLAC)\DJ Premier & Bumpy Knuckles - Kolexxxion - 12 - Eyeneverputmy4cusaway.wav

     Pre-gap length  0:00:00.44

     Peak level 100.0 %
     Extraction speed 4.7 X
     Track quality 100.0 %
     Test CRC 1D804C18
     Copy CRC 1D804C18
     Track not present in AccurateRip database
     Copy OK

Track 13

     Filename C:\Users\Julian\Music\DJ Premier & Bumpy Knuckles - Kolexxxion (FLAC)\DJ Premier & Bumpy Knuckles - Kolexxxion - 13 - Turn Up The Mic (DJ Premier Rmx).wav

     Pre-gap length  0:00:00.24

     Peak level 98.9 %
     Extraction speed 4.7 X
     Track quality 100.0 %
     Test CRC 1DF38149
     Copy CRC 1DF38149
     Track not present in AccurateRip database
     Copy OK

Track 14

     Filename C:\Users\Julian\Music\DJ Premier & Bumpy Knuckles - Kolexxxion (FLAC)\DJ Premier & Bumpy Knuckles - Kolexxxion - 14 - The Key.wav

     Pre-gap length  0:00:01.86

     Peak level 98.9 %
     Extraction speed 4.6 X
     Track quality 100.0 %
     Test CRC 7BDDC678
     Copy CRC 7BDDC678
     Track not present in AccurateRip database
     Copy OK

Track 15

     Filename C:\Users\Julian\Music\DJ Premier & Bumpy Knuckles - Kolexxxion (FLAC)\DJ Premier & Bumpy Knuckles - Kolexxxion - 15 - Ownit.wav

     Pre-gap length  0:00:00.97

     Peak level 98.9 %
     Extraction speed 4.6 X
     Track quality 100.0 %
     Test CRC 026E50C7
     Copy CRC 026E50C7
     Track not present in AccurateRip database
     Copy OK

Track 16

     Filename C:\Users\Julian\Music\DJ Premier & Bumpy Knuckles - Kolexxxion (FLAC)\DJ Premier & Bumpy Knuckles - Kolexxxion - 16 - The Gang Starr Bus.wav

     Pre-gap length  0:00:00.90

     Peak level 98.9 %
     Extraction speed 4.8 X
     Track quality 100.0 %
     Test CRC A788B489
     Copy CRC A788B489
     Track not present in AccurateRip database
     Copy OK

Track 17

     Filename C:\Users\Julian\Music\DJ Premier & Bumpy Knuckles - Kolexxxion (FLAC)\DJ Premier & Bumpy Knuckles - Kolexxxion - 17 - Word Iz Bond.wav

     Pre-gap length  0:00:00.26

     Peak level 98.9 %
     Extraction speed 4.4 X
     Track quality 99.9 %
     Test CRC 3EAD8951
     Copy CRC 3EAD8951
     Track not present in AccurateRip database
     Copy OK

None of the tracks are present in the AccurateRip database

No errors occurred

End of status report

---- CUETools DB Plugin V2.1.3

[CTDB TOCID: 4whBnRi_r.bk3uHs5KS88IsYMPk-] found, Submit result: already submitted
[d4ef4b18] (2/2) Accurately ripped

==== Log checksum 4E33068DC9DF9690B929A317A621B26D0D3EAC8B836E3BE47D015A36BB3E1B69 ====

Код:

REM GENRE Rap
REM DATE 2012
REM DISCID DF0EC411
REM COMMENT "ExactAudioCopy v1.0b3"
FILE "DJ Premier & Bumpy Knuckles - Kolexxxion - 01 - My Thoughts.wav" WAVE
  TRACK 01 AUDIO
    INDEX 01 00:00:00
FILE "DJ Premier & Bumpy Knuckles - Kolexxxion - 02 - Shake The Room.wav" WAVE
  TRACK 02 AUDIO
    INDEX 01 00:00:00
  TRACK 03 AUDIO
    INDEX 00 03:51:53
FILE "DJ Premier & Bumpy Knuckles - Kolexxxion - 03 - B.A.P. (Bumpy and Premier).wav" WAVE
    INDEX 01 00:00:00
  TRACK 04 AUDIO
    INDEX 00 05:17:59
FILE "DJ Premier & Bumpy Knuckles - Kolexxxion - 04 - Evreebodee.wav" WAVE
    INDEX 01 00:00:00
  TRACK 05 AUDIO
    INDEX 00 02:17:47
FILE "DJ Premier & Bumpy Knuckles - Kolexxxion - 05 - Weare aT WaR.wav" WAVE
    INDEX 01 00:00:00
  TRACK 06 AUDIO
    INDEX 00 03:25:34
FILE "DJ Premier & Bumpy Knuckles - Kolexxxion - 06 - P.A.I.N.E..wav" WAVE
    INDEX 01 00:00:00
  TRACK 07 AUDIO
    INDEX 00 04:29:52
FILE "DJ Premier & Bumpy Knuckles - Kolexxxion - 07 - The Life.wav" WAVE
    INDEX 01 00:00:00
  TRACK 08 AUDIO
    INDEX 00 03:47:72
FILE "DJ Premier & Bumpy Knuckles - Kolexxxion - 08 - FYPAU.wav" WAVE
    INDEX 01 00:00:00
  TRACK 09 AUDIO
    INDEX 00 02:59:06
FILE "DJ Premier & Bumpy Knuckles - Kolexxxion - 09 - D'Lah.wav" WAVE
    INDEX 01 00:00:00
  TRACK 10 AUDIO
    INDEX 00 04:26:56
FILE "DJ Premier & Bumpy Knuckles - Kolexxxion - 10 - More Levels.wav" WAVE
    INDEX 01 00:00:00
  TRACK 11 AUDIO
    INDEX 00 04:48:58
FILE "DJ Premier & Bumpy Knuckles - Kolexxxion - 11 - Greatness.wav" WAVE
    INDEX 01 00:00:00
  TRACK 12 AUDIO
    INDEX 00 02:46:64
FILE "DJ Premier & Bumpy Knuckles - Kolexxxion - 12 - Eyeneverputmy4cusaway.wav" WAVE
    INDEX 01 00:00:00
  TRACK 13 AUDIO
    INDEX 00 04:21:35
FILE "DJ Premier & Bumpy Knuckles - Kolexxxion - 13 - Turn Up The Mic (DJ Premier Rmx).wav" WAVE
    INDEX 01 00:00:00
  TRACK 14 AUDIO
    INDEX 00 03:31:01
FILE "DJ Premier & Bumpy Knuckles - Kolexxxion - 14 - The Key.wav" WAVE
    INDEX 01 00:00:00
  TRACK 15 AUDIO
    INDEX 00 02:59:49
FILE "DJ Premier & Bumpy Knuckles - Kolexxxion - 15 - Ownit.wav" WAVE
    INDEX 01 00:00:00
  TRACK 16 AUDIO
    INDEX 00 02:36:27
FILE "DJ Premier & Bumpy Knuckles - Kolexxxion - 16 - The Gang Starr Bus.wav" WAVE
    INDEX 01 00:00:00
  TRACK 17 AUDIO
    INDEX 00 02:54:59
FILE "DJ Premier & Bumpy Knuckles - Kolexxxion - 17 - Word Iz Bond.wav" WAVE
    INDEX 01 00:00:00

info [Профиль]  [ЛС] 

post 30-Мар-2012 23:26 (спустя 1 минута) [-]0[+]

Топик был перенесен из форума Оформление раздач в форум Зарубежный Rap, Hip-Hop, R'n'B (lossless)

saGambit
 

Resistance

Пол: Пол:Муж

Стаж: 12 лет

Сообщений: 3640

Россия
Рейтинг

post 31-Мар-2012 12:11 (спустя 12 часов) [-]0[+]

[Цитировать] 

Где тип релиза в оформлении и заголовке?
info [Профиль]  [ЛС] 

Raxent

Пол: Пол:Муж

Стаж: 12 лет

Сообщений: 219

Рейтинг

post 31-Мар-2012 23:00 (спустя 10 часов) [-]0[+]

[Цитировать] 

Oneguns
поправил
info [Профиль]  [ЛС] 

Resistance

Пол: Пол:Муж

Стаж: 12 лет

Сообщений: 3640

Россия
Рейтинг

post 31-Мар-2012 23:08 (спустя 7 минут) [-]0[+]

[Цитировать] 

FLAC это аудио кодек, а не тип рипа.
info [Профиль]  [ЛС] 

Raa

Пол: Пол:Муж

Стаж: 12 лет

Сообщений: 1099

Рейтинг

post 03-Апр-2012 00:07 (спустя 2 дня) [-]0[+]

[Цитировать] 

saGambit
Есть шаблон, заполняйте по нему.
info [Профиль]  [ЛС] 

Raxent

Пол: Пол:Муж

Стаж: 12 лет

Сообщений: 219

Рейтинг

post 03-Апр-2012 10:26 (спустя 10 часов) [-]0[+]

[Цитировать] 

Oneguns, Raa
теперь правильно?
info [Профиль]  [ЛС] 
Показать сообщения:    
Ответить на тему

Текущее время: 27-Май 10:22

Часовой пояс: GMT + 4



Вы не можете начинать темы
Вы не можете отвечать на сообщения
Вы не можете редактировать свои сообщения
Вы не можете удалять свои сообщения
Вы не можете голосовать в опросах
Вы не можете прикреплять файлы к сообщениям
Вы не можете скачивать файлы