Ошибка

(Power Metal) Эпидемия - Всадник Из Льда - 2011, FLAC (image+.cue), lossless

Ответить на тему
 
Автор Сообщение

TTagoHok

Пол: Пол:Муж

Стаж: 12 лет

Сообщений: 390

Украина
Рейтинг

post 07-Янв-2012 01:29 0[+]

[Цитировать] 

Эпидемия - Всадник из Льда
Жанр: Heavy Metal
Страна-производитель диска: Россия
Год издания диска: 2011
Страна: Россия
Издатель (лейбл)
Аудиокодек: FLAC
Номер по каталогу: МДС-CD 60/11
Битрейт аудио:lossless
Тип рипа : image+.cue
Продолжительность: 01:05:05
Треклист:
01. Тень Любви
02. Н.А.С.Т.Я.
03. Страна Забвения
04. Вернись
05 .Всадник Из Льда
06. Романс О Слезе
07. Океан Пустоты
08. Я Молился На Тебя
09. Charmed By Eyelashes
10. Реквием
11. Прощай, Мой Дом
12. Фея Моих Снов
13. Песня Снегов

Код:

Exact Audio Copy V1.0 beta 2 from 29. April 2011
Отчёт EAC об извлечении, выполненном 4. января 2012, 23:25
Эпидемия / Всадник из льда
Дисковод: ASUS DRW-22B2S Adapter: 0 ID: 1
Режим чтения : Достоверность
Использование точного потока : Да
Отключение кэша аудио : Да
Использование указателей C2 : Нет
Коррекция смещения при чтении : 6
Способность читать области Lead-in и Lead-out : Нет
Заполнение пропущенных сэмплов тишиной : Да
Удаление блоков с тишиной в начале и конце : Нет
При вычислениях CRC использовались нулевые сэмплы : Да
Интерфейс : Встроенный Win32-интерфейс для Win NT/2000
Выходной формат : Пользовательский кодировщик
Выбранный битрейт : 768 kBit/s
Качество : Высокий
Добавление ID3-тега : Нет
Утилита сжатия : C:\Program Files (x86)\Exact Audio Copy\FLAC\FLAC.EXE
Дополнительные параметры : -8 -V -T "ARTIST=%artist%" -T "TITLE=%title%" -T "ALBUM=%albumtitle%" -T "DATE=%year%" -T "TRACKNUMBER=%tracknr%" -T "GENRE=%genre%" -T "COMMENT=%comment%" -T "BAND=%albuminterpret%" -T "COMPOSER=%composer%" %haslyrics%--tag-from-
TOC извлечённого CD
Трек | Старт | Длительность | Начальный сектор | Конечный сектор
---------------------------------------------------------------------
1 | 0:00.00 | 4:09.62 | 0 | 18736
2 | 4:09.62 | 7:00.47 | 18737 | 50283
3 | 11:10.34 | 3:55.42 | 50284 | 67950
4 | 15:06.01 | 5:14.23 | 67951 | 91523
5 | 20:20.24 | 5:10.61 | 91524 | 114834
6 | 25:31.10 | 6:19.44 | 114835 | 143303
7 | 31:50.54 | 5:12.06 | 143304 | 166709
8 | 37:02.60 | 4:37.16 | 166710 | 187500
9 | 41:40.01 | 4:10.40 | 187501 | 206290
10 | 45:50.41 | 5:06.44 | 206291 | 229284
11 | 50:57.10 | 4:20.41 | 229285 | 248825
12 | 55:17.51 | 5:55.07 | 248826 | 275457
13 | 61:12.58 | 3:58.21 | 275458 | 293328
Характеристики диапазона извлечения и сообщения об ошибках
Выбранный диапазон
Имя файла D:\music\Rock\Наше\Эпидемия\lossless\2011 - Всадник из льда\Эпидемия - Всадник из льда.wav
Пиковый уровень 98.8 %
Скорость извлечения 3.5 X
Качество диапазона 100.0 %
CRC теста BD7B59D6
CRC копии BD7B59D6
Копирование... OK
Ошибок не произошло
AccurateRip: сводка
Трек 1 отсутствует в базе данных
Трек 2 отсутствует в базе данных
Трек 3 отсутствует в базе данных
Трек 4 отсутствует в базе данных
Трек 5 отсутствует в базе данных
Трек 6 отсутствует в базе данных
Трек 7 отсутствует в базе данных
Трек 8 отсутствует в базе данных
Трек 9 отсутствует в базе данных
Трек 10 отсутствует в базе данных
Трек 11 отсутствует в базе данных
Трек 12 отсутствует в базе данных
Трек 13 отсутствует в базе данных
Ни одного трека нет в базе AccurateRip
Конец отчёта

Код:

REM DATE 2011
REM DISCID A20F470D
REM COMMENT "ExactAudioCopy v1.0b2"
PERFORMER "Эпидемия"
TITLE "Всадник из льда"
FILE "Эпидемия - Всадник из льда.flac" WAVE
  TRACK 01 AUDIO
    TITLE "Тень любви"
    PERFORMER "Эпидемия"
    FLAGS DCP
    INDEX 01 00:00:00
  TRACK 02 AUDIO
    TITLE "Н.А.С.Т.Я."
    PERFORMER "Эпидемия"
    FLAGS DCP
    INDEX 01 04:09:62
  TRACK 03 AUDIO
    TITLE "Страна забвения"
    PERFORMER "Эпидемия"
    FLAGS DCP
    INDEX 01 11:10:34
  TRACK 04 AUDIO
    TITLE "Вернись"
    PERFORMER "Эпидемия"
    FLAGS DCP
    INDEX 01 15:06:01
  TRACK 05 AUDIO
    TITLE "Всадник из льда"
    PERFORMER "Эпидемия"
    FLAGS DCP
    INDEX 01 20:20:24
  TRACK 06 AUDIO
    TITLE "Романс о слезе"
    PERFORMER "Эпидемия"
    FLAGS DCP
    INDEX 01 25:31:10
  TRACK 07 AUDIO
    TITLE "Океан пустоты"
    PERFORMER "Эпидемия"
    FLAGS DCP
    INDEX 01 31:50:54
  TRACK 08 AUDIO
    TITLE "Я молился на тебя"
    PERFORMER "Эпидемия"
    FLAGS DCP
    INDEX 01 37:02:60
  TRACK 09 AUDIO
    TITLE "Charmed by Eyelashes"
    PERFORMER "Эпидемия"
    FLAGS DCP
    INDEX 01 41:40:01
  TRACK 10 AUDIO
    TITLE "Реквием"
    PERFORMER "Эпидемия"
    FLAGS DCP
    INDEX 01 45:50:41
  TRACK 11 AUDIO
    TITLE "прощай, мой дом"
    PERFORMER "Эпидемия"
    FLAGS DCP
    INDEX 01 50:57:10
  TRACK 12 AUDIO
    TITLE "Фея моих снов"
    PERFORMER "Эпидемия"
    FLAGS DCP
    INDEX 01 55:17:51
  TRACK 13 AUDIO
    TITLE "Песня снегов"
    PERFORMER "Эпидемия"
    FLAGS DCP
    INDEX 01 61:12:58
info [Профиль]  [ЛС] 
Показать сообщения:    
Ответить на тему

Текущее время: 17-Май 01:09

Часовой пояс: GMT + 4



Вы не можете начинать темы
Вы не можете отвечать на сообщения
Вы не можете редактировать свои сообщения
Вы не можете удалять свои сообщения
Вы не можете голосовать в опросах
Вы не можете прикреплять файлы к сообщениям
Вы не можете скачивать файлы