Ошибка

(Hip Hop/Electronic) Pitbull - Planet Pit (Deluxe Edition) - 2011, FLAC (tracks+.cue), lossless

Ответить на тему
 
Автор Сообщение

Resistance

Пол: Пол:Муж

Стаж: 12 лет

Сообщений: 3640

Россия
Рейтинг

post 08-Дек-2011 15:21 0[+]

[Цитировать] 

pic="http://i24.fastpic.ru/big/2011/0706/b8/e84c4693815fbe34f1942b07eceb73b8.jpg"
Pitbull - Planet Pit (Deluxe Edition)

Жанр: Hip Hop/Electronic | Происхождение исполнителя: USA | Год: 2011 | Аудио кодек: FLAC | Битрейт аудио: lossless | | Тип релиза: tracks+.cue | Продолжительность: 56:45 | Лейбл: Polo Grounds Music, J Records, Mr. 305 | Каталоговый номер: 88697-91054-2
Треклист:
01. Mr. Worldwide (Intro) (1:24)
02. Give Me Everything (4:12)
03. Rain Over Me (3:52)
04. Hey Baby (Drop It To The Floor) (3:54)
05. Pause (3:00)
06. Come N Go (3:50)
07. Shake Senora (3:35)
08. International Love (3:47)
09. Castle Made Of Sand (3:48)
10. Took My Love (4:29)
11. Where Do We Go (3:51)
12. Something For The DJs (3:05)
13. Mr. Right Now (3:07)
14. Shake Senora Remix (4:12)
15. Oye Baby (2:56)
16. My Kinda Girl (3:40)

Код:

Exact Audio Copy V1.0 beta 2 from 29. April 2011

EAC extraction logfile from 30. June 2011, 9:01

Pitbull / Planet Pit [Deluxe Edition]

Used drive  : HL-DT-STDVDRAM GH22NS50   Adapter: 0  ID: 1

Read mode               : Secure
Utilize accurate stream : Yes
Defeat audio cache      : Yes
Make use of C2 pointers : No

Read offset correction                      : 667
Overread into Lead-In and Lead-Out          : No
Fill up missing offset samples with silence : Yes
Delete leading and trailing silent blocks   : No
Null samples used in CRC calculations       : Yes
Used interface                              : Native Win32 interface for Win NT & 2000
Gap handling                                : Appended to previous track

Used output format              : User Defined Encoder
Selected bitrate                : 768 kBit/s
Quality                         : High
Add ID3 tag                     : No
Command line compressor         : C:\Program Files\Exact Audio Copy\FLAC\FLAC.EXE
Additional command line options : -8 -V -T "ARTIST=%artist%" -T "TITLE=%title%" -T "ALBUM=%albumtitle%" -T "DATE=%year%" -T "TRACKNUMBER=%tracknr%" -T "TOTALTRACKS=%numtracks%" -T "GENRE=%genre%" -T "ALBUMARTIST=%albumartist%" -T "ALBUM ARTIST=%albumartist%

TOC of the extracted CD

     Track |   Start  |  Length  | Start sector | End sector
    ---------------------------------------------------------
        1  |  0:00.00 |  1:24.24 |         0    |     6323   
        2  |  1:24.24 |  4:12.23 |      6324    |    25246   
        3  |  5:36.47 |  3:51.43 |     25247    |    42614   
        4  |  9:28.15 |  3:54.34 |     42615    |    60198   
        5  | 13:22.49 |  3:00.20 |     60199    |    73718   
        6  | 16:22.69 |  3:50.24 |     73719    |    90992   
        7  | 20:13.18 |  3:34.62 |     90993    |   107104   
        8  | 23:48.05 |  3:47.21 |    107105    |   124150   
        9  | 27:35.26 |  3:48.02 |    124151    |   141252   
       10  | 31:23.28 |  4:29.27 |    141253    |   161454   
       11  | 35:52.55 |  3:50.51 |    161455    |   178755   
       12  | 39:43.31 |  3:04.06 |    178756    |   192561   
       13  | 42:47.37 |  3:07.16 |    192562    |   206602   
       14  | 45:54.53 |  4:12.27 |    206603    |   225529   
       15  | 50:07.05 |  2:55.67 |    225530    |   238721   
       16  | 53:02.72 |  3:40.27 |    238722    |   255248   

Track  1

     Filename C:\MUSIC\FLAC\Pitbull - Planet Pit (2011) [FLAC]\01 - Mr. Worldwide (Intro).wav

     Pre-gap length  0:00:02.00

     Peak level 99.8 %
     Extraction speed 0.6 X
     Track quality 99.8 %
     Test CRC D16BF2EE
     Copy CRC D16BF2EE
     Track not present in AccurateRip database
     Copy OK

Track  2

     Filename C:\MUSIC\FLAC\Pitbull - Planet Pit (2011) [FLAC]\02 - Give Me Everything.wav

     Peak level 99.8 %
     Extraction speed 0.9 X
     Track quality 99.9 %
     Test CRC 4CB67053
     Copy CRC 4CB67053
     Track not present in AccurateRip database
     Copy OK

Track  3

     Filename C:\MUSIC\FLAC\Pitbull - Planet Pit (2011) [FLAC]\03 - Rain Over Me.wav

     Peak level 99.9 %
     Extraction speed 1.2 X
     Track quality 100.0 %
     Test CRC E1CBFFA7
     Copy CRC E1CBFFA7
     Track not present in AccurateRip database
     Copy OK

Track  4

     Filename C:\MUSIC\FLAC\Pitbull - Planet Pit (2011) [FLAC]\04 - Hey Baby (Drop It To The Floor).wav

     Peak level 99.2 %
     Extraction speed 1.3 X
     Track quality 100.0 %
     Test CRC E6FD4ECF
     Copy CRC E6FD4ECF
     Track not present in AccurateRip database
     Copy OK

Track  5

     Filename C:\MUSIC\FLAC\Pitbull - Planet Pit (2011) [FLAC]\05 - Pause.wav

     Peak level 99.8 %
     Extraction speed 1.1 X
     Track quality 99.9 %
     Test CRC 33321514
     Copy CRC 33321514
     Track not present in AccurateRip database
     Copy OK

Track  6

     Filename C:\MUSIC\FLAC\Pitbull - Planet Pit (2011) [FLAC]\06 - Come N Go.wav

     Peak level 99.7 %
     Extraction speed 1.4 X
     Track quality 100.0 %
     Test CRC DC797EA5
     Copy CRC DC797EA5
     Track not present in AccurateRip database
     Copy OK

Track  7

     Filename C:\MUSIC\FLAC\Pitbull - Planet Pit (2011) [FLAC]\07 - Shake Senora.wav

     Peak level 99.7 %
     Extraction speed 1.5 X
     Track quality 100.0 %
     Test CRC 0CF95FA0
     Copy CRC 0CF95FA0
     Track not present in AccurateRip database
     Copy OK

Track  8

     Filename C:\MUSIC\FLAC\Pitbull - Planet Pit (2011) [FLAC]\08 - International Love.wav

     Peak level 98.7 %
     Extraction speed 1.6 X
     Track quality 100.0 %
     Test CRC 0B519FB6
     Copy CRC 0B519FB6
     Track not present in AccurateRip database
     Copy OK

Track  9

     Filename C:\MUSIC\FLAC\Pitbull - Planet Pit (2011) [FLAC]\09 - Castle Made Of Sand.wav

     Peak level 99.8 %
     Extraction speed 1.6 X
     Track quality 100.0 %
     Test CRC CF257DA5
     Copy CRC CF257DA5
     Track not present in AccurateRip database
     Copy OK

Track 10

     Filename C:\MUSIC\FLAC\Pitbull - Planet Pit (2011) [FLAC]\10 - Took My Love.wav

     Peak level 99.8 %
     Extraction speed 1.8 X
     Track quality 100.0 %
     Test CRC 6F9B14AF
     Copy CRC 6F9B14AF
     Track not present in AccurateRip database
     Copy OK

Track 11

     Filename C:\MUSIC\FLAC\Pitbull - Planet Pit (2011) [FLAC]\11 - Where Do We Go.wav

     Peak level 99.7 %
     Extraction speed 1.8 X
     Track quality 100.0 %
     Test CRC A26E251C
     Copy CRC A26E251C
     Track not present in AccurateRip database
     Copy OK

Track 12

     Filename C:\MUSIC\FLAC\Pitbull - Planet Pit (2011) [FLAC]\12 - Something For The DJs.wav

     Peak level 99.8 %
     Extraction speed 1.8 X
     Track quality 100.0 %
     Test CRC 89018214
     Copy CRC 89018214
     Track not present in AccurateRip database
     Copy OK

Track 13

     Filename C:\MUSIC\FLAC\Pitbull - Planet Pit (2011) [FLAC]\13 - Mr. Right Now.wav

     Peak level 99.8 %
     Extraction speed 1.6 X
     Track quality 99.9 %
     Test CRC D250BC42
     Copy CRC D250BC42
     Track not present in AccurateRip database
     Copy OK

Track 14

     Filename C:\MUSIC\FLAC\Pitbull - Planet Pit (2011) [FLAC]\14 - Shake Senora Remix.wav

     Peak level 99.7 %
     Extraction speed 2.0 X
     Track quality 100.0 %
     Test CRC 395700F0
     Copy CRC 395700F0
     Track not present in AccurateRip database
     Copy OK

Track 15

     Filename C:\MUSIC\FLAC\Pitbull - Planet Pit (2011) [FLAC]\15 - Oye Baby.wav

     Peak level 99.8 %
     Extraction speed 1.9 X
     Track quality 100.0 %
     Test CRC EC0E5CEE
     Copy CRC EC0E5CEE
     Track not present in AccurateRip database
     Copy OK

Track 16

     Filename C:\MUSIC\FLAC\Pitbull - Planet Pit (2011) [FLAC]\16 - My Kinda Girl.wav

     Peak level 99.7 %
     Extraction speed 2.1 X
     Track quality 100.0 %
     Test CRC 223DA8D7
     Copy CRC 223DA8D7
     Track not present in AccurateRip database
     Copy OK

None of the tracks are present in the AccurateRip database

No errors occurred

End of status report

==== Log checksum F23F59803140C36322C85984840E1C7091B749C27D8BC59B622FBCB4349FA7D4 ====

Код:

REM GENRE Pop
REM DATE 2011
REM DISCID E90D4B10
REM COMMENT "ExactAudioCopy v1.0b2"
PERFORMER "Pitbull"
TITLE "Planet Pit [Deluxe Edition]"
FILE "01 - Mr. Worldwide (Intro).wav" WAVE
  TRACK 01 AUDIO
    TITLE "Mr. Worldwide (Intro)"
    PERFORMER "Pitbull"
    INDEX 01 00:00:00
FILE "02 - Give Me Everything.wav" WAVE
  TRACK 02 AUDIO
    TITLE "Give Me Everything"
    PERFORMER "Pitbull"
    INDEX 01 00:00:00
FILE "03 - Rain Over Me.wav" WAVE
  TRACK 03 AUDIO
    TITLE "Rain Over Me"
    PERFORMER "Pitbull"
    INDEX 01 00:00:00
FILE "04 - Hey Baby (Drop It To The Floor).wav" WAVE
  TRACK 04 AUDIO
    TITLE "Hey Baby (Drop It To The Floor)"
    PERFORMER "Pitbull"
    INDEX 01 00:00:00
FILE "05 - Pause.wav" WAVE
  TRACK 05 AUDIO
    TITLE "Pause"
    PERFORMER "Pitbull"
    INDEX 01 00:00:00
FILE "06 - Come N Go.wav" WAVE
  TRACK 06 AUDIO
    TITLE "Come N Go"
    PERFORMER "Pitbull"
    INDEX 01 00:00:00
FILE "07 - Shake Senora.wav" WAVE
  TRACK 07 AUDIO
    TITLE "Shake Senora"
    PERFORMER "Pitbull"
    INDEX 01 00:00:00
FILE "08 - International Love.wav" WAVE
  TRACK 08 AUDIO
    TITLE "International Love"
    PERFORMER "Pitbull"
    INDEX 01 00:00:00
FILE "09 - Castle Made Of Sand.wav" WAVE
  TRACK 09 AUDIO
    TITLE "Castle Made Of Sand"
    PERFORMER "Pitbull"
    INDEX 01 00:00:00
FILE "10 - Took My Love.wav" WAVE
  TRACK 10 AUDIO
    TITLE "Took My Love"
    PERFORMER "Pitbull"
    INDEX 01 00:00:00
FILE "11 - Where Do We Go.wav" WAVE
  TRACK 11 AUDIO
    TITLE "Where Do We Go"
    PERFORMER "Pitbull"
    INDEX 01 00:00:00
FILE "12 - Something For The DJs.wav" WAVE
  TRACK 12 AUDIO
    TITLE "Something For The DJs"
    PERFORMER "Pitbull"
    INDEX 01 00:00:00
FILE "13 - Mr. Right Now.wav" WAVE
  TRACK 13 AUDIO
    TITLE "Mr. Right Now"
    PERFORMER "Pitbull"
    INDEX 01 00:00:00
FILE "14 - Shake Senora Remix.wav" WAVE
  TRACK 14 AUDIO
    TITLE "Shake Senora Remix"
    PERFORMER "Pitbull"
    INDEX 01 00:00:00
FILE "15 - Oye Baby.wav" WAVE
  TRACK 15 AUDIO
    TITLE "Oye Baby"
    PERFORMER "Pitbull"
    INDEX 01 00:00:00
FILE "16 - My Kinda Girl.wav" WAVE
  TRACK 16 AUDIO
    TITLE "My Kinda Girl"
    PERFORMER "Pitbull"
    INDEX 01 00:00:00

info [Профиль]  [ЛС] 
Показать сообщения:    
Ответить на тему

Текущее время: 23-Май 07:29

Часовой пояс: GMT + 4



Вы не можете начинать темы
Вы не можете отвечать на сообщения
Вы не можете редактировать свои сообщения
Вы не можете удалять свои сообщения
Вы не можете голосовать в опросах
Вы не можете прикреплять файлы к сообщениям
Вы не можете скачивать файлы