Ошибка

(Hip-Hop) Fard - Invictus (Power Edition) - 2011, FLAC (tracks+.cue), lossless

Ответить на тему
 
Автор Сообщение

bit-bul

Пол: Пол:Муж

Стаж: 12 лет

Сообщений: 213

Ямайка
Рейтинг

post 30-Ноя-2011 20:57 0[+]

[Цитировать] 

Fard-Invictus (Power Edition)



Жанр: Hip-Hop
Происхождение исполнителя: Deutsch
Год издания данного носителя: 2011
Страна-производитель носителя: Deutsch
Тип релиза: tracks+.cue
Аудио кодек: FLAC
Битрейт аудио: lossless
Продолжительность: 01:22:52
Полиграфия: отсутствует
Лейбл: Ruhrpott Illegal (Groove Attack)
Каталоговый номер: B005OOZ19M
Тип рипа: tracks+.cue
Источник: what.cd


Треклист:
01. Intro
02. Endlich Helden
03. F. Nazizi
04. Talion 45 (feat. Snaga)
05. Seine Geschichte
06. Kinder des Zorns
07. Einsam
08. S.O.S.
09. Wir sind hier
10. Dann bist du Häuptling
11. Falsches Spiel
12. Rock n Roll
13. Post für Dich
14. Ich will wissen
15. Reich & Schön
16. Erinnerungen

Premium Edition Bonus Tracks:

17. 60 Terrorbars Las Vegas
18. NRW (feat. Farid Bang & Summer Cem)
19. Dein Kuss

Power Edition Bonus Tracks:

20. Märchenwelt
21. Gutes kommt & Gutes geht
22. Kugelsicher


Код:

Exact Audio Copy V1.0 beta 2 from 29. April 2011

EAC extraction logfile from 17. November 2011, 21:36

Fard / Invictus (Power Edition)

Used drive  : hp      CDDVDW TS-L633M   Adapter: 1  ID: 0

Read mode               : Secure
Utilize accurate stream : Yes
Defeat audio cache      : Yes
Make use of C2 pointers : No

Read offset correction                      : 6
Overread into Lead-In and Lead-Out          : No
Fill up missing offset samples with silence : Yes
Delete leading and trailing silent blocks   : No
Null samples used in CRC calculations       : Yes
Used interface                              : Native Win32 interface for Win NT & 2000
Gap handling                                : Appended to previous track

Used output format              : User Defined Encoder
Selected bitrate                : 1024 kBit/s
Quality                         : High
Add ID3 tag                     : No
Command line compressor         : C:\Program Files (x86)\FLAC\flac.exe
Additional command line options : -8 -V -T "ARTIST=%artist%" -T "TITLE=%title%" -T "ALBUM=%albumtitle%" -T "DATE=%year%" -T "TRACKNUMBER=%tracknr%" -T "GENRE=%genre%" -T "PERFORMER=%albuminterpret%" -T "COMPOSER=%composer%" %haslyrics%--tag-from-file=LYRICS

TOC of the extracted CD

     Track |   Start  |  Length  | Start sector | End sector
    ---------------------------------------------------------
        1  |  0:02.00 |  2:54.00 |       150    |    13199   
        2  |  2:56.00 |  4:02.00 |     13200    |    31349   
        3  |  6:58.00 |  3:34.00 |     31350    |    47399   
        4  | 10:32.00 |  2:54.00 |     47400    |    60449   
        5  | 13:26.00 |  4:28.00 |     60450    |    80549   
        6  | 17:54.00 |  4:04.00 |     80550    |    98849   
        7  | 21:58.00 |  4:42.00 |     98850    |   119999   
        8  | 26:40.00 |  3:40.10 |    120000    |   136509   
        9  | 30:20.10 |  3:17.38 |    136510    |   151322   
       10  | 33:37.48 |  3:29.19 |    151323    |   167016   
       11  | 37:06.67 |  3:52.00 |    167017    |   184416   
       12  | 40:58.67 |  3:36.00 |    184417    |   200616   
       13  | 44:34.67 |  4:38.00 |    200617    |   221466   
       14  | 49:12.67 |  3:10.38 |    221467    |   235754   
       15  | 52:23.30 |  4:16.00 |    235755    |   254954   
       16  | 56:39.30 |  3:22.00 |    254955    |   270104   

Track  1

     Filename I:\What.Cd\Fard - 2011 - Invictus (Power Edition) (2Cd) (Flac)\Cd1\01. Fard - Intro.wav

     Pre-gap length  0:00:04.00

     Peak level 100.0 %
     Extraction speed 2.1 X
     Track quality 100.0 %
     Test CRC F166699F
     Copy CRC F166699F
     Track not present in AccurateRip database
     Copy OK

Track  2

     Filename I:\What.Cd\Fard - 2011 - Invictus (Power Edition) (2Cd) (Flac)\Cd1\02. Fard - Endlich Helden.wav

     Pre-gap length  0:00:02.00

     Peak level 100.0 %
     Extraction speed 1.9 X
     Track quality 99.9 %
     Test CRC 656BCF1A
     Copy CRC 656BCF1A
     Track not present in AccurateRip database
     Copy OK

Track  3

     Filename I:\What.Cd\Fard - 2011 - Invictus (Power Edition) (2Cd) (Flac)\Cd1\03. Fard - F. Nazizi.wav

     Pre-gap length  0:00:02.00

     Peak level 100.0 %
     Extraction speed 2.5 X
     Track quality 100.0 %
     Test CRC 9C8A6746
     Copy CRC 9C8A6746
     Track not present in AccurateRip database
     Copy OK

Track  4

     Filename I:\What.Cd\Fard - 2011 - Invictus (Power Edition) (2Cd) (Flac)\Cd1\04. Fard - Talion 45 (Feat. Snaga).wav

     Pre-gap length  0:00:02.00

     Peak level 97.5 %
     Extraction speed 2.6 X
     Track quality 100.0 %
     Test CRC C23B04DE
     Copy CRC C23B04DE
     Track not present in AccurateRip database
     Copy OK

Track  5

     Filename I:\What.Cd\Fard - 2011 - Invictus (Power Edition) (2Cd) (Flac)\Cd1\05. Fard - Seine Geschichte.wav

     Pre-gap length  0:00:02.00

     Peak level 100.0 %
     Extraction speed 2.9 X
     Track quality 100.0 %
     Test CRC 598C4D18
     Copy CRC 598C4D18
     Track not present in AccurateRip database
     Copy OK

Track  6

     Filename I:\What.Cd\Fard - 2011 - Invictus (Power Edition) (2Cd) (Flac)\Cd1\06. Fard - Kinder Des Zorns.wav

     Pre-gap length  0:00:02.00

     Peak level 100.0 %
     Extraction speed 2.5 X
     Track quality 99.9 %
     Test CRC 0CD39F20
     Copy CRC 0CD39F20
     Track not present in AccurateRip database
     Copy OK

Track  7

     Filename I:\What.Cd\Fard - 2011 - Invictus (Power Edition) (2Cd) (Flac)\Cd1\07. Fard - Einsam.wav

     Pre-gap length  0:00:02.00

     Peak level 96.1 %
     Extraction speed 3.3 X
     Track quality 100.0 %
     Test CRC 675C9BE5
     Copy CRC 675C9BE5
     Track not present in AccurateRip database
     Copy OK

Track  8

     Filename I:\What.Cd\Fard - 2011 - Invictus (Power Edition) (2Cd) (Flac)\Cd1\08. Fard - S.O.S..wav

     Pre-gap length  0:00:02.00

     Peak level 94.2 %
     Extraction speed 3.3 X
     Track quality 100.0 %
     Test CRC B094A777
     Copy CRC B094A777
     Track not present in AccurateRip database
     Copy OK

Track  9

     Filename I:\What.Cd\Fard - 2011 - Invictus (Power Edition) (2Cd) (Flac)\Cd1\09. Fard - Wir Sind Hier.wav

     Pre-gap length  0:00:02.00

     Peak level 96.0 %
     Extraction speed 2.7 X
     Track quality 99.9 %
     Test CRC 48538053
     Copy CRC 48538053
     Track not present in AccurateRip database
     Copy OK

Track 10

     Filename I:\What.Cd\Fard - 2011 - Invictus (Power Edition) (2Cd) (Flac)\Cd1\10. Fard - Dann Bist Du Haeuptling.wav

     Pre-gap length  0:00:02.00

     Peak level 99.4 %
     Extraction speed 3.6 X
     Track quality 100.0 %
     Test CRC A910124C
     Copy CRC A910124C
     Track not present in AccurateRip database
     Copy OK

Track 11

     Filename I:\What.Cd\Fard - 2011 - Invictus (Power Edition) (2Cd) (Flac)\Cd1\11. Fard - Falsches Spiel.wav

     Pre-gap length  0:00:02.00

     Peak level 100.0 %
     Extraction speed 3.8 X
     Track quality 100.0 %
     Test CRC 235605B8
     Copy CRC 235605B8
     Track not present in AccurateRip database
     Copy OK

Track 12

     Filename I:\What.Cd\Fard - 2011 - Invictus (Power Edition) (2Cd) (Flac)\Cd1\12. Fard - Rock N Roll.wav

     Pre-gap length  0:00:02.00

     Peak level 96.0 %
     Extraction speed 3.8 X
     Track quality 100.0 %
     Test CRC 35AB243D
     Copy CRC 35AB243D
     Track not present in AccurateRip database
     Copy OK

Track 13

     Filename I:\What.Cd\Fard - 2011 - Invictus (Power Edition) (2Cd) (Flac)\Cd1\13. Fard - Post Fuer Dich.wav

     Pre-gap length  0:00:02.00

     Peak level 99.2 %
     Extraction speed 4.1 X
     Track quality 100.0 %
     Test CRC F9ABBCF3
     Copy CRC F9ABBCF3
     Track not present in AccurateRip database
     Copy OK

Track 14

     Filename I:\What.Cd\Fard - 2011 - Invictus (Power Edition) (2Cd) (Flac)\Cd1\14. Fard - Ich Will Wissen.wav

     Pre-gap length  0:00:02.00

     Peak level 99.4 %
     Extraction speed 4.0 X
     Track quality 100.0 %
     Test CRC 59D69CE2
     Copy CRC 59D69CE2
     Track not present in AccurateRip database
     Copy OK

Track 15

     Filename I:\What.Cd\Fard - 2011 - Invictus (Power Edition) (2Cd) (Flac)\Cd1\15. Fard - Reich & Schoen.wav

     Pre-gap length  0:00:02.00

     Peak level 98.7 %
     Extraction speed 4.2 X
     Track quality 100.0 %
     Test CRC 17306387
     Copy CRC 17306387
     Track not present in AccurateRip database
     Copy OK

Track 16

     Filename I:\What.Cd\Fard - 2011 - Invictus (Power Edition) (2Cd) (Flac)\Cd1\16. Fard - Erinnerungen.wav

     Pre-gap length  0:00:02.00

     Peak level 100.0 %
     Extraction speed 4.2 X
     Track quality 100.0 %
     Test CRC 511F11A3
     Copy CRC 511F11A3
     Track not present in AccurateRip database
     Copy OK

None of the tracks are present in the AccurateRip database

No errors occurred

End of status report

==== Log checksum 9CD2EFD60B6F490B94D7B944486C63FDB8BB5E950C0856A14E17AF0260BF766C ====

Код:

Exact Audio Copy V1.0 beta 2 from 29. April 2011

EAC extraction logfile from 16. November 2011, 13:58

Fard / Invictus (Power Edition)

Used drive  : hp      CDDVDW TS-L633M   Adapter: 1  ID: 0

Read mode               : Secure
Utilize accurate stream : Yes
Defeat audio cache      : Yes
Make use of C2 pointers : No

Read offset correction                      : 6
Overread into Lead-In and Lead-Out          : No
Fill up missing offset samples with silence : Yes
Delete leading and trailing silent blocks   : No
Null samples used in CRC calculations       : Yes
Used interface                              : Native Win32 interface for Win NT & 2000
Gap handling                                : Appended to previous track

Used output format              : User Defined Encoder
Selected bitrate                : 1024 kBit/s
Quality                         : High
Add ID3 tag                     : No
Command line compressor         : C:\Program Files (x86)\FLAC\flac.exe
Additional command line options : -8 -V -T "ARTIST=%artist%" -T "TITLE=%title%" -T "ALBUM=%albumtitle%" -T "DATE=%year%" -T "TRACKNUMBER=%tracknr%" -T "GENRE=%genre%" -T "PERFORMER=%albuminterpret%" -T "COMPOSER=%composer%" %haslyrics%--tag-from-file=LYRICS

TOC of the extracted CD

     Track |   Start  |  Length  | Start sector | End sector
    ---------------------------------------------------------
        1  |  0:02.00 |  3:50.57 |       150    |    17456   
        2  |  3:52.57 |  4:26.00 |     17457    |    37406   
        3  |  8:18.57 |  3:46.00 |     37407    |    54356   
        4  | 12:04.57 |  3:33.38 |     54357    |    70369   
        5  | 15:38.20 |  4:28.00 |     70370    |    90469   
        6  | 20:06.20 |  2:44.00 |     90470    |   102769   

Track  1

     Filename I:\What.Cd\Fard - 2011 - Invictus (Power Edition) (2Cd) (Flac)\Cd2\01. Fard - 60 Terrorbars Las Vegas.wav

     Pre-gap length  0:00:04.00

     Peak level 100.0 %
     Extraction speed 1.2 X
     Track quality 99.9 %
     Test CRC FD6C5F6A
     Copy CRC FD6C5F6A
     Track not present in AccurateRip database
     Copy OK

Track  2

     Filename I:\What.Cd\Fard - 2011 - Invictus (Power Edition) (2Cd) (Flac)\Cd2\02. Fard - NRW (Feat. Farid Bang & Summer Cem).wav

     Pre-gap length  0:00:02.00

     Peak level 100.0 %
     Extraction speed 1.8 X
     Track quality 100.0 %
     Test CRC 9CCFFF13
     Copy CRC 9CCFFF13
     Track not present in AccurateRip database
     Copy OK

Track  3

     Filename I:\What.Cd\Fard - 2011 - Invictus (Power Edition) (2Cd) (Flac)\Cd2\03. Fard - Dein Kuss.wav

     Pre-gap length  0:00:02.00

     Peak level 100.0 %
     Extraction speed 1.9 X
     Track quality 100.0 %
     Test CRC 1059FD98
     Copy CRC 1059FD98
     Track not present in AccurateRip database
     Copy OK

Track  4

     Filename I:\What.Cd\Fard - 2011 - Invictus (Power Edition) (2Cd) (Flac)\Cd2\04. Fard - Maerchenwelt.wav

     Pre-gap length  0:00:02.00

     Peak level 98.5 %
     Extraction speed 2.1 X
     Track quality 100.0 %
     Test CRC 02E2F1C4
     Copy CRC 02E2F1C4
     Track not present in AccurateRip database
     Copy OK

Track  5

     Filename I:\What.Cd\Fard - 2011 - Invictus (Power Edition) (2Cd) (Flac)\Cd2\05. Fard - Gutes Kommt & Gutes Geht (Feat. Moe Phoenix).wav

     Pre-gap length  0:00:02.00

     Peak level 96.0 %
     Extraction speed 2.3 X
     Track quality 100.0 %
     Test CRC 60F062C5
     Copy CRC 60F062C5
     Track not present in AccurateRip database
     Copy OK

Track  6

     Filename I:\What.Cd\Fard - 2011 - Invictus (Power Edition) (2Cd) (Flac)\Cd2\06. Fard - Kugelsicher.wav

     Pre-gap length  0:00:02.00

     Peak level 99.5 %
     Extraction speed 1.5 X
     Track quality 99.9 %
     Test CRC 4A7FFE95
     Copy CRC 4A7FFE95
     Track not present in AccurateRip database
     Copy OK

None of the tracks are present in the AccurateRip database

No errors occurred

End of status report

==== Log checksum 4405799A0E8118109EF6D7E5AF5CCA0E3D0774BDADF4DF3A5E7C9D8E5638251A ====

Код:

REM GENRE Hip-Hop
REM DATE 2011
REM DISCID C50E0F10
REM COMMENT "ExactAudioCopy v1.0b2"
PERFORMER Fard
TITLE "Invictus (Power Edition)"
FILE "2011  Invictus (Power Edition).wav" WAVE
  TRACK 01 AUDIO
    TITLE Intro
    PERFORMER Fard
    PREGAP 00:02:00
    INDEX 01 00:00:00
  TRACK 02 AUDIO
    TITLE "Endlich Helden"
    PERFORMER Fard
    INDEX 00 02:52:00
FILE "2011  Invictus (Power Edition).wav" WAVE
    INDEX 01 00:00:00
  TRACK 03 AUDIO
    TITLE "F. Nazizi"
    PERFORMER Fard
    INDEX 00 04:00:00
FILE "2011  Invictus (Power Edition).wav" WAVE
    INDEX 01 00:00:00
  TRACK 04 AUDIO
    TITLE "Talion 45 (Feat. Snaga)"
    PERFORMER Fard
    INDEX 00 03:32:00
FILE "2011  Invictus (Power Edition).wav" WAVE
    INDEX 01 00:00:00
  TRACK 05 AUDIO
    TITLE "Seine Geschichte"
    PERFORMER Fard
    INDEX 00 02:52:00
FILE "2011  Invictus (Power Edition).wav" WAVE
    INDEX 01 00:00:00
  TRACK 06 AUDIO
    TITLE "Kinder Des Zorns"
    PERFORMER Fard
    INDEX 00 04:26:00
FILE "2011  Invictus (Power Edition).wav" WAVE
    INDEX 01 00:00:00
  TRACK 07 AUDIO
    TITLE Einsam
    PERFORMER Fard
    INDEX 00 04:02:00
FILE "2011  Invictus (Power Edition).wav" WAVE
    INDEX 01 00:00:00
  TRACK 08 AUDIO
    TITLE S.O.S.
    PERFORMER Fard
    INDEX 00 04:40:00
FILE "2011  Invictus (Power Edition).wav" WAVE
    INDEX 01 00:00:00
  TRACK 09 AUDIO
    TITLE "Wir Sind Hier"
    PERFORMER Fard
    INDEX 00 03:38:10
FILE "2011  Invictus (Power Edition).wav" WAVE
    INDEX 01 00:00:00
  TRACK 10 AUDIO
    TITLE "Dann Bist Du Haeuptling"
    PERFORMER Fard
    INDEX 00 03:15:38
FILE "2011  Invictus (Power Edition).wav" WAVE
    INDEX 01 00:00:00
  TRACK 11 AUDIO
    TITLE "Falsches Spiel"
    PERFORMER Fard
    INDEX 00 03:27:19
FILE "2011  Invictus (Power Edition).wav" WAVE
    INDEX 01 00:00:00
  TRACK 12 AUDIO
    TITLE "Rock N Roll"
    PERFORMER Fard
    INDEX 00 03:50:00
FILE "2011  Invictus (Power Edition).wav" WAVE
    INDEX 01 00:00:00
  TRACK 13 AUDIO
    TITLE "Post Fuer Dich"
    PERFORMER Fard
    INDEX 00 03:34:00
FILE "2011  Invictus (Power Edition).wav" WAVE
    INDEX 01 00:00:00
  TRACK 14 AUDIO
    TITLE "Ich Will Wissen"
    PERFORMER Fard
    INDEX 00 04:36:00
FILE "2011  Invictus (Power Edition).wav" WAVE
    INDEX 01 00:00:00
  TRACK 15 AUDIO
    TITLE "Reich & Schoen"
    PERFORMER Fard
    INDEX 00 03:08:38
FILE "2011  Invictus (Power Edition).wav" WAVE
    INDEX 01 00:00:00
  TRACK 16 AUDIO
    TITLE Erinnerungen
    PERFORMER Fard
    INDEX 00 04:14:00
FILE "2011  Invictus (Power Edition).wav" WAVE
    INDEX 01 00:00:00

Код:

REM GENRE Hip-Hop
REM DATE 2011
REM DISCID 39055806
REM COMMENT "ExactAudioCopy v1.0b2"
PERFORMER Fard
TITLE "Invictus (Power Edition)"
FILE "2011  Invictus (Power Edition).wav" WAVE
  TRACK 01 AUDIO
    TITLE "60 Terrorbars Las Vegas"
    PERFORMER Fard
    PREGAP 00:02:00
    INDEX 01 00:00:00
  TRACK 02 AUDIO
    TITLE "Nrw (Feat. Farid Bang & Summer Cem)"
    PERFORMER Fard
    INDEX 00 03:48:57
FILE "2011  Invictus (Power Edition).wav" WAVE
    INDEX 01 00:00:00
  TRACK 03 AUDIO
    TITLE "Dein Kuss"
    PERFORMER Fard
    INDEX 00 04:24:00
FILE "2011  Invictus (Power Edition).wav" WAVE
    INDEX 01 00:00:00
  TRACK 04 AUDIO
    TITLE Maerchenwelt
    PERFORMER Fard
    INDEX 00 03:44:00
FILE "2011  Invictus (Power Edition).wav" WAVE
    INDEX 01 00:00:00
  TRACK 05 AUDIO
    TITLE "Gutes Kommt & Gutes Geht (Feat. Moe Phoenix)"
    PERFORMER Fard
    INDEX 00 03:31:38
FILE "2011  Invictus (Power Edition).wav" WAVE
    INDEX 01 00:00:00
  TRACK 06 AUDIO
    TITLE Kugelsicher
    PERFORMER Fard
    INDEX 00 04:26:00
FILE "2011  Invictus (Power Edition).wav" WAVE
    INDEX 01 00:00:00
info [Профиль]  [ЛС] 

Raa

Пол: Пол:Муж

Стаж: 12 лет

Сообщений: 1099

Рейтинг

post 01-Дек-2011 01:37 (спустя 4 часа) [-]0[+]

[Цитировать] 

bit-bul
Отчет первого СД не полный
info [Профиль]  [ЛС] 

bit-bul

Пол: Пол:Муж

Стаж: 12 лет

Сообщений: 213

Ямайка
Рейтинг

post 01-Дек-2011 06:47 (спустя 5 часов) [-]0[+]

[Цитировать] 

Омикомс писал(а):

bit-bul
Отчет первого СД не полный
Исправил!
info [Профиль]  [ЛС] 

LiLS

Пол: Пол:Муж

Стаж: 10 лет

Сообщений: 126

СССР
Рейтинг

post 01-Дек-2011 16:54 (спустя 10 часов) [-]0[+]

[Цитировать] 

Danke! Не дурно читает этот Эм Си Подмигиваю Надо будет ещё поискать его альбомы в лузях Улыбаюсь

_________________
info [Профиль]  [ЛС] 
Показать сообщения:    
Ответить на тему

Текущее время: 21-Май 07:44

Часовой пояс: GMT + 4



Вы не можете начинать темы
Вы не можете отвечать на сообщения
Вы не можете редактировать свои сообщения
Вы не можете удалять свои сообщения
Вы не можете голосовать в опросах
Вы не можете прикреплять файлы к сообщениям
Вы не можете скачивать файлы