Ошибка

(Metalcore/Modern Metal) Icon In Me / Head Break Solution - 2011, FLAC (image+.cue)+covers, lossless

Ответить на тему
 
Автор Сообщение

iron_cam

Пол: Пол:Муж

Стаж: 10 лет

Сообщений: 244

Предупреждений: 2

Россия
Рейтинг

post 19-Окт-2011 01:11 1[+]

[Цитировать] 

Icon In Me / Head Break Solution

Жанр: Metalcore/Modern Metal
Происхождение исполнителя: Russia/Sweden/Denmark
Год издания данного носителя: 2011
Страна-производитель носителя: Россия
Тип релиза: image+.cue
Аудио кодек: FLAC
Битрейт аудио: lossless
Продолжительность: 55:43
Треклист:
01. Suicide World / Intro
02. Wasted Ways
03. Face It
04. The Quest
05. Un-slaved
06. Lost For Nothing
07. Flood Kills
08. Nuclear Drama
09. Tired And Broken
10. Through The Sights
11. Aspects Of The Unknown
12. Solid Child
13. thousand Wars (bonus)
14. Dead Salvation (bonus)

Код:

Exact Audio Copy V0.99 prebeta 5 from 4. May 2009
EAC extraction logfile from 25. July 2011, 0:33
Icon In Me / Head Break Solution
Used drive  : PLEXTOR DVDR   PX-860A   Adapter: 0  ID: 0
Read mode               : Secure
Utilize accurate stream : Yes
Defeat audio cache      : Yes
Make use of C2 pointers : No
Read offset correction                      : 96
Overread into Lead-In and Lead-Out          : No
Fill up missing offset samples with silence : Yes
Delete leading and trailing silent blocks   : No
Null samples used in CRC calculations       : Yes
Used interface                              : Installed external ASPI interface
Used output format              : User Defined Encoder
Selected bitrate                : 1024 kBit/s
Quality                         : High
Add ID3 tag                     : Yes
Command line compressor         : C:\Program Files\Exact Audio Copy\FLAC.EXE
Additional command line options : -6 -V %s
TOC of the extracted CD
     Track |   Start  |  Length  | Start sector | End sector
    ---------------------------------------------------------
        1  |  0:00.00 |  1:11.44 |         0    |     5368
        2  |  1:11.44 |  4:43.70 |      5369    |    26663
        3  |  5:55.39 |  4:05.29 |     26664    |    45067
        4  | 10:00.68 |  4:48.66 |     45068    |    66733
        5  | 14:49.59 |  4:48.50 |     66734    |    88383
        6  | 19:38.34 |  4:08.53 |     88384    |   107036
        7  | 23:47.12 |  4:30.01 |    107037    |   127287
        8  | 28:17.13 |  3:48.00 |    127288    |   144387
        9  | 32:05.13 |  4:03.01 |    144388    |   162613
       10  | 36:08.14 |  2:46.20 |    162614    |   175083
       11  | 38:54.34 |  4:37.25 |    175084    |   195883
       12  | 43:31.59 |  3:41.60 |    195884    |   212518
       13  | 47:13.44 |  3:44.45 |    212519    |   229363
       14  | 50:58.14 |  4:44.70 |    229364    |   250733
Range status and errors
Selected range
     Filename J:\MUSIC\Icon In Me - Head Break Solution.wav
     Peak level 100.0 %
     Range quality 100.0 %
     Test CRC D916C884
     Copy CRC D916C884
     Copy OK
No errors occurred
AccurateRip summary
Track  1  not present in database
Track  2  not present in database
Track  3  not present in database
Track  4  not present in database
Track  5  not present in database
Track  6  not present in database
Track  7  not present in database
Track  8  not present in database
Track  9  not present in database
Track 10  not present in database
Track 11  not present in database
Track 12  not present in database
Track 13  not present in database
Track 14  not present in database
None of the tracks are present in the AccurateRip database
End of status report

Код:

REM GENRE Metal
REM DATE 2011
REM DISCID BA0D0F0E
REM COMMENT "ExactAudioCopy v0.99pb5"
PERFORMER "Icon In Me"
TITLE "Head Break Solution"
FILE "Icon In Me - Head Break Solution.flac" WAVE
  TRACK 01 AUDIO
    TITLE "01. Suicide World / Intro"
    PERFORMER "Icon In Me"
    INDEX 01 00:00:00
  TRACK 02 AUDIO
    TITLE "02. Wasted Ways"
    PERFORMER "Icon In Me"
    INDEX 01 01:11:44
  TRACK 03 AUDIO
    TITLE "03. Face It"
    PERFORMER "Icon In Me"
    INDEX 01 05:55:39
  TRACK 04 AUDIO
    TITLE "04. The Quest"
    PERFORMER "Icon In Me"
    INDEX 01 10:00:68
  TRACK 05 AUDIO
    TITLE "05. Un-slaved"
    PERFORMER "Icon In Me"
    INDEX 00 14:48:59
    INDEX 01 14:49:59
  TRACK 06 AUDIO
    TITLE "06. Lost For Nothing"
    PERFORMER "Icon In Me"
    INDEX 01 19:38:34
  TRACK 07 AUDIO
    TITLE "07. Flood Kills"
    PERFORMER "Icon In Me"
    INDEX 01 23:47:12
  TRACK 08 AUDIO
    TITLE "08. Nuclear Drama"
    PERFORMER "Icon In Me"
    INDEX 00 28:15:13
    INDEX 01 28:17:13
  TRACK 09 AUDIO
    TITLE "09. Tired And Broken"
    PERFORMER "Icon In Me"
    INDEX 00 32:04:13
    INDEX 01 32:05:13
  TRACK 10 AUDIO
    TITLE "10. Through The Sights"
    PERFORMER "Icon In Me"
    INDEX 00 36:07:13
    INDEX 01 36:08:14
  TRACK 11 AUDIO
    TITLE "11. Aspects Of The Unknown"
    PERFORMER "Icon In Me"
    INDEX 00 38:52:34
    INDEX 01 38:54:34
  TRACK 12 AUDIO
    TITLE "12. Solid Child"
    PERFORMER "Icon In Me"
    INDEX 00 43:29:59
    INDEX 01 43:31:59
  TRACK 13 AUDIO
    TITLE "13. Thousand Wars (bonus)"
    PERFORMER "Icon In Me"
    INDEX 00 47:12:44
    INDEX 01 47:13:44
  TRACK 14 AUDIO
    TITLE "14. Dead Salvation (bonus)"
    PERFORMER "Icon In Me"
    INDEX 00 50:56:14
    INDEX 01 50:58:14
Полиграфия: присутствует
Лейбл: Mazzar
Тип рипа: image+.cue
info [Профиль]  [ЛС] 

Raa

Пол: Пол:Муж

Стаж: 12 лет

Сообщений: 1099

Рейтинг

post 20-Окт-2011 01:30 (спустя 1 день) [-]0[+]

[Цитировать] 

iron_cam
Текст .cue (файл разметки)
info [Профиль]  [ЛС] 

AlexL

Пол: Пол:Муж

Стаж: 11 лет

Сообщений: 42

Россия
Рейтинг

post 20-Окт-2011 16:29 (спустя 14 часов) [-]0[+]

[Цитировать] 

спасибо

_________________
Раздаю с 7:00 до 22:00
Internet Speed 4Mbps 1Mbps
info [Профиль]  [ЛС] 
Показать сообщения:    
Ответить на тему

Текущее время: 17-Май 04:36

Часовой пояс: GMT + 4



Вы не можете начинать темы
Вы не можете отвечать на сообщения
Вы не можете редактировать свои сообщения
Вы не можете удалять свои сообщения
Вы не можете голосовать в опросах
Вы не можете прикреплять файлы к сообщениям
Вы не можете скачивать файлы