Ошибка

В ад и обратно / Hell and Back Again (Данфунг Деннис / Danfung Dennis) [2011 , документальный, боевик, военный, HDRip]

Ответить на тему
 
Автор Сообщение

uMKa13

Пол: Пол:Муж

Стаж: 5 лет 4 месяца

Сообщений: 313

Россия
Рейтинг

post 22-Янв-2012 15:20 1[+]

[Цитировать] 

В ад и обратно / Hell and Back Again

Год выпуска: 2011
Страна: США, Великобритания, Афганистан

Жанр: документальный, боевик, военный, история
Продолжительность: 01:28:28
Перевод: Профессиональный (многоголосый закадровый)
Режиссер: Данфунг Деннис / Danfung Dennis
Продюсер: Данфунг Деннис, Мартин Херринг, Thomas Brunner
Композитор: Джошуа Ральф
В ролях: Информация отсутствует.
Описание: В 2009 году отряд морской пехоты США штурмовал базу талибов на юге Афганистана. Едва высадившись с вертолетов, десантники оказались под перекрестным огнем. Вместе с ротой «Эхо» идет оператор Дэнфанг Деннис, его камера фиксирует реалии боя, у него на глазах получает ранение 25-летний сержант Нейтен Харрис.
Документальный фильм, начавшийся как эпический рассказ о военных буднях, оказывается историей «личного апокалипсиса» человека, пытающегося справиться с болью - физической и психологической, и, вернувшись к прежней жизни, снова стать тем самым человеком, каким был до войны.

Качество: HDRip
Формат: AVI
Видео кодек: DivX 4
Аудио кодек: MP3
Видео: 720x400 (16:9); 1942 Kbps; 23,976 fps; 0,281 bpp
Аудио: 256 Kbps; CBR; 2 ch
General
Complete name : V.ad.i.obratno.2011.P.HDRip.avi
Format : AVI
Format/Info : Audio Video Interleave
File size : 1.36 GiB
Duration : 1h 28mn
Overall bit rate : 2 208 Kbps
Writing application : VirtualDubMod 1.5.10.2 (build 2540/release)
Writing library : VirtualDubMod build 2540/release

Video
ID : 0
Format : MPEG-4 Visual
Format profile : Advanced Simple@L5
Format settings, BVOP : 1
Format settings, QPel : No
Format settings, GMC : No warppoints
Format settings, Matrix : Custom
Codec ID : DIVX
Codec ID/Info : Project Mayo
Codec ID/Hint : DivX 4
Duration : 1h 28mn
Bit rate : 1 943 Kbps
Width : 720 pixels
Height : 400 pixels
Display aspect ratio : 16:9
Frame rate : 23.976 fps
Color space : YUV
Chroma subsampling : 4:2:0
Bit depth : 8 bits
Scan type : Progressive
Compression mode : Lossy
Bits/(Pixel*Frame) : 0.281
Stream size : 1.20 GiB (88%)
Writing library : XviD 1.2.1 (UTC 2008-12-04)

Audio
ID : 1
Format : MPEG Audio
Format version : Version 1
Format profile : Layer 3
Mode : Joint stereo
Mode extension : MS Stereo
Codec ID : 55
Codec ID/Hint : MP3
Duration : 1h 28mn
Bit rate mode : Constant
Bit rate : 256 Kbps
Channel(s) : 2 channels
Sampling rate : 48.0 KHz
Compression mode : Lossy
Delay relative to video : 984ms
Stream size : 162 MiB (12%)
Alignment : Split accross interleaves
Interleave, duration : 42 ms (1.00 video frame)
Interleave, preload duration : 504 ms
info [Профиль]  [ЛС] 

post 22-Янв-2012 15:32 (спустя 12 минут) [-]-1[+]

Топик был перенесен из форума Зарубежное кино | Rips в форум Документальные фильмы и телепередачи

Alex Ander
 

Ядурак

Пол: Пол:Муж

Стаж: 6 лет 8 месяцев

Сообщений: 796

Северные Марианские острова
Рейтинг

post 22-Янв-2012 16:01 (спустя 41 минута) [-]-4[+]

[Цитировать] 

Честно? Надоели эти пафосные фильмы о США... Ну как можно смотреть на это, считая амеров "освободителями"?..

_________________
кончились аргументы - саркастически шути про мой ник
info [Профиль]  [ЛС] 

DubWiser

Стаж: 5 лет 1 месяц

Сообщений: 20

Рейтинг

post 22-Янв-2012 16:11 (спустя 9 минут) [-]0[+]

[Цитировать] 

"Честно? Надоели эти пафосные фильмы о США... Ну как можно смотреть на это, считая амеров "освободителями"?.."

Полагаю - они таким образом, регулируют численность мужского населения своей и "освобождаемой" страны.
info [Профиль]  [ЛС] 

katarsiss

Стаж: 7 лет 2 месяца

Сообщений: 19

Россия
Рейтинг

post 22-Янв-2012 17:48 (спустя 1 час 37 минут) [-]0[+]

[Цитировать] 

прекрасный фильм. очень проблемный, если вдуматься.(никакой политики только не надо пожалуйста).
если кто-то хочет посмотреть обсуждение этой картины(она была показана в передаче "Смотрим, обсуждаем", которую ведет В.И.Хотиненко по каналу КУЛЬТУРА), найдите на торрентах выпуск с этим фильмом. очень любопытно. не все так плоско.
info [Профиль]  [ЛС] 

LuisCerro

Пол: Пол:Муж

Стаж: 6 лет 4 месяца

Сообщений: 14

Россия
Рейтинг

post 22-Янв-2012 23:50 (спустя 6 часов) [-]0[+]

[Цитировать] 

Ярчайший пример того, насколько сильно промыты мозги у американцев и насколько сильно в них развит патриотизм.
info [Профиль]  [ЛС] 

ostronotus

Пол: Пол:Муж

Стаж: 5 лет 1 месяц

Сообщений: 133

Украина
Рейтинг

post 23-Янв-2012 02:45 (спустя 2 часа 55 минут) [-]0[+]

[Цитировать] 

Афган развалил наш союз, а так мы жили бы уже при коммунизме, господа. Зачем в чужих горах мы сохранили душу? Поверьте, что душа нам больше не нужна! Просто мы стали совестью бессовестной страны. А когда мои родные погибли на каширском, то ли от боевиков, то ли от фэсбэшников, я благословляю вас, россияне, на всё. Дерзайте, дорогие. И да хранит вас Господь, но без меня. Аминь!
Это там у нас, за метелями,
На родной земле хлеб да соль в домах,
И за снежными колыбелями
По ночам не слышно "Акбар Аллах!"
Это там у нас, за метелями,
На родной земле хлеб да соль в домах.
А за тыщи верст под прицелами пацаны…
info [Профиль]  [ЛС] 

katarsiss

Стаж: 7 лет 2 месяца

Сообщений: 19

Россия
Рейтинг

post 24-Янв-2012 00:04 (спустя 21 час) [-]1[+]

[Цитировать] 

это наоборот антипатриотичный фильм. смотрите глубже. здесь наоборот нам показывают человека, который даже будучи калекой хочет убивать. зачем пошел в армию? убивать. и все. и это их солдаты. поэтому и не только, там еще много всего, это вообще никак не связано с патриотизмом, а даже наоборот.
info [Профиль]  [ЛС] 
Показать сообщения:    
Ответить на тему

Текущее время: 11-Дек 14:01

Часовой пояс: GMT + 4



Вы не можете начинать темы
Вы не можете отвечать на сообщения
Вы не можете редактировать свои сообщения
Вы не можете удалять свои сообщения
Вы не можете голосовать в опросах
Вы не можете прикреплять файлы к сообщениям
Вы не можете скачивать файлы