Ошибка

The Legend of Zelda: Concert 2018 [2018, Video Game Soundtrack, BDRip 1080p]

Ответить на тему
 
Автор Сообщение

vwf

Пол: Пол:Муж

Стаж: 10 лет

Сообщений: 187

Гаити
Рейтинг

post 17-Дек-2019 10:08 2[+]

[Цитировать] 

The Legend of Zelda: Concert 2018

Год выпуска: 2018
Лейбл: Jap Import
Страна-производитель: Japan
Жанр: Video Game Soundtrack
Продолжительность: 2:10:13
Язык: Японский
Перевод: Отсутствует
Субтитры: Отсутствуют
Режиссер/Хореограф: Taizo Takemoto
Исполнители: Tokyo Philharmonic Orchestra
Описание: Это первый концерт за два года после предыдущего, который отпраздновал 30-летие серии. Концерт акцентирует внимание на окарине, арфе и аккордеоне. В игре есть известная музыка из последней части игры The Legend of the Zelda: Breath of the Wild, а также легендарные мелодии из предыдущих эпизодов этой саги.
Эксклюзивный Blu-ray включает в себя видео с концерта и изображения игр, показанные на большом экране во время этого невероятного события.

Дирижируемый Taizo Takemoto в исполнении Токийского филармонического оркестра, этот альбом является непревзойденным для всех поклонников серии и симфонической музыки.

Качество видео: BDRip
Формат/Контейнер: MKV
Видео кодек: MPEG-4 AVC
Аудио кодек: FLAC
Видео поток: MPEG-4 AVC Video 9083 kbps 1080p / 23,976 fps / 16:9 / High Profile 4.1
Аудио поток: FLAC Audio 2931 kbps 2 ch / 96 kHz / 24-bit
Part 1
01 - Main Theme from Breath of the Wild
02 - TALK1
03 - Breath of the Wild: World Medley -The Land of Hyrule
04 - Princess Zelda's Theme
05 - Ocarina Melodies Suite 2018
06 - TALK2
07 - Boss Battle Theme Medley 2018
08 - A Link Between Worlds & Tri-Force Heroes Medley
09 - TALK3
10 - Breath of the Wild: Champion Medley

Part 2
11 - Link's Awakening Medley
12 - TALK4
13 - Breath of the Wild: Kass Medley
14 - Horse Race
15 - TALK5
16 - The Legend of Zelda ~Harp Solo~
17 - TALK6
18 - Breath of the Wild: World Medley -Final Battle-
19 - TALK7
20 - The Legend of Zelda Main Theme
Encore
21 - TALK8
22 - Encore (Piano Solo) by Kōji Kondō
23 - TALK9
24 - Nintendo Switch Presentation 2017 Trailer BGM
General
Unique ID : 244206949269414517339807353546369355948 (0xB7B88C30FDAC7465B1B9273C840B50AC)
Complete name : /Volumes/Untitled/the.legend.of.zelda.concert.2018.1080p.mbluray.x264-dev0.mkv
Format : Matroska
Format version : Version 4
File size : 10.9 GiB
Duration : 2 h 10 min
Overall bit rate mode : Variable
Overall bit rate : 12.0 Mb/s
Encoded date : UTC 2019-03-16 16:54:41
Writing application : mkvmerge v8.3.0 ('Over the Horizon') 64bit
Writing library : libebml v1.3.1 + libmatroska v1.4.2

Video
ID : 1
Format : AVC
Format/Info : Advanced Video Codec
Format profile : High@L4.1
Format settings : CABAC / 4 Ref Frames
Format settings, CABAC : Yes
Format settings, Reference frames : 4 frames
Codec ID : V_MPEG4/ISO/AVC
Duration : 2 h 10 min
Bit rate : 9 083 kb/s
Width : 1 920 pixels
Height : 1 080 pixels
Display aspect ratio : 16:9
Frame rate mode : Constant
Frame rate : 23.976 (24000/1001) FPS
Color space : YUV
Chroma subsampling : 4:2:0
Bit depth : 8 bits
Scan type : Progressive
Bits/(Pixel*Frame) : 0.183
Stream size : 8.26 GiB (76%)
Writing library : x264 core 157 r2935 545de2f
Encoding settings : cabac=1 / ref=4 / deblock=1:-3:-3 / analyse=0x3:0x133 / me=umh / subme=9 / psy=1 / psy_rd=1.00:0.00 / mixed_ref=1 / me_range=16 / chroma_me=1 / trellis=2 / 8x8dct=1 / cqm=0 / deadzone=21,11 / fast_pskip=0 / chroma_qp_offset=-2 / threads=24 / lookahead_threads=2 / sliced_threads=0 / nr=0 / decimate=1 / interlaced=0 / bluray_compat=0 / constrained_intra=0 / bframes=3 / b_pyramid=2 / b_adapt=1 / b_bias=0 / direct=3 / weightb=1 / open_gop=0 / weightp=2 / keyint=240 / keyint_min=24 / scenecut=40 / intra_refresh=0 / rc_lookahead=50 / rc=2pass / mbtree=1 / bitrate=9083 / ratetol=1.0 / qcomp=0.60 / qpmin=0 / qpmax=69 / qpstep=4 / cplxblur=20.0 / qblur=0.5 / ip_ratio=1.40 / aq=1:1.00
Language : English
Default : Yes
Forced : No

Audio
ID : 2
Format : FLAC
Format/Info : Free Lossless Audio Codec
Codec ID : A_FLAC
Duration : 2 h 10 min
Bit rate mode : Variable
Bit rate : 2 931 kb/s
Channel(s) : 2 channels
Channel layout : L R
Sampling rate : 96.0 kHz
Frame rate : 23.438 FPS (4096 SPF)
Bit depth : 24 bits
Compression mode : Lossless
Stream size : 2.67 GiB (24%)
Writing library : libFLAC 1.2.1 (UTC 2007-09-17)
Language : Japanese
Default : Yes
Forced : No

Menu
00:00:00.000 : en:00:00:00.000
00:02:37.157 : en:00:02:37.157
00:04:50.707 : en:00:04:50.707
00:11:08.501 : en:00:11:08.501
00:14:05.928 : en:00:14:05.928
00:24:07.738 : en:00:24:07.738
00:26:48.565 : en:00:26:48.565
00:34:35.782 : en:00:34:35.782
00:42:02.770 : en:00:42:02.770
00:42:39.724 : en:00:42:39.724
00:54:42.279 : en:00:54:42.279
01:06:28.193 : en:01:06:28.193
01:11:26.532 : en:01:11:26.532
01:14:26.087 : en:01:14:26.087
01:17:37.152 : en:01:17:37.152
01:20:45.424 : en:01:20:45.424
01:27:05.053 : en:01:27:05.053
01:34:29.372 : en:01:34:29.372
01:47:00.748 : en:01:47:00.748
01:47:42.539 : en:01:47:42.539
01:56:03.957 : en:01:56:03.957
01:58:06.746 : en:01:58:06.746
02:01:51.721 : en:02:01:51.721
02:03:23.021 : en:02:03:23.021
info [Профиль]  [ЛС] 

OtMoRoZoK

Стаж: 8 лет 2 месяца

Сообщений: 122

Чехия
Рейтинг

post 21-Дек-2019 13:50 (спустя 4 дня) [-]0[+]

[Цитировать] 

японцы совсем трёкнулись)))
info [Профиль]  [ЛС] 
Показать сообщения:    
Ответить на тему

Текущее время: 15-Авг 15:27

Часовой пояс: GMT + 4



Вы не можете начинать темы
Вы не можете отвечать на сообщения
Вы не можете редактировать свои сообщения
Вы не можете удалять свои сообщения
Вы не можете голосовать в опросах
Вы не можете прикреплять файлы к сообщениям
Вы не можете скачивать файлы