Ошибка

(Punk Rock) Гражданская Оборона - Апельсин. Электричество 2010 2CD - 2010, FLAC (image+.cue)+cover, lossless

Ответить на тему
 
Автор Сообщение

Чайниксчаем

Пол: Пол:Муж

Стаж: 1 год 2 месяца

Сообщений: 23

Россия
Рейтинг

post 20-Окт-2019 12:31 1[+]

[Цитировать] 

Гражданская Оборона - Апельсин. Электричество 2010 2CD


pic="https://c.radikal.ru/c03/1910/e0/afdfd0e57130.jpg"


Жанр: Punk Rock
Год издания данного носителя: 2010
Страна-производитель носителя: Россия
Аудио кодек: FLAC
Тип рипа: image+.cue
Битрейт аудио: lossless
Продолжительность: 1:48:58
Источник (релизер): Чайниксчаем
Полиграфия: Присутствует
Описание: Апельсин. Электричество - двойной концертный альбом группы «Гражданская оборона», записанный в клубе «Апельсин» 19 ноября 2006 года.
CD1
01. Нечего терять
02. Евангелие
03. Кого-то ещё
04. Небо как кофе
05. Некрофилия
06. Привыкать
07. Попс
08. Сияние
09. Насрать на моё лицо
10. Долгая счастливая жизнь
11. Поздно
12. Офелия
13. Система
14. Любо
15. Он увидел солнце
16. Реанимация
17. Мёртвые
18. Простор открыт

CD2
19. Собаки
20. Наваждение
21. Всё как у людей
22. Со скоростью мира
23. Про дурачка
24. Тошнота
25. Самоотвод
26. Бери шинель
27. Свобода
28. Моя оборона
29. Винтовка - это праздник
30. Мышеловка
31. Зоопарк
32. Слава психонавтам
33. Русское поле экспериментов
34. Песня барсука
Exact Audio Copy V1.3 from 2. September 2016 

Отчёт EAC об извлечении, выполненном 21. марта 2019, 11:57

Гражданская Оборона / Апельсин. Электричество CD1

Дисковод: ATAPI iHAS122 C Adapter: 1 ID: 0

Режим чтения : Достоверность
Использование точного потока : Да
Отключение кэша аудио : Да
Использование указателей C2 : Нет

Коррекция смещения при чтении : 6
Способность читать области Lead-in и Lead-out : Нет
Заполнение пропущенных сэмплов тишиной : Да
Удаление блоков с тишиной в начале и конце : Нет
При вычислениях CRC использовались нулевые сэмплы : Да
Интерфейс : Встроенный Win32-интерфейс для Win NT/2000

Выходной формат : Пользовательский кодировщик
Выбранный битрейт : 768 kBit/s
Качество : Высокий
Добавление ID3-тега : Нет
Утилита сжатия : C:Program FilesExact Audio CopyFLACFLAC.EXE
Дополнительные параметры : -V -8 -T "Date=%year%" -T "Genre=%genre%" %source%

TOC извлечённого CD

Трек | Старт | Длительность | Начальный сектор | Конечный сектор
---------------------------------------------------------------------
1 | 0:00.00 | 3:19.13 | 0 | 14937
2 | 3:19.13 | 2:39.49 | 14938 | 26911
3 | 5:58.62 | 2:26.69 | 26912 | 37930
4 | 8:25.56 | 2:35.52 | 37931 | 49607
5 | 11:01.33 | 2:10.38 | 49608 | 59395
6 | 13:11.71 | 3:09.47 | 59396 | 73617
7 | 16:21.43 | 2:17.37 | 73618 | 83929
8 | 18:39.05 | 2:21.04 | 83930 | 94508
9 | 21:00.09 | 3:07.20 | 94509 | 108553
10 | 24:07.29 | 4:30.35 | 108554 | 128838
11 | 28:37.64 | 2:38.41 | 128839 | 140729
12 | 31:16.30 | 3:25.16 | 140730 | 156120
13 | 34:41.46 | 2:38.28 | 156121 | 167998
14 | 37:19.74 | 2:42.36 | 167999 | 180184
15 | 40:02.35 | 2:36.10 | 180185 | 191894
16 | 42:38.45 | 3:58.00 | 191895 | 209744
17 | 46:36.45 | 2:19.16 | 209745 | 220185
18 | 48:55.61 | 4:07.52 | 220186 | 238762

Характеристики диапазона извлечения и сообщения об ошибках

Выбранный диапазон

Имя файла D:МузыкаГражданская Оборона - Апельсин. Электричество (Выргород, 2010) 2CDГражданская Оборона - Апельсин. Электричество CD1.wav

Пиковый уровень 97.7 %
Скорость извлечения 5.8 X
Качество диапазона 100.0 %
CRC теста 176A2949
CRC копии 176A2949
Копирование... OK

Ошибок не произошло

AccurateRip: сводка
Трек 1 : извлечено точно (доверие 4) [B7CE66D5] (AR v2)
Трек 2 : извлечено точно (доверие 4) [3815755F] (AR v2)
Трек 3 : извлечено точно (доверие 4) [2A7F2527] (AR v2)
Трек 4 : извлечено точно (доверие 4) [F4958F22] (AR v2)
Трек 5 : извлечено точно (доверие 4) [FC2A22D0] (AR v2)
Трек 6 : извлечено точно (доверие 4) [D4A05EAB] (AR v2)
Трек 7 : извлечено точно (доверие 4) [1D6EBB79] (AR v2)
Трек 8 : извлечено точно (доверие 4) [B042DA9E] (AR v2)
Трек 9 : извлечено точно (доверие 4) [BC11A519] (AR v2)
Трек 10 : извлечено точно (доверие 4) [1C1AF996] (AR v2)
Трек 11 : извлечено точно (доверие 4) [CF884B0C] (AR v2)
Трек 12 : извлечено точно (доверие 4) [DEAD842F] (AR v2)
Трек 13 : извлечено точно (доверие 4) [96FAF97A] (AR v2)
Трек 14 : извлечено точно (доверие 4) [063689F9] (AR v2)
Трек 15 : извлечено точно (доверие 4) [BE165B90] (AR v2)
Трек 16 : извлечено точно (доверие 4) [FF1F01C3] (AR v2)
Трек 17 : извлечено точно (доверие 4) [BC72E5C0] (AR v2)
Трек 18 : извлечено точно (доверие 4) [4D759642] (AR v2)
Все треки извлечены точно

Конец отчёта

---- CUETools DB Plugin V2.1.6

[CTDB TOCID: dfiM5B3wPbY8hjESu4xl5ojRbAM-] found
Submit result: dfiM5B3wPbY8hjESu4xl5ojRbAM- has been confirmed
Track | CTDB Status
1 | (10/10) Accurately ripped
2 | (10/10) Accurately ripped
3 | (10/10) Accurately ripped
4 | (10/10) Accurately ripped
5 | (10/10) Accurately ripped
6 | (10/10) Accurately ripped
7 | (10/10) Accurately ripped
8 | (10/10) Accurately ripped
9 | (10/10) Accurately ripped
10 | (10/10) Accurately ripped
11 | (10/10) Accurately ripped
12 | (10/10) Accurately ripped
13 | (10/10) Accurately ripped
14 | (10/10) Accurately ripped
15 | (10/10) Accurately ripped
16 | (10/10) Accurately ripped
17 | (10/10) Accurately ripped
18 | (10/10) Accurately ripped

==== Контрольная сумма отчёта 0A8A42E9B61CDD4B2D0131CD532D5624C3BA3139D16F196A449BEF89ABB36099 ====

Exact Audio Copy V1.3 from 2. September 2016

Отчёт EAC об извлечении, выполненном 21. марта 2019, 12:40

Гражданская Оборона / Апельсин. Электричество CD2

Дисковод: ATAPI iHAS122 C Adapter: 1 ID: 0

Режим чтения : Достоверность
Использование точного потока : Да
Отключение кэша аудио : Да
Использование указателей C2 : Нет

Коррекция смещения при чтении : 6
Способность читать области Lead-in и Lead-out : Нет
Заполнение пропущенных сэмплов тишиной : Да
Удаление блоков с тишиной в начале и конце : Нет
При вычислениях CRC использовались нулевые сэмплы : Да
Интерфейс : Встроенный Win32-интерфейс для Win NT/2000

Выходной формат : Пользовательский кодировщик
Выбранный битрейт : 768 kBit/s
Качество : Высокий
Добавление ID3-тега : Нет
Утилита сжатия : C:Program FilesExact Audio CopyFLACFLAC.EXE
Дополнительные параметры : -V -8 -T "Date=%year%" -T "Genre=%genre%" %source%

TOC извлечённого CD

Трек | Старт | Длительность | Начальный сектор | Конечный сектор
---------------------------------------------------------------------
1 | 0:00.00 | 4:27.54 | 0 | 20078
2 | 4:27.54 | 2:37.51 | 20079 | 31904
3 | 7:05.30 | 3:52.59 | 31905 | 49363
4 | 10:58.14 | 2:26.58 | 49364 | 60371
5 | 13:24.72 | 4:37.04 | 60372 | 81150
6 | 18:02.01 | 2:27.66 | 81151 | 92241
7 | 20:29.67 | 3:02.61 | 92242 | 105952
8 | 23:32.53 | 1:35.45 | 105953 | 113122
9 | 25:08.23 | 2:29.13 | 113123 | 124310
10 | 27:37.36 | 2:25.39 | 124311 | 135224
11 | 30:03.00 | 2:30.63 | 135225 | 146537
12 | 32:33.63 | 1:32.21 | 146538 | 153458
13 | 34:06.09 | 2:51.31 | 153459 | 166314
14 | 36:57.40 | 3:29.18 | 166315 | 182007
15 | 40:26.58 | 12:01.63 | 182008 | 236145
16 | 52:28.46 | 3:27.06 | 236146 | 251676

Характеристики диапазона извлечения и сообщения об ошибках

Выбранный диапазон

Имя файла D:МузыкаГражданская Оборона - Апельсин. Электричество (Выргород, 2010) 2CDГражданская Оборона - Апельсин. Электричество CD2.wav

Пиковый уровень 97.7 %
Скорость извлечения 5.9 X
Качество диапазона 100.0 %
CRC теста E701D738
CRC копии E701D738
Копирование... OK

Ошибок не произошло

AccurateRip: сводка
Трек 1 : извлечено точно (доверие 4) [387EF63C] (AR v2)
Трек 2 : извлечено точно (доверие 4) [2E1DFEBD] (AR v2)
Трек 3 : извлечено точно (доверие 4) [99470E0F] (AR v2)
Трек 4 : извлечено точно (доверие 4) [1A4C006B] (AR v2)
Трек 5 : извлечено точно (доверие 4) [696777EC] (AR v2)
Трек 6 : извлечено точно (доверие 4) [A890CA7F] (AR v2)
Трек 7 : извлечено точно (доверие 4) [E3620A33] (AR v2)
Трек 8 : извлечено точно (доверие 4) [0B1B4825] (AR v2)
Трек 9 : извлечено точно (доверие 4) [862216C1] (AR v2)
Трек 10 : извлечено точно (доверие 4) [ACA0877D] (AR v2)
Трек 11 : извлечено точно (доверие 4) [4E28F268] (AR v2)
Трек 12 : извлечено точно (доверие 4) [12870932] (AR v2)
Трек 13 : извлечено точно (доверие 4) [44B84386] (AR v2)
Трек 14 : извлечено точно (доверие 4) [4082C6AD] (AR v2)
Трек 15 : извлечено точно (доверие 4) [26235024] (AR v2)
Трек 16 : извлечено точно (доверие 4) [C48B8DEC] (AR v2)
Все треки извлечены точно

Конец отчёта

---- CUETools DB Plugin V2.1.6

[CTDB TOCID: cdMOzB_BnXAi2OnyUjhBP9SQ61E-] found
Submit result: cdMOzB_BnXAi2OnyUjhBP9SQ61E- has been confirmed
Track | CTDB Status
1 | (11/11) Accurately ripped
2 | (11/11) Accurately ripped
3 | (11/11) Accurately ripped
4 | (11/11) Accurately ripped
5 | (11/11) Accurately ripped
6 | (11/11) Accurately ripped
7 | (11/11) Accurately ripped
8 | (11/11) Accurately ripped
9 | (11/11) Accurately ripped
10 | (11/11) Accurately ripped
11 | (11/11) Accurately ripped
12 | (11/11) Accurately ripped
13 | (11/11) Accurately ripped
14 | (11/11) Accurately ripped
15 | (11/11) Accurately ripped
16 | (10/11) Accurately ripped

==== Контрольная сумма отчёта EDB1C15A3B9323A0280BF4D568D0AD34392038BC0839D03058DEBB46A5474BBC ====
REM GENRE "Punk Rock" 
REM DATE 2010
REM DISCID F80C6F12
REM COMMENT "ExactAudioCopy v1.3"
PERFORMER "Гражданская Оборона"
TITLE "Апельсин. Электричество CD1"
REM COMPOSER ""
FILE "Гражданская Оборона - Апельсин. Электричество CD1.flac" WAVE
TRACK 01 AUDIO
TITLE "Нечего терять"
PERFORMER "Гражданская Оборона"
REM COMPOSER ""
INDEX 01 00:00:00
TRACK 02 AUDIO
TITLE "Евангелие"
PERFORMER "Гражданская Оборона"
REM COMPOSER ""
INDEX 01 03:19:13
TRACK 03 AUDIO
TITLE "Кого-то ещё"
PERFORMER "Гражданская Оборона"
REM COMPOSER ""
INDEX 01 05:58:62
TRACK 04 AUDIO
TITLE "Небо как кофе"
PERFORMER "Гражданская Оборона"
REM COMPOSER ""
INDEX 01 08:25:56
TRACK 05 AUDIO
TITLE "Некрофилия"
PERFORMER "Гражданская Оборона"
REM COMPOSER ""
INDEX 01 11:01:33
TRACK 06 AUDIO
TITLE "Привыкать"
PERFORMER "Гражданская Оборона"
REM COMPOSER ""
INDEX 01 13:11:71
TRACK 07 AUDIO
TITLE "Попс"
PERFORMER "Гражданская Оборона"
REM COMPOSER ""
INDEX 01 16:21:43
TRACK 08 AUDIO
TITLE "Сияние"
PERFORMER "Гражданская Оборона"
REM COMPOSER ""
INDEX 01 18:39:05
TRACK 09 AUDIO
TITLE "Насрать на моё лицо"
PERFORMER "Гражданская Оборона"
REM COMPOSER ""
INDEX 01 21:00:09
TRACK 10 AUDIO
TITLE "Долгая счастливая жизнь"
PERFORMER "Гражданская Оборона"
REM COMPOSER ""
INDEX 01 24:07:29
TRACK 11 AUDIO
TITLE "Поздно"
PERFORMER "Гражданская Оборона"
REM COMPOSER ""
INDEX 01 28:37:64
TRACK 12 AUDIO
TITLE "Офелия"
PERFORMER "Гражданская Оборона"
REM COMPOSER ""
INDEX 01 31:16:30
TRACK 13 AUDIO
TITLE "Система"
PERFORMER "Гражданская Оборона"
REM COMPOSER ""
INDEX 01 34:41:46
TRACK 14 AUDIO
TITLE "Любо"
PERFORMER "Гражданская Оборона"
REM COMPOSER ""
INDEX 01 37:19:74
TRACK 15 AUDIO
TITLE "Он увидел солнце"
PERFORMER "Гражданская Оборона"
REM COMPOSER ""
INDEX 01 40:02:35
TRACK 16 AUDIO
TITLE "Реанимация"
PERFORMER "Гражданская Оборона"
REM COMPOSER ""
INDEX 01 42:38:45
TRACK 17 AUDIO
TITLE "Мёртвые"
PERFORMER "Гражданская Оборона"
REM COMPOSER ""
INDEX 01 46:36:45
TRACK 18 AUDIO
TITLE "Простор открыт"
PERFORMER "Гражданская Оборона"
REM COMPOSER ""
INDEX 01 48:55:61

REM GENRE "Punk Rock"
REM DATE 2010
REM DISCID CB0D1B10
REM COMMENT "ExactAudioCopy v1.3"
PERFORMER "Гражданская Оборона"
TITLE "Апельсин. Электричество CD2"
REM COMPOSER ""
FILE "Гражданская Оборона - Апельсин. Электричество CD2.flac" WAVE
TRACK 01 AUDIO
TITLE "Собаки"
PERFORMER "Гражданская Оборона"
REM COMPOSER ""
INDEX 01 00:00:00
TRACK 02 AUDIO
TITLE "Наваждение"
PERFORMER "Гражданская Оборона"
REM COMPOSER ""
INDEX 01 04:27:54
TRACK 03 AUDIO
TITLE "Всё как у людей"
PERFORMER "Гражданская Оборона"
REM COMPOSER ""
INDEX 01 07:05:30
TRACK 04 AUDIO
TITLE "Со скоростью мира"
PERFORMER "Гражданская Оборона"
REM COMPOSER ""
INDEX 01 10:58:14
TRACK 05 AUDIO
TITLE "Про дурачка"
PERFORMER "Гражданская Оборона"
REM COMPOSER ""
INDEX 01 13:24:72
TRACK 06 AUDIO
TITLE "Тошнота"
PERFORMER "Гражданская Оборона"
REM COMPOSER ""
INDEX 01 18:02:01
TRACK 07 AUDIO
TITLE "Самоотвод"
PERFORMER "Гражданская Оборона"
REM COMPOSER ""
INDEX 01 20:29:67
TRACK 08 AUDIO
TITLE "Бери шинель"
PERFORMER "Гражданская Оборона"
REM COMPOSER ""
INDEX 01 23:32:53
TRACK 09 AUDIO
TITLE "Свобода"
PERFORMER "Гражданская Оборона"
REM COMPOSER ""
INDEX 01 25:08:23
TRACK 10 AUDIO
TITLE "Моя оборона"
PERFORMER "Гражданская Оборона"
REM COMPOSER ""
INDEX 01 27:37:36
TRACK 11 AUDIO
TITLE "Винтовка - это праздник"
PERFORMER "Гражданская Оборона"
REM COMPOSER ""
INDEX 01 30:03:00
TRACK 12 AUDIO
TITLE "Мышеловка"
PERFORMER "Гражданская Оборона"
REM COMPOSER ""
INDEX 01 32:33:63
TRACK 13 AUDIO
TITLE "Зоопарк"
PERFORMER "Гражданская Оборона"
REM COMPOSER ""
INDEX 01 34:06:09
TRACK 14 AUDIO
TITLE "Слава психонавтам"
PERFORMER "Гражданская Оборона"
REM COMPOSER ""
INDEX 01 36:57:40
TRACK 15 AUDIO
TITLE "Русское поле экспериментов"
PERFORMER "Гражданская Оборона"
REM COMPOSER ""
INDEX 01 40:26:58
TRACK 16 AUDIO
TITLE "Песня барсука"
PERFORMER "Гражданская Оборона"
REM COMPOSER ""
INDEX 01 52:28:46
info [Профиль]  [ЛС] 
Показать сообщения:    
Ответить на тему

Текущее время: 21-Окт 09:21

Часовой пояс: GMT + 4



Вы не можете начинать темы
Вы не можете отвечать на сообщения
Вы не можете редактировать свои сообщения
Вы не можете удалять свои сообщения
Вы не можете голосовать в опросах
Вы не можете прикреплять файлы к сообщениям
Вы не можете скачивать файлы