Ошибка

Семнадцать мгновений весны (Татьяна Лиознова) (12 серий из 12) [1973 г., драма, военный, DVDRip]

Ответить на тему
 
Автор Сообщение

malder

Стаж: 7 лет 10 месяцев

Сообщений: 259

Барбадос
Рейтинг

post 26-Фев-2019 20:30 1[+]

[Цитировать] 

Семнадцать мгновений весны


Год выпуска: 1973
Жанр: драма, военный
Продолжительность: 12 x ~ 01:10:22
Выпущено: СССР, Киностудия им. М. Горького
Перевод: Оригинальный
Режиссер:
Татьяна Лиознова
В ролях:
Вячеслав Тихонов, Леонид Броневой, Евгений Евстигнеев, Олег Табаков, Ростислав Плятт, Екатерина Градова, Ольга Сошникова, Отто Мелиес, Николай Прокопович, Николай Гриценко, Юрий Визбор, Вячеслав Шалевич, Леонид Куравлёв, Валентин Гафт, Инна Ульянова, Светлана Светличная, Валентин Белоногов, Лев Дуров, Константин Желдин, Андро Кобаладзе, Василий Лановой, Элеонора Шашкова, Алексей Эйбоженко ст.
Описание: Легендарный телесериал, являющий собой лучший образец классики советского кинематографа. По воспоминаниям очевидцев, во время трансляции картины города и села страны казались вымершими – так глубоко затянуло людей происходящее на голубом экране. Место действия – фашистская Германия. Время действия – конец зимы – начало весны 1945 года. Главный герой - советский разведчик Максим Максимович Исаев, внедренный в центральный аппарат СД под именем штандартенфюрера Макса Отто фон Штирлица с целью выяснения обстоятельств предстоящих секретных переговоров представителей высшего звена Рейха о перемирии с Великобританией и США. В этом фильме мы не увидим поля боя в его обычном представлении, здесь на первый план выходит интеллектуальная битва умов, результат которой способен изменить расстановку сил во Второй мировой войне. Картина буквально пронизана тоской героя по Родине, что очень трогательно подчеркивает музыкальный фон, созданный самим Микаэлом Таривердиевым. Альянс режиссера Татьяны Лиозновой, писателя Юлиана Семенова и, безусловно, самых блистательных актеров того времени привел к созданию картины на все времена, а сам образ Штирлица, русского разведчика с блестящим умом и чутким сердцем, стал легендой для многих поколений зрителей.

Качество: DVDRip
Формат: AVI
Видео кодек: XviD
Аудио кодек: MP3
Видео: 720x432, 1326 Kbps, 25.000 fps
Аудио: 2 ch, 48.0 KHz, 132 Kbps [RUS]


Код:

General
Complete name                  : D:\Kino D\17_Мгновений Весны\06.avi
Format                         : AVI
Format/Info                    : Audio Video Interleave
File size                      : 754 MiB
Duration                       : 1h 12mn
Overall bit rate mode          : Variable
Overall bit rate               : 1 458 Kbps
Writing application            : VirtualDubMod 1.5.10.2 (build 2540/release)
Writing library                : VirtualDubMod build 2540/release

Video
ID                             : 0
Format                         : MPEG-4 Visual
Format profile                 : Advanced Simple@L5
Format settings, BVOP          : 2
Format settings, QPel          : No
Format settings, GMC           : No warppoints
Format settings, Matrix        : Default (H.263)
Muxing mode                    : Packed bitstream
Codec ID                       : XVID
Codec ID/Hint                  : XviD
Duration                       : 1h 12mn
Bit rate                       : 1 314 Kbps
Width                          : 720 pixels
Height                         : 432 pixels
Display aspect ratio           : 16:9
Frame rate                     : 25.000 fps
Color space                    : YUV
Chroma subsampling             : 4:2:0
Bit depth                      : 8 bits
Scan type                      : Progressive
Compression mode               : Lossy
Bits/(Pixel*Frame)             : 0.169
Stream size                    : 679 MiB (90%)
Writing library                : XviD 1.2.1 (UTC 2008-12-04)

Audio
ID                             : 1
Format                         : MPEG Audio
Format version                 : Version 1
Format profile                 : Layer 3
Mode                           : Joint stereo
Mode extension                 : MS Stereo
Codec ID                       : 55
Codec ID/Hint                  : MP3
Duration                       : 1h 12mn
Bit rate mode                  : Variable
Bit rate                       : 131 Kbps
Minimum bit rate               : 32.0 Kbps
Channel(s)                     : 2 channels
Sampling rate                  : 48.0 KHz
Compression mode               : Lossy
Stream size                    : 67.8 MiB (9%)
Alignment                      : Aligned on interleaves
Interleave, duration           : 24 ms (0.60 video frame)
Interleave, preload duration   : 140 ms
Writing library                : LAME3.98r
Encoding settings              : -m j -V 5 -q 2 -lowpass 16.5 --vbr-new -b 32
info [Профиль]  [ЛС] 

Bzyk1

Пол: Пол:Муж

Стаж: 9 лет 3 месяца

Сообщений: 55

Россия
Рейтинг

post 27-Фев-2019 01:29 (спустя 4 часа) [-]0[+]

[Цитировать] 

Нет ну ты посмотри, только подумал об этом сериале, зашел на тапки и он тут, намек ясен пересмотреть однозначно, качать не буду засмотрю онлайн, но за то что выложил респект!!!
info [Профиль]  [ЛС] 

Vavle2010

Пол: Пол:Муж

Стаж: 6 лет 10 месяцев

Сообщений: 225

США
Рейтинг

post 27-Фев-2019 14:47 (спустя 13 часов) [-]0[+]

[Цитировать] 

Это раздача с рутрекера, где очень бережно склеены черно белые эпизоды с цветным вариантом?

_________________
info [Профиль]  [ЛС] 

malder

Стаж: 7 лет 10 месяцев

Сообщений: 259

Барбадос
Рейтинг

post 27-Фев-2019 18:06 (спустя 3 часа) [-]0[+]

[Цитировать] 

Vavle2010 писал(а):

Это раздача с рутрекера, где очень бережно склеены черно белые эпизоды с цветным вариантом?
нет не с рутрекера
info [Профиль]  [ЛС] 
Показать сообщения:    
Ответить на тему

Текущее время: 27-Май 04:28

Часовой пояс: GMT + 4



Вы не можете начинать темы
Вы не можете отвечать на сообщения
Вы не можете редактировать свои сообщения
Вы не можете удалять свои сообщения
Вы не можете голосовать в опросах
Вы не можете прикреплять файлы к сообщениям
Вы не можете скачивать файлы