Ошибка

(Score) Спасти рядового Райана / Saving Private Ryan (by John Williams) - 1998 г., FLAC (tracks), lossless

Ответить на тему
 
Автор Сообщение

Hobbit38

Пол: Пол:Муж

Стаж: 4 года 7 месяцев

Сообщений: 761

Предупреждений: 1

Россия
Рейтинг

post 23-Ноя-2018 17:54 0[+]

[Цитировать] 


Спасти рядового Райана / Saving Private Ryan
Music from the Original Motion Picture Soundtrack

Жанр: Score | Год выпуска диска: 1998 | Композитор: John Williams

Страна-производитель диска: USA | Издатель (лейбл): Dreamworks

Аудио кодек: FLAC (.flac) | Тип рипа: tracks | Битрейт аудио: lossless

Полиграфия: Отсутствует | Продолжительность: 01:04:13

01. Hymn To The Fallen (06:10)
02. Revisiting Normandy (04:06)
03. Omaha Beach (09:15)
04. Finding Private Ryan (04:37)
05. Approaching The Enemy (04:31)
06. Defense Preparations (05:54)
07. Wade's Death (04:30)
08. High School Teacher (11:03)
09. The Last Battle (07:57)
10. Hymn To The Fallen (Reprise) (06:10)
 
X Lossless Decoder version 20090320 (105.1)
XLD extraction logfile from 2009-05-20 23:19:28 -0500
John Williams / Saving Private Ryan
Used drive : PIONEER DVD-RW DVR-112D (revision 1.21)
Use cdparanoia mode : YES (CDParanoia III 10.2 engine)
Disable audio cache : OK for the drive with cache less than 2750KB
Make use of C2 pointers : NO
Read offset correction : 48
Max retry count : 100
TOC of the extracted CD
Track | Start | Length | Start sector | End sector
---------------------------------------------------------
1 | 00:00:00 | 06:10:20 | 0 | 27769
2 | 06:10:20 | 04:05:40 | 27770 | 46184
3 | 10:15:60 | 09:15:10 | 46185 | 87819
4 | 19:30:70 | 04:37:30 | 87820 | 108624
5 | 24:08:25 | 04:30:40 | 108625 | 128914
6 | 28:38:65 | 05:54:20 | 128915 | 155484
7 | 34:33:10 | 04:30:27 | 155485 | 175761
8 | 39:03:37 | 11:02:53 | 175762 | 225464
9 | 50:06:15 | 07:56:72 | 225465 | 261236
10 | 58:03:12 | 06:10:15 | 261237 | 289001
List of alternate offset correction values
# | Absolute | Relative | Confidence
------------------------------------------
1 | 490 | 442 | 5
Track 01
Filename : /Volumes/Romulus/Filesharing/New Rips/01 - Hymn To The Fallen.flac
CRC32 hash (test run) : 842138BC
CRC32 hash : 842138BC
CRC32 hash (skip zero) : 5C4EE14A
AccurateRip signature : 35982D94
->Accurately ripped! (confidence 6)
Statistics
Read error : 0
Skipped (treated as error) : 0
Edge jitter error (maybe fixed) : 0
Atom jitter error (maybe fixed) : 0
Drift error (maybe fixed) : 0
Dropped bytes error (maybe fixed) : 0
Duplicated bytes error (maybe fixed) : 0
Inconsistency in error sectors : 0
Track 02
Filename : /Volumes/Romulus/Filesharing/New Rips/02 - Revisiting Normandy.flac
CRC32 hash (test run) : 5DABCAEA
CRC32 hash : 5DABCAEA
CRC32 hash (skip zero) : 955C839E
AccurateRip signature : 0E6FE506
->Accurately ripped! (confidence 6)
Statistics
Read error : 0
Skipped (treated as error) : 0
Edge jitter error (maybe fixed) : 0
Atom jitter error (maybe fixed) : 0
Drift error (maybe fixed) : 0
Dropped bytes error (maybe fixed) : 0
Duplicated bytes error (maybe fixed) : 0
Inconsistency in error sectors : 0
Track 03
Filename : /Volumes/Romulus/Filesharing/New Rips/03 - Omaha Beach.flac
CRC32 hash (test run) : 69382774
CRC32 hash : 69382774
CRC32 hash (skip zero) : 998028A9
AccurateRip signature : CCB64FDC
->Accurately ripped! (confidence 6)
Statistics
Read error : 0
Skipped (treated as error) : 0
Edge jitter error (maybe fixed) : 0
Atom jitter error (maybe fixed) : 0
Drift error (maybe fixed) : 0
Dropped bytes error (maybe fixed) : 0
Duplicated bytes error (maybe fixed) : 0
Inconsistency in error sectors : 0
Track 04
Filename : /Volumes/Romulus/Filesharing/New Rips/04 - Finding Private Ryan.flac
CRC32 hash (test run) : 7767ED70
CRC32 hash : 7767ED70
CRC32 hash (skip zero) : 1BEC6C43
AccurateRip signature : 865C5DB2
->Accurately ripped! (confidence 6)
Statistics
Read error : 0
Skipped (treated as error) : 0
Edge jitter error (maybe fixed) : 0
Atom jitter error (maybe fixed) : 0
Drift error (maybe fixed) : 0
Dropped bytes error (maybe fixed) : 0
Duplicated bytes error (maybe fixed) : 0
Inconsistency in error sectors : 0
Track 05
Filename : /Volumes/Romulus/Filesharing/New Rips/05 - Approaching The Enemy.flac
CRC32 hash (test run) : 52E6F89A
CRC32 hash : 52E6F89A
CRC32 hash (skip zero) : D83E9729
AccurateRip signature : FAEF41A4
->Accurately ripped! (confidence 6)
Statistics
Read error : 0
Skipped (treated as error) : 0
Edge jitter error (maybe fixed) : 0
Atom jitter error (maybe fixed) : 0
Drift error (maybe fixed) : 0
Dropped bytes error (maybe fixed) : 0
Duplicated bytes error (maybe fixed) : 0
Inconsistency in error sectors : 0
Track 06
Filename : /Volumes/Romulus/Filesharing/New Rips/06 - Defense Preparations.flac
CRC32 hash (test run) : 68F2EB24
CRC32 hash : 68F2EB24
CRC32 hash (skip zero) : F8943939
AccurateRip signature : F05C85C5
->Accurately ripped! (confidence 6)
Statistics
Read error : 0
Skipped (treated as error) : 0
Edge jitter error (maybe fixed) : 0
Atom jitter error (maybe fixed) : 0
Drift error (maybe fixed) : 0
Dropped bytes error (maybe fixed) : 0
Duplicated bytes error (maybe fixed) : 0
Inconsistency in error sectors : 0
Track 07
Filename : /Volumes/Romulus/Filesharing/New Rips/07 - Wade's Death.flac
CRC32 hash (test run) : 7D0052A5
CRC32 hash : 7D0052A5
CRC32 hash (skip zero) : 4F8875F0
AccurateRip signature : CF37C150
->Accurately ripped! (confidence 6)
Statistics
Read error : 0
Skipped (treated as error) : 0
Edge jitter error (maybe fixed) : 0
Atom jitter error (maybe fixed) : 0
Drift error (maybe fixed) : 0
Dropped bytes error (maybe fixed) : 0
Duplicated bytes error (maybe fixed) : 0
Inconsistency in error sectors : 0
Track 08
Filename : /Volumes/Romulus/Filesharing/New Rips/08 - High School Teacher.flac
CRC32 hash (test run) : AF0C8EE7
CRC32 hash : AF0C8EE7
CRC32 hash (skip zero) : 4F0333DA
AccurateRip signature : 87231C1B
->Accurately ripped! (confidence 6)
Statistics
Read error : 0
Skipped (treated as error) : 0
Edge jitter error (maybe fixed) : 0
Atom jitter error (maybe fixed) : 0
Drift error (maybe fixed) : 0
Dropped bytes error (maybe fixed) : 0
Duplicated bytes error (maybe fixed) : 0
Inconsistency in error sectors : 0
Track 09
Filename : /Volumes/Romulus/Filesharing/New Rips/09 - The Last Battle.flac
CRC32 hash (test run) : 396474F7
CRC32 hash : 396474F7
CRC32 hash (skip zero) : 747DF9E3
AccurateRip signature : 63F43ED3
->Accurately ripped! (confidence 6)
Statistics
Read error : 0
Skipped (treated as error) : 0
Edge jitter error (maybe fixed) : 0
Atom jitter error (maybe fixed) : 0
Drift error (maybe fixed) : 0
Dropped bytes error (maybe fixed) : 0
Duplicated bytes error (maybe fixed) : 0
Inconsistency in error sectors : 0
Track 10
Filename : /Volumes/Romulus/Filesharing/New Rips/10 - Hymn To The Fallen.flac
CRC32 hash (test run) : DC3272A3
CRC32 hash : DC3272A3
CRC32 hash (skip zero) : A01326C3
AccurateRip signature : 8D1A03E4
->Accurately ripped! (confidence 6)
Statistics
Read error : 0
Skipped (treated as error) : 0
Edge jitter error (maybe fixed) : 0
Atom jitter error (maybe fixed) : 0
Drift error (maybe fixed) : 0
Dropped bytes error (maybe fixed) : 0
Duplicated bytes error (maybe fixed) : 0
Inconsistency in error sectors : 0
No errors occurred
End of status report

info [Профиль]  [ЛС] 
Показать сообщения:    
Ответить на тему

Текущее время: 14-Дек 15:38

Часовой пояс: GMT + 4



Вы не можете начинать темы
Вы не можете отвечать на сообщения
Вы не можете редактировать свои сообщения
Вы не можете удалять свои сообщения
Вы не можете голосовать в опросах
Вы не можете прикреплять файлы к сообщениям
Вы не можете скачивать файлы