Ошибка

(Score, Soundtrack) Silent Hill Soundtrack Collection (by Akira Yamaoka, Daniel Licht) (11 CD) - 2011-2017 г., FLAC (tracks), lossless

Ответить на тему
 
Автор Сообщение

Hobbit38

Пол: Пол:Муж

Стаж: 4 года 7 месяцев

Сообщений: 761

Предупреждений: 1

Россия
Рейтинг

post 21-Ноя-2018 10:10 0[+]

[Цитировать] 


Silent Hill Soundtrack Collection
Жанр: Score, Soundtrack | Композиторы: Akira Yamaoka, Daniel Licht

Год выпуска диска: 2011-2017 | Страна-производитель диска: Japan, USA

Аудио кодек: FLAC (.flac) | Тип рипа: tracks | Битрейт аудио: lossless

Полиграфия: Отсутствует | Продолжительность: 12:08:33

Жанр: Score
Композитор: Akira Yamaoka
Год выпуска диска: Mar 16, 2011
Страна-производитель диска: Japan
Издатель (лейбл): Konami Digital Entertainment
Номер каталога: GFCA-243~51
Продолжительность: 09:05:50

01. Silent Hill (2:51)
02. All (2:07)
03. The Wait (0:09)
04. Until Death (0:51)
05. Over (2:04)
06. Devil's Lyric (1:26)
07. Rising Sun (0:57)
08. For All (2:39)
09. Follow The Leader (0:52)
10. Claw Finger (1:32)
11. Hear Nothing (1:33)
12. Children Kill (0:19)
13. Killed By Death (1:25)
14. Don't Cry (1:29)
15. The Bitter Season (1:26)
16. Moonchild (2:48)
17. Never Again (0:45)
18. Fear Of The Dark (1:13)
19. Half Day (0:39)
20. Heaven Give Me Say (1:47)
21. Far (1:14)
22. I'll Kill You (2:52)
23. My Justice For You (1:21)
24. Devil's Lyric 2 (0:25)
25. Dead End (0:17)
26. Ain't Gonna Rain (1:12)
27. Nothing Else (0:51)
28. Alive (0:33)
29. Never Again (1:01)
30. Die (0:56)
31. Never End, Never End, Never End (0:46)
32. Down Time (1:38)
33. Kill Angels (1:16)
34. Only You (1:16)
35. Not Tomorrow 1 (0:48)
36. Not Tomorrow 2 (1:38)
37. My Heaven (3:17)
38. Tears Of... (3:16)
39. Killing Time (2:54)
40. She (2:36)
41. Silent Hill (Otherside) (6:23)
 
Exact Audio Copy V0.99 prebeta 5 from 4. May 2009

EAC extraction logfile from 9. April 2011, 18:55

Akira Yamaoka / CD1 - Silent Hill

Used drive : PLEXTOR DVDR PX-880SA Adapter: 3 ID: 1

Read mode : Secure
Utilize accurate stream : Yes
Defeat audio cache : Yes
Make use of C2 pointers : No

Read offset correction : 6
Overread into Lead-In and Lead-Out : No
Fill up missing offset samples with silence : Yes
Delete leading and trailing silent blocks : No
Null samples used in CRC calculations : Yes
Used interface : Native Win32 interface for Win NT & 2000

Used output format : User Defined Encoder
Selected bitrate : 128 kBit/s
Quality : High
Add ID3 tag : No
Command line compressor : C:\Program Files (x86)\Exact Audio Copy\Flac\flac.exe
Additional command line options : -T "DATE=%y" -T "GENRE=%m" -8 -V %s

TOC of the extracted CD

Track | Start | Length | Start sector | End sector
---------------------------------------------------------
1 | 0:00.00 | 2:51.05 | 0 | 12829
2 | 2:51.05 | 2:07.70 | 12830 | 22424
3 | 4:59.00 | 0:09.17 | 22425 | 23116
4 | 5:08.17 | 0:51.48 | 23117 | 26989
5 | 5:59.65 | 2:04.30 | 26990 | 36319
6 | 8:04.20 | 1:26.70 | 36320 | 42839
7 | 9:31.15 | 0:57.17 | 42840 | 47131
8 | 10:28.32 | 2:39.68 | 47132 | 59124
9 | 13:08.25 | 0:52.50 | 59125 | 63074
10 | 14:01.00 | 1:32.52 | 63075 | 70026
11 | 15:33.52 | 1:33.35 | 70027 | 77036
12 | 17:07.12 | 0:19.05 | 77037 | 78466
13 | 17:26.17 | 1:25.13 | 78467 | 84854
14 | 18:51.30 | 1:29.00 | 84855 | 91529
15 | 20:20.30 | 1:26.10 | 91530 | 97989
16 | 21:46.40 | 2:48.42 | 97990 | 110631
17 | 24:35.07 | 0:45.30 | 110632 | 114036
18 | 25:20.37 | 1:13.40 | 114037 | 119551
19 | 26:34.02 | 0:39.23 | 119552 | 122499
20 | 27:13.25 | 1:47.65 | 122500 | 130589
21 | 29:01.15 | 1:14.60 | 130590 | 136199
22 | 30:16.00 | 2:52.57 | 136200 | 149156
23 | 33:08.57 | 1:21.13 | 149157 | 155244
24 | 34:29.70 | 0:25.17 | 155245 | 157136
25 | 34:55.12 | 0:17.58 | 157137 | 158469
26 | 35:12.70 | 1:12.10 | 158470 | 163879
27 | 36:25.05 | 0:51.22 | 163880 | 167726
28 | 37:16.27 | 0:33.10 | 167727 | 170211
29 | 37:49.37 | 1:01.63 | 170212 | 174849
30 | 38:51.25 | 0:56.30 | 174850 | 179079
31 | 39:47.55 | 0:46.57 | 179080 | 182586
32 | 40:34.37 | 1:38.28 | 182587 | 189964
33 | 42:12.65 | 1:16.65 | 189965 | 195729
34 | 43:29.55 | 1:16.57 | 195730 | 201486
35 | 44:46.37 | 0:48.05 | 201487 | 205091
36 | 45:34.42 | 1:38.63 | 205092 | 212504
37 | 47:13.30 | 3:17.45 | 212505 | 227324
38 | 50:31.00 | 3:16.02 | 227325 | 242026
39 | 53:47.02 | 2:54.33 | 242027 | 255109
40 | 56:41.35 | 2:34.60 | 255110 | 266719
41 | 59:16.20 | 6:23.07 | 266720 | 295451

Range status and errors

Selected range

Filename D:\CD1 - Silent Hill\Akira Yamaoka - CD1 - Silent Hill.wav

Peak level 98.8 %
Range quality 100.0 %
Test CRC 268B18E5
Copy CRC 268B18E5
Copy OK

No errors occurred

AccurateRip summary

Track 1 not present in database
Track 2 not present in database
Track 3 not present in database
Track 4 not present in database
Track 5 not present in database
Track 6 not present in database
Track 7 not present in database
Track 8 not present in database
Track 9 not present in database
Track 10 not present in database
Track 11 not present in database
Track 12 not present in database
Track 13 not present in database
Track 14 not present in database
Track 15 not present in database
Track 16 not present in database
Track 17 not present in database
Track 18 not present in database
Track 19 not present in database
Track 20 not present in database
Track 21 not present in database
Track 22 not present in database
Track 23 not present in database
Track 24 not present in database
Track 25 not present in database
Track 26 not present in database
Track 27 not present in database
Track 28 not present in database
Track 29 not present in database
Track 30 not present in database
Track 31 not present in database
Track 32 not present in database
Track 33 not present in database
Track 34 not present in database
Track 35 not present in database
Track 36 not present in database
Track 37 not present in database
Track 38 not present in database
Track 39 not present in database
Track 40 not present in database
Track 41 not present in database

None of the tracks are present in the AccurateRip database

End of status report
01. Theme of Laura (03:24)
02. White Noiz (01:23)
03. Forest (01:43)
04. A World Of Madness (01:47)
05. Ordinary Vanity (01:39)
06. Promise (Reprise) (01:44)
07. Ashes And Ghost (03:08)
08. Null Moon (02:50)
09. Heaven's Night (02:04)
10. Alone In The Town (02:19)
11. The Darkness That Lurks In Our Mind (01:15)
12. Angel's Thanatos (03:17)
13. The Day Of Night (01:37)
14. Block Mind (01:12)
15. Magdalene (01:52)
16. Fermata In Mistic Air (02:16)
17. Prisonic Fairytale (01:54)
18. Love Psalm (04:26)
19. Silent Heaven (02:13)
20. Noone Love You (01:32)
21. The Reverse Will (03:33)
22. Laura Plays The Piano (01:55)
23. Terror In The Depths Of The Fog (04:31)
24. True (03:06)
25. Betrayal (02:30)
26. Black Fairy (01:12)
27. Theme Of Laura (Reprise) (01:51)
28. Overdose Delusion (04:31)
29. Pianissimo Epilogue (01:37)
30. Promise (04:39)
 
Exact Audio Copy V0.99 prebeta 5 from 4. May 2009

EAC extraction logfile from 29. March 2011, 21:11

Akira Yamaoka / CD 2 - Silent Hill 2

Used drive : PLEXTOR DVDR PX-880SA Adapter: 3 ID: 1

Read mode : Secure
Utilize accurate stream : Yes
Defeat audio cache : Yes
Make use of C2 pointers : No

Read offset correction : 6
Overread into Lead-In and Lead-Out : No
Fill up missing offset samples with silence : Yes
Delete leading and trailing silent blocks : No
Null samples used in CRC calculations : Yes
Used interface : Native Win32 interface for Win NT & 2000

Used output format : User Defined Encoder
Selected bitrate : 128 kBit/s
Quality : High
Add ID3 tag : No
Command line compressor : C:\Program Files (x86)\Exact Audio Copy\Flac\flac.exe
Additional command line options : -T "DATE=%y" -T "GENRE=%m" -8 -V %s

TOC of the extracted CD

Track | Start | Length | Start sector | End sector
---------------------------------------------------------
1 | 0:00.00 | 3:24.25 | 0 | 15324
2 | 3:24.25 | 1:23.67 | 15325 | 21616
3 | 4:48.17 | 1:43.48 | 21617 | 29389
4 | 6:31.65 | 1:47.12 | 29390 | 37426
5 | 8:19.02 | 1:39.60 | 37427 | 44911
6 | 9:58.62 | 1:44.73 | 44912 | 52784
7 | 11:43.60 | 3:08.12 | 52785 | 66896
8 | 14:51.72 | 2:50.23 | 66897 | 79669
9 | 17:42.20 | 2:04.52 | 79670 | 89021
10 | 19:46.72 | 2:19.40 | 89022 | 99486
11 | 22:06.37 | 1:15.73 | 99487 | 105184
12 | 23:22.35 | 3:17.70 | 105185 | 120029
13 | 26:40.30 | 1:37.32 | 120030 | 127336
14 | 28:17.62 | 1:12.28 | 127337 | 132764
15 | 29:30.15 | 1:52.62 | 132765 | 141226
16 | 31:23.02 | 2:16.58 | 141227 | 151484
17 | 33:39.60 | 1:54.65 | 151485 | 160099
18 | 35:34.50 | 4:26.40 | 160100 | 180089
19 | 40:01.15 | 2:13.60 | 180090 | 190124
20 | 42:15.00 | 1:32.15 | 190125 | 197039
21 | 43:47.15 | 3:33.50 | 197040 | 213064
22 | 47:20.65 | 1:55.00 | 213065 | 221689
23 | 49:15.65 | 4:31.52 | 221690 | 242066
24 | 53:47.42 | 3:06.73 | 242067 | 256089
25 | 56:54.40 | 2:30.30 | 256090 | 267369
26 | 59:24.70 | 1:12.35 | 267370 | 272804
27 | 60:37.30 | 1:51.47 | 272805 | 281176
28 | 62:29.02 | 4:31.45 | 281177 | 301546
29 | 67:00.47 | 1:37.00 | 301547 | 308821
30 | 68:37.47 | 4:39.73 | 308822 | 329819

Range status and errors

Selected range

Filename D:\torrent\Silent Hill Soundtracks\2011 Silent Hill Sounds Box\CD2 - Silent Hill 2\Akira Yamaoka - CD 2 - Silent Hill 2.wav

Peak level 100.0 %
Range quality 100.0 %
Test CRC BF4701BF
Copy CRC BF4701BF
Copy OK

No errors occurred

AccurateRip summary

Track 1 cannot be verified as accurate (confidence 13) [6C367AAC], AccurateRip returned [06BC22D6]
Track 2 cannot be verified as accurate (confidence 13) [D05A9D03], AccurateRip returned [ADCC2304]
Track 3 cannot be verified as accurate (confidence 13) [6F804C87], AccurateRip returned [5BFF02DC]
Track 4 cannot be verified as accurate (confidence 13) [26825F4F], AccurateRip returned [46D26CBC]
Track 5 cannot be verified as accurate (confidence 13) [5F7897F1], AccurateRip returned [FCFA5199]
Track 6 cannot be verified as accurate (confidence 13) [A08C4446], AccurateRip returned [C6D627E6]
Track 7 cannot be verified as accurate (confidence 13) [454B2DFE], AccurateRip returned [C84A1ED8]
Track 8 cannot be verified as accurate (confidence 13) [D6A8ACF0], AccurateRip returned [DD093615]
Track 9 cannot be verified as accurate (confidence 13) [C541C3EE], AccurateRip returned [6333E0E4]
Track 10 cannot be verified as accurate (confidence 13) [67EB7BF8], AccurateRip returned [D2C7553D]
Track 11 cannot be verified as accurate (confidence 13) [DD79319D], AccurateRip returned [219870A0]
Track 12 cannot be verified as accurate (confidence 13) [95855340], AccurateRip returned [120E508B]
Track 13 cannot be verified as accurate (confidence 13) [67B901C9], AccurateRip returned [AF1F8CCB]
Track 14 cannot be verified as accurate (confidence 13) [79FA3DB0], AccurateRip returned [A00F7FAC]
Track 15 cannot be verified as accurate (confidence 13) [FFB88E0C], AccurateRip returned [D8E09C8D]
Track 16 cannot be verified as accurate (confidence 13) [4EF863B9], AccurateRip returned [7FC4D995]
Track 17 cannot be verified as accurate (confidence 13) [976E80AB], AccurateRip returned [2CC86E80]
Track 18 cannot be verified as accurate (confidence 13) [0C475349], AccurateRip returned [53C7969E]
Track 19 cannot be verified as accurate (confidence 13) [25615751], AccurateRip returned [481D6268]
Track 20 cannot be verified as accurate (confidence 13) [D3045511], AccurateRip returned [60F3696A]
Track 21 cannot be verified as accurate (confidence 13) [BB0D8BA9], AccurateRip returned [CBB78509]
Track 22 cannot be verified as accurate (confidence 13) [570EBDAD], AccurateRip returned [28F021D1]
Track 23 cannot be verified as accurate (confidence 13) [2626C82B], AccurateRip returned [9A73ADE5]
Track 24 cannot be verified as accurate (confidence 13) [9E1FAED7], AccurateRip returned [40920F34]
Track 25 cannot be verified as accurate (confidence 13) [0F978E31], AccurateRip returned [B953443D]
Track 26 cannot be verified as accurate (confidence 13) [DA237F25], AccurateRip returned [807445F6]
Track 27 cannot be verified as accurate (confidence 13) [6DF30136], AccurateRip returned [6FA0C008]
Track 28 cannot be verified as accurate (confidence 13) [81A3A9B4], AccurateRip returned [236B90C8]
Track 29 cannot be verified as accurate (confidence 13) [F28D8595], AccurateRip returned [F68816FB]
Track 30 cannot be verified as accurate (confidence 13) [D82E0C1F], AccurateRip returned [9FFFBA05]

No tracks could be verified as accurate
You may have a different pressing from the one(s) in the database

End of status report
01. Lost Carol (00:37)
02. You're Not Here (03:45)
03. Float Up from Dream (01:22)
04. End of Small Sanctuary (01:42)
05. Breeze - in Monochrome Night (04:14)
06. Sickness Unto Foolish Death (03:06)
07. Clockwork Little Happiness (03:24)
08. Please Love Me... Once More (01:54)
09. A Stray Child (05:28)
10. Innocent Moon (01:38)
11. Maternal Heart (03:02)
12. Letter - from The Lost Days (03:54)
13. Dance With Night Wind (05:21)
14. Never Forgive Me, Never Forget Me (02:19)
15. Prayer (01:40)
16. Walk on Vanity Ruins (02:44)
17. I Want Love (02:45)
18. Heads No.2 (01:13)
19. Memory of The Waters (01:46)
20. Rain of Brass Petals (03:39)
21. Flower Crown of Poppy (02:13)
22. Sun (01:47)
23. Uneternal Sleep (01:00)
24. Hometown (06:04)
25. I Want Love (Studio Mix) (04:40)
26. Rain of Brass Petals - Three Voices Edit (05:01)
 
Exact Audio Copy V0.99 prebeta 5 from 4. May 2009

EAC extraction logfile from 29. March 2011, 21:47

Akira Yamaoka / CD3 - Silent Hill 3

Used drive : PLEXTOR DVDR PX-880SA Adapter: 3 ID: 1

Read mode : Secure
Utilize accurate stream : Yes
Defeat audio cache : Yes
Make use of C2 pointers : No

Read offset correction : 6
Overread into Lead-In and Lead-Out : No
Fill up missing offset samples with silence : Yes
Delete leading and trailing silent blocks : No
Null samples used in CRC calculations : Yes
Used interface : Native Win32 interface for Win NT & 2000

Used output format : User Defined Encoder
Selected bitrate : 128 kBit/s
Quality : High
Add ID3 tag : No
Command line compressor : C:\Program Files (x86)\Exact Audio Copy\Flac\flac.exe
Additional command line options : -T "DATE=%y" -T "GENRE=%m" -8 -V %s

TOC of the extracted CD

Track | Start | Length | Start sector | End sector
---------------------------------------------------------
1 | 0:00.00 | 0:37.25 | 0 | 2799
2 | 0:37.25 | 3:45.72 | 2800 | 19746
3 | 4:23.22 | 1:22.10 | 19747 | 25906
4 | 5:45.32 | 1:42.38 | 25907 | 33594
5 | 7:27.70 | 4:14.60 | 33595 | 52704
6 | 11:42.55 | 3:06.27 | 52705 | 66681
7 | 14:49.07 | 3:24.40 | 66682 | 82021
8 | 18:13.47 | 1:54.13 | 82022 | 90584
9 | 20:07.60 | 5:28.67 | 90585 | 115251
10 | 25:36.52 | 1:38.18 | 115252 | 122619
11 | 27:14.70 | 3:02.02 | 122620 | 136271
12 | 30:16.72 | 3:54.63 | 136272 | 153884
13 | 34:11.60 | 5:21.57 | 153885 | 178016
14 | 39:33.42 | 2:19.25 | 178017 | 188466
15 | 41:52.67 | 1:40.58 | 188467 | 196024
16 | 43:33.50 | 2:44.62 | 196025 | 208386
17 | 46:18.37 | 2:45.60 | 208387 | 220821
18 | 49:04.22 | 1:13.35 | 220822 | 226331
19 | 50:17.57 | 1:46.70 | 226332 | 234351
20 | 52:04.52 | 3:39.03 | 234352 | 250779
21 | 55:43.55 | 2:13.50 | 250780 | 260804
22 | 57:57.30 | 1:47.60 | 260805 | 268889
23 | 59:45.15 | 1:00.67 | 268890 | 273456
24 | 60:46.07 | 6:04.63 | 273457 | 300819
25 | 66:50.70 | 4:40.12 | 300820 | 321831
26 | 71:31.07 | 5:01.13 | 321832 | 344419

Range status and errors

Selected range

Filename D:\torrent\Silent Hill Soundtracks\2011 Silent Hill Sounds Box\CD3 - Silent Hill 3\Akira Yamaoka - CD3 - Silent Hill 3.wav

Peak level 99.9 %
Range quality 100.0 %
Test CRC B9C0DD9E
Copy CRC B9C0DD9E
Copy OK

No errors occurred

AccurateRip summary

Track 1 cannot be verified as accurate (confidence 5) [E9934F9B], AccurateRip returned [16BC7949]
Track 2 cannot be verified as accurate (confidence 5) [B1BA4E2E], AccurateRip returned [645180F9]
Track 3 cannot be verified as accurate (confidence 5) [60EC3823], AccurateRip returned [264D665A]
Track 4 cannot be verified as accurate (confidence 5) [FDFE09F1], AccurateRip returned [FD91A37D]
Track 5 cannot be verified as accurate (confidence 5) [4A61A4FD], AccurateRip returned [B7346F09]
Track 6 cannot be verified as accurate (confidence 5) [F8232812], AccurateRip returned [4C461B96]
Track 7 cannot be verified as accurate (confidence 5) [D169DA41], AccurateRip returned [7DE36FC1]
Track 8 cannot be verified as accurate (confidence 5) [9F7E6871], AccurateRip returned [CF8194A4]
Track 9 cannot be verified as accurate (confidence 5) [DEAA07B0], AccurateRip returned [88A79FD8]
Track 10 cannot be verified as accurate (confidence 5) [492D1570], AccurateRip returned [C731B3D5]
Track 11 cannot be verified as accurate (confidence 5) [65C24C29], AccurateRip returned [DE22718D]
Track 12 cannot be verified as accurate (confidence 5) [D387B5E3], AccurateRip returned [5F43957B]
Track 13 cannot be verified as accurate (confidence 5) [C9735FE9], AccurateRip returned [10E95CA1]
Track 14 cannot be verified as accurate (confidence 5) [D9B01F01], AccurateRip returned [0B95AE11]
Track 15 cannot be verified as accurate (confidence 5) [1E9C287D], AccurateRip returned [CCF0E219]
Track 16 cannot be verified as accurate (confidence 5) [3A9E996C], AccurateRip returned [1E1EFC06]
Track 17 cannot be verified as accurate (confidence 5) [D63BAC26], AccurateRip returned [1502FC4C]
Track 18 cannot be verified as accurate (confidence 5) [A53D3F61], AccurateRip returned [3488A2C1]
Track 19 cannot be verified as accurate (confidence 5) [2528625A], AccurateRip returned [28ACD2FC]
Track 20 cannot be verified as accurate (confidence 5) [5D2DC0E9], AccurateRip returned [FAE5145C]
Track 21 cannot be verified as accurate (confidence 5) [D797DBD8], AccurateRip returned [206F2FEE]
Track 22 cannot be verified as accurate (confidence 5) [82CD8C07], AccurateRip returned [FFE2D100]
Track 23 cannot be verified as accurate (confidence 5) [56612F68], AccurateRip returned [F2452C9F]
Track 24 cannot be verified as accurate (confidence 5) [83FABB9D], AccurateRip returned [EA1D03BE]
Track 25 cannot be verified as accurate (confidence 5) [29DD9372], AccurateRip returned [C5EA8861]
Track 26 cannot be verified as accurate (confidence 4) [61AC43A7], AccurateRip returned [CC43C569]

No tracks could be verified as accurate
You may have a different pressing from the one(s) in the database

End of status report
01. Tender Sugar (5:32)
02. Waverer (2:54)
03. Fortunate Sleep - Noone Disturb Her Dead - (2:06)
04. Melancholy Requiem (3:53)
05. Confinement (2:27)
06. Drops Of Shame (2:49)
07. The Suicidal Clock Chime (1:10)
08. Silent Circus (2:55)
09. Traversing The Portals Of Reality (2:03)
10. Into The Depths Of Self Discovery (2:55)
11. Cradel Of Forest (6:30)
12. Resting Comfortably (0:51)
13. Nightmarish Waltz (3:09)
14. Pulsating Ambience (3:04)
15. Your Rain (4:42)
16. The Last Mariachi (1:37)
17. Wounded Warsong (3:12)
18. Underground Dawn - Never Come - (2:12)
19. Fever Chill (2:28)
20. Remodeling (2:54)
21. Room Of Angel (7:08)
22. Waiting For You ~ LIVE AT "Heaven's Night" ~ (unreleased tunes) (6:19)
 
Exact Audio Copy V0.99 prebeta 5 from 4. May 2009

EAC extraction logfile from 29. March 2011, 22:32

Akira Yamaoka / CD4 - Silent Hill 4

Used drive : PLEXTOR DVDR PX-880SA Adapter: 3 ID: 1

Read mode : Secure
Utilize accurate stream : Yes
Defeat audio cache : Yes
Make use of C2 pointers : No

Read offset correction : 6
Overread into Lead-In and Lead-Out : No
Fill up missing offset samples with silence : Yes
Delete leading and trailing silent blocks : No
Null samples used in CRC calculations : Yes
Used interface : Native Win32 interface for Win NT & 2000

Used output format : User Defined Encoder
Selected bitrate : 128 kBit/s
Quality : High
Add ID3 tag : No
Command line compressor : C:\Program Files (x86)\Exact Audio Copy\Flac\flac.exe
Additional command line options : -T "DATE=%y" -T "GENRE=%m" -8 -V %s

TOC of the extracted CD

Track | Start | Length | Start sector | End sector
---------------------------------------------------------
1 | 0:00.00 | 5:32.45 | 0 | 24944
2 | 5:32.45 | 2:54.37 | 24945 | 38031
3 | 8:27.07 | 2:06.73 | 38032 | 47554
4 | 10:34.05 | 3:53.02 | 47555 | 65031
5 | 14:27.07 | 2:27.25 | 65032 | 76081
6 | 16:54.32 | 2:49.13 | 76082 | 88769
7 | 19:43.45 | 1:10.47 | 88770 | 94066
8 | 20:54.17 | 2:55.65 | 94067 | 107256
9 | 23:50.07 | 2:03.40 | 107257 | 116521
10 | 25:53.47 | 2:55.28 | 116522 | 129674
11 | 28:49.00 | 6:30.25 | 129675 | 158949
12 | 35:19.25 | 0:51.15 | 158950 | 162789
13 | 36:10.40 | 3:09.47 | 162790 | 177011
14 | 39:20.12 | 3:04.60 | 177012 | 190871
15 | 42:24.72 | 4:42.45 | 190872 | 212066
16 | 47:07.42 | 1:37.33 | 212067 | 219374
17 | 48:45.00 | 3:12.00 | 219375 | 233774
18 | 51:57.00 | 2:12.45 | 233775 | 243719
19 | 54:09.45 | 2:28.42 | 243720 | 254861
20 | 56:38.12 | 2:54.48 | 254862 | 267959
21 | 59:32.60 | 7:08.67 | 267960 | 300126
22 | 66:41.52 | 6:19.45 | 300127 | 328596

Range status and errors

Selected range

Filename D:\torrent\Silent Hill Soundtracks\2011 Silent Hill Sounds Box\CD4 - Silent Hill 4 The Room\Akira Yamaoka - CD4 - Silent Hill 4.wav

Peak level 99.9 %
Range quality 100.0 %
Test CRC 383082C7
Copy CRC 383082C7
Copy OK

No errors occurred

AccurateRip summary

Track 1 cannot be verified as accurate (confidence 6) [AFD4C472], AccurateRip returned [519C3D37]
Track 2 cannot be verified as accurate (confidence 6) [7B6DCAEF], AccurateRip returned [5915F174]
Track 3 cannot be verified as accurate (confidence 6) [EF286A27], AccurateRip returned [A8E58699]
Track 4 cannot be verified as accurate (confidence 6) [EB9B3DDC], AccurateRip returned [4E94F61C]
Track 5 cannot be verified as accurate (confidence 6) [09709801], AccurateRip returned [54509F70]
Track 6 cannot be verified as accurate (confidence 6) [C1D75B1C], AccurateRip returned [C3116EF3]
Track 7 cannot be verified as accurate (confidence 6) [549AFE6A], AccurateRip returned [1F915899]
Track 8 cannot be verified as accurate (confidence 6) [E3A54330], AccurateRip returned [349ED3A0]
Track 9 cannot be verified as accurate (confidence 6) [D76F70C5], AccurateRip returned [C46E84C8]
Track 10 cannot be verified as accurate (confidence 6) [3CFC1ED1], AccurateRip returned [B7EC32BF]
Track 11 cannot be verified as accurate (confidence 6) [EDC85C0A], AccurateRip returned [EC01FE71]
Track 12 cannot be verified as accurate (confidence 6) [06AB1894], AccurateRip returned [0B1D7CD9]
Track 13 cannot be verified as accurate (confidence 6) [AF4C0037], AccurateRip returned [E23244A9]
Track 14 cannot be verified as accurate (confidence 6) [2C6E3AA9], AccurateRip returned [C9307F38]
Track 15 cannot be verified as accurate (confidence 6) [D8272832], AccurateRip returned [86B2F865]
Track 16 cannot be verified as accurate (confidence 6) [82C3C68E], AccurateRip returned [56973B9B]
Track 17 cannot be verified as accurate (confidence 6) [F967EF84], AccurateRip returned [3503F1DD]
Track 18 cannot be verified as accurate (confidence 6) [F27209C2], AccurateRip returned [6011C571]
Track 19 cannot be verified as accurate (confidence 6) [78D8FD8E], AccurateRip returned [3E572E15]
Track 20 cannot be verified as accurate (confidence 6) [EFAA0E76], AccurateRip returned [73A313F8]
Track 21 cannot be verified as accurate (confidence 6) [19B03E88], AccurateRip returned [FA08C17F]
Track 22 cannot be verified as accurate (confidence 5) [FAFFE302], AccurateRip returned [8FAD8C35]

No tracks could be verified as accurate
You may have a different pressing from the one(s) in the database

End of status report
01. Shot Down In Flames (3:59)
02. Meltdown (3:13)
03. Evil Appetite (2:05)
04. Wrong Is Right (2:25)
05. Not Tomorrow 3 (1:42)
06. Monster Daddy (2:26)
07. King Of Adiemus (2:28)
08. Don't Abuse Me (1:39)
09. Underworld 4 (3:06)
10. Acid Horse (2:10)
11. O.R.T (4:23)
12. Insecticide (2:11)
13. Raw Power (1:16)
14. A Million Miles (1:31)
15. Battle Drums (2:17)
16. The Wicked End (2:17)
17. Blow Back (3:13)
18. Real Solution (2:55)
19. The Healer (2:52)
20. Snowblind (2:00)
21. Behind the Wall of Sleep (2:19)
22. Drowning (2:25)
23. Murder Song "S" (3:04)
24. Not Tomorrow 4 (2:15)
25. Theme of Sabre Dance (1:33)
26. Hole In The Sky (4:10)
 
Exact Audio Copy V0.99 prebeta 5 from 4. May 2009

EAC extraction logfile from 29. March 2011, 23:01

Akira Yamaoka / CD5 - Silent Hill Zero

Used drive : PLEXTOR DVDR PX-880SA Adapter: 3 ID: 1

Read mode : Secure
Utilize accurate stream : Yes
Defeat audio cache : Yes
Make use of C2 pointers : No

Read offset correction : 6
Overread into Lead-In and Lead-Out : No
Fill up missing offset samples with silence : Yes
Delete leading and trailing silent blocks : No
Null samples used in CRC calculations : Yes
Used interface : Native Win32 interface for Win NT & 2000

Used output format : User Defined Encoder
Selected bitrate : 128 kBit/s
Quality : High
Add ID3 tag : No
Command line compressor : C:\Program Files (x86)\Exact Audio Copy\Flac\flac.exe
Additional command line options : -T "DATE=%y" -T "GENRE=%m" -8 -V %s

TOC of the extracted CD

Track | Start | Length | Start sector | End sector
---------------------------------------------------------
1 | 0:00.00 | 4:00.05 | 0 | 18004
2 | 4:00.05 | 3:13.73 | 18005 | 32552
3 | 7:14.03 | 2:05.22 | 32553 | 41949
4 | 9:19.25 | 2:25.43 | 41950 | 52867
5 | 11:44.68 | 1:42.43 | 52868 | 60560
6 | 13:27.36 | 2:27.09 | 60561 | 71594
7 | 15:54.45 | 2:29.13 | 71595 | 82782
8 | 18:23.58 | 1:39.26 | 82783 | 90233
9 | 20:03.09 | 3:07.00 | 90234 | 104258
10 | 23:10.09 | 2:11.02 | 104259 | 114085
11 | 25:21.11 | 4:23.71 | 114086 | 133881
12 | 29:45.07 | 2:12.10 | 133882 | 143791
13 | 31:57.17 | 1:16.60 | 143792 | 149551
14 | 33:14.02 | 1:31.42 | 149552 | 156418
15 | 34:45.44 | 2:17.65 | 156419 | 166758
16 | 37:03.34 | 2:18.15 | 166759 | 177123
17 | 39:21.49 | 3:14.10 | 177124 | 191683
18 | 42:35.59 | 2:56.20 | 191684 | 204903
19 | 45:32.04 | 2:53.02 | 204904 | 217880
20 | 48:25.06 | 2:01.07 | 217881 | 226962
21 | 50:26.13 | 2:19.71 | 226963 | 237458
22 | 52:46.09 | 2:25.66 | 237459 | 248399
23 | 55:12.00 | 3:05.18 | 248400 | 262292
24 | 58:17.18 | 2:15.32 | 262293 | 272449
25 | 60:32.50 | 1:33.49 | 272450 | 279473
26 | 62:06.24 | 4:10.67 | 279474 | 298290

Range status and errors

Selected range

Filename D:\torrent\Silent Hill Soundtracks\2011 Silent Hill Sounds Box\CD5 - Silent Hill Zero\Akira Yamaoka - CD5 - Silent Hill Zero.wav

Peak level 98.8 %
Range quality 100.0 %
Test CRC B3564480
Copy CRC B3564480
Copy OK

No errors occurred

AccurateRip summary

Track 1 cannot be verified as accurate (confidence 5) [0D37ECE0], AccurateRip returned [B2393760]
Track 2 cannot be verified as accurate (confidence 5) [8EE88169], AccurateRip returned [D049F025]
Track 3 cannot be verified as accurate (confidence 5) [DC63FBF6], AccurateRip returned [ECE9B129]
Track 4 cannot be verified as accurate (confidence 5) [0E85D7E8], AccurateRip returned [CB3A026F]
Track 5 cannot be verified as accurate (confidence 5) [E090CC75], AccurateRip returned [19CA3A3A]
Track 6 cannot be verified as accurate (confidence 5) [CEFF9A5B], AccurateRip returned [27C9F1DD]
Track 7 cannot be verified as accurate (confidence 5) [FEB11DB4], AccurateRip returned [38B93529]
Track 8 cannot be verified as accurate (confidence 5) [7B500A2E], AccurateRip returned [419737C8]
Track 9 cannot be verified as accurate (confidence 5) [06AAA139], AccurateRip returned [256E9CD3]
Track 10 cannot be verified as accurate (confidence 5) [34D54C08], AccurateRip returned [5BD0863A]
Track 11 cannot be verified as accurate (confidence 5) [F2106E6D], AccurateRip returned [EF99C6E5]
Track 12 cannot be verified as accurate (confidence 5) [64D32518], AccurateRip returned [E4830B1C]
Track 13 cannot be verified as accurate (confidence 5) [948677E8], AccurateRip returned [6B820416]
Track 14 cannot be verified as accurate (confidence 5) [3A9730AD], AccurateRip returned [E75F084F]
Track 15 cannot be verified as accurate (confidence 5) [F723A45F], AccurateRip returned [7DA7541F]
Track 16 cannot be verified as accurate (confidence 5) [2CB0B63F], AccurateRip returned [C3AF427D]
Track 17 cannot be verified as accurate (confidence 5) [F5FF6AC2], AccurateRip returned [2DDC5640]
Track 18 cannot be verified as accurate (confidence 5) [D345402D], AccurateRip returned [449863F5]
Track 19 cannot be verified as accurate (confidence 5) [813985B4], AccurateRip returned [341A3634]
Track 20 cannot be verified as accurate (confidence 5) [9113E39D], AccurateRip returned [3CBCBB97]
Track 21 cannot be verified as accurate (confidence 5) [F07F4383], AccurateRip returned [B83BD399]
Track 22 cannot be verified as accurate (confidence 5) [A412DFD7], AccurateRip returned [11DEF78B]
Track 23 cannot be verified as accurate (confidence 5) [F6F9CEEF], AccurateRip returned [53EB2253]
Track 24 cannot be verified as accurate (confidence 5) [52092BD8], AccurateRip returned [E72C5695]
Track 25 cannot be verified as accurate (confidence 5) [E4881C0C], AccurateRip returned [7D0A743E]
Track 26 cannot be verified as accurate (confidence 6) [915A5F46], AccurateRip returned [87898BBF]

No tracks could be verified as accurate
You may have a different pressing from the one(s) in the database

End of status report
01. One More Soul to the Call (6:03)
02. Witchcraft (3:54)
03. Total Invasion (2:16)
04. Living in Fear (2:33)
05. Cold Blood (3:05)
06. The Terminal Show (2:55)
07. Attitude #70 (2:16)
08. 4 Pattern (3:37)
09. Voodoo Girl (2:11)
10. Elle Theme (5:24)
11. Snow Flower (2:46)
12. Who Knows (2:26)
13. Mr.JOY (2:33)
14. Dreams of Leaving (3:54)
15. The Real Love (3:08)
16. The Thing (3:32)
17. Slave 2 Death (2:26)
18. Regards (2:10)
19. Dead Monks (2:24)
20. This Sacred Line (4:36)
21. Alex Theme (Machine Head Mix) (5:00)
 
Exact Audio Copy V0.99 prebeta 5 from 4. May 2009

EAC extraction logfile from 29. March 2011, 23:31

Akira Yamaoka / CD 6 - Silent Hill Homecoming

Used drive : PLEXTOR DVDR PX-880SA Adapter: 3 ID: 1

Read mode : Secure
Utilize accurate stream : Yes
Defeat audio cache : Yes
Make use of C2 pointers : No

Read offset correction : 6
Overread into Lead-In and Lead-Out : No
Fill up missing offset samples with silence : Yes
Delete leading and trailing silent blocks : No
Null samples used in CRC calculations : Yes
Used interface : Native Win32 interface for Win NT & 2000

Used output format : User Defined Encoder
Selected bitrate : 128 kBit/s
Quality : High
Add ID3 tag : No
Command line compressor : C:\Program Files (x86)\Exact Audio Copy\Flac\flac.exe
Additional command line options : -T "DATE=%y" -T "GENRE=%m" -8 -V %s

TOC of the extracted CD

Track | Start | Length | Start sector | End sector
---------------------------------------------------------
1 | 0:00.00 | 6:03.31 | 0 | 27255
2 | 6:03.31 | 3:53.55 | 27256 | 44785
3 | 9:57.11 | 2:16.29 | 44786 | 55014
4 | 12:13.40 | 2:33.36 | 55015 | 66525
5 | 14:47.01 | 3:04.50 | 66526 | 80375
6 | 17:51.51 | 2:55.21 | 80376 | 93521
7 | 20:46.72 | 2:15.72 | 93522 | 103718
8 | 23:02.69 | 3:36.55 | 103719 | 119973
9 | 26:39.49 | 2:11.15 | 119974 | 129813
10 | 28:50.64 | 5:24.16 | 129814 | 154129
11 | 34:15.05 | 2:46.33 | 154130 | 166612
12 | 37:01.38 | 2:26.32 | 166613 | 177594
13 | 39:27.70 | 2:33.37 | 177595 | 189106
14 | 42:01.32 | 3:53.60 | 189107 | 206641
15 | 45:55.17 | 3:08.14 | 206642 | 220755
16 | 49:03.31 | 3:32.29 | 220756 | 236684
17 | 52:35.60 | 2:25.44 | 236685 | 247603
18 | 55:01.29 | 2:10.14 | 247604 | 257367
19 | 57:11.43 | 2:24.20 | 257368 | 268187
20 | 59:35.63 | 4:36.25 | 268188 | 288912
21 | 64:12.13 | 5:00.00 | 288913 | 311412

Range status and errors

Selected range

Filename D:\torrent\Silent Hill Soundtracks\2011 Silent Hill Sounds Box\CD6 - Silent Hill Homecoming\Akira Yamaoka - CD 6 - Silent Hill Homecoming.wav

Peak level 98.8 %
Range quality 100.0 %
Test CRC B74E62A0
Copy CRC B74E62A0
Copy OK

No errors occurred

AccurateRip summary

Track 1 not present in database
Track 2 not present in database
Track 3 not present in database
Track 4 not present in database
Track 5 not present in database
Track 6 not present in database
Track 7 not present in database
Track 8 not present in database
Track 9 not present in database
Track 10 not present in database
Track 11 not present in database
Track 12 not present in database
Track 13 not present in database
Track 14 not present in database
Track 15 not present in database
Track 16 not present in database
Track 17 not present in database
Track 18 not present in database
Track 19 not present in database
Track 20 not present in database
Track 21 not present in database

None of the tracks are present in the AccurateRip database

End of status report
01. Always on my Mind (05:08)
02. When You're Gone (03:10)
03. Searching the Past (02:29)
04. Childish Thoughts (Unused Bonus Track) (01:31)
05. Creeping Distress (02:13)
06. Hostility (01:49)
07. Snow Driven (02:29)
08. Hibernation (02:17)
09. Devil's Laughter (01:51)
10. Lost Truth (02:47)
11. Angel's Scream (02:38)
12. Another Warm Body (01:50)
13. Forsaken Lullaby (01:49)
14. Raw Shock (01:41)
15. Lives Wasted Away (02:02)
16. Blackest Friday (01:44)
17. Endless Depths (01:28)
18. Different Persons (02:28)
19. Ice (02:57)
20. Acceptance (04:03)
21. Hell Frozen Rain (05:41)
 
Exact Audio Copy V0.99 prebeta 5 from 4. May 2009

EAC extraction logfile from 30. March 2011, 21:13

Akira Yamaoka / CD 7 - Shattered Memories

Used drive : PLEXTOR DVDR PX-880SA Adapter: 3 ID: 1

Read mode : Secure
Utilize accurate stream : Yes
Defeat audio cache : Yes
Make use of C2 pointers : No

Read offset correction : 6
Overread into Lead-In and Lead-Out : No
Fill up missing offset samples with silence : Yes
Delete leading and trailing silent blocks : No
Null samples used in CRC calculations : Yes
Used interface : Native Win32 interface for Win NT & 2000

Used output format : User Defined Encoder
Selected bitrate : 128 kBit/s
Quality : High
Add ID3 tag : No
Command line compressor : C:\Program Files (x86)\Exact Audio Copy\Flac\flac.exe
Additional command line options : -T "DATE=%y" -T "GENRE=%m" -8 -V %s

TOC of the extracted CD

Track | Start | Length | Start sector | End sector
---------------------------------------------------------
1 | 0:00.00 | 5:07.63 | 0 | 23087
2 | 5:07.63 | 3:10.34 | 23088 | 37371
3 | 8:18.22 | 2:28.56 | 37372 | 48527
4 | 10:47.03 | 1:30.72 | 48528 | 55349
5 | 12:18.00 | 2:12.67 | 55350 | 65316
6 | 14:30.67 | 1:48.58 | 65317 | 73474
7 | 16:19.50 | 2:28.58 | 73475 | 84632
8 | 18:48.33 | 2:16.53 | 84633 | 94885
9 | 21:05.11 | 1:51.16 | 94886 | 103226
10 | 22:56.27 | 2:47.19 | 103227 | 115770
11 | 25:43.46 | 2:38.02 | 115771 | 127622
12 | 28:21.48 | 1:49.62 | 127623 | 135859
13 | 30:11.35 | 1:49.25 | 135860 | 144059
14 | 32:00.60 | 1:41.17 | 144060 | 151651
15 | 33:42.02 | 2:01.46 | 151652 | 160772
16 | 35:43.48 | 1:44.00 | 160773 | 168572
17 | 37:27.48 | 1:28.14 | 168573 | 175186
18 | 38:55.62 | 2:27.51 | 175187 | 186262
19 | 41:23.38 | 2:57.27 | 186263 | 199564
20 | 44:20.65 | 4:03.36 | 199565 | 217825
21 | 48:24.26 | 5:40.44 | 217826 | 243369

Range status and errors

Selected range

Filename D:\torrent\Silent Hill Soundtracks\2011 Silent Hill Sounds Box\CD7 - Silent Hill Shattered Memories\Silent Hill Sounds Box - CD 7 - Shattered Memories.wav

Peak level 98.8 %
Range quality 99.9 %
Test CRC C07345D3
Copy CRC C07345D3
Copy OK

No errors occurred

AccurateRip summary

Track 1 not present in database
Track 2 not present in database
Track 3 not present in database
Track 4 not present in database
Track 5 not present in database
Track 6 not present in database
Track 7 not present in database
Track 8 not present in database
Track 9 not present in database
Track 10 not present in database
Track 11 not present in database
Track 12 not present in database
Track 13 not present in database
Track 14 not present in database
Track 15 not present in database
Track 16 not present in database
Track 17 not present in database
Track 18 not present in database
Track 19 not present in database
Track 20 not present in database
Track 21 not present in database

None of the tracks are present in the AccurateRip database

End of status report
01. AZUSA 1GO from SILENT HILL (2:39)
02. Silent Hill (estudio) from SILENT HILL (3:07)
03. Anaconda (Unreleased Track) from SILENT HILL (0:57)
04. tussock (Unreleased Track) from SILENT HILL (0:45)
05. Lost Carol (Long Version) from SILENT HILL 3 (2:45)
06. Rain of Brass Petals (Other Take) from SILENT HILL 3 (2:04)
07. JOE SWEET DREAMS (Unreleased Track) from SILENT HILL 3 (2:04)
08. LAST BOSS REMIX from SILENT HILL 3 (2:26)
09. Dance Girl Dance from SILENT HILL 3 (3:20)
10. Queen of the Rodeo (4:53)
11. All Screwed up from SILENT HILL 3 (5:10)
12. Innocent Moon (Other Take) from SILENT HILL 3 (2:41)
13. I've Been Losing You from SILENT HILL 3 (3:57)
14. No Excuses from SILENT HILL 3 (1:24)
15. Your Rain (Reprise) from SILENT HILL 4: THE ROOM (0:59)
16. Result from SILENT HILL 4: THE ROOM (0:49)
17. Last Walk from SILENT HILL 4: THE ROOM (1:50)
18. Until the Stars Go out from SILENT HILL 4: THE ROOM (2:01)
19. Kaminaga from SILENT HILL 4: THE ROOM (0:29)
20. Hanyo from SILENT HILL4: THE ROOM (0:33)
21. A Monster in Her Eyes from SILENT HILL 4: THE ROOM (1:28)
22. Clown Parade from SILENT HILL 4: THE ROOM (1:29)
23. Serious from SILENT HILL 4: THE ROOM (1:52)
24. Moments in Bed from SILENT HILL 4: THE ROOM (1:37)
25. Ki-No-Ko from Lost Memories (4:40)
26. KO (Unreleased Track) from SILENT HILL 2 (4:03)
27. Theme of hanna (3:06)
28. You are tired. (1:12)
29. Recorder 2007 (3:25)
 
Exact Audio Copy V1.0 beta 1 from 15. November 2010

EAC extraction logfile from 16. April 2011, 13:33

Akira Yamaoka / CD8 - Silent Hill Extra Music & Silent Hill The Arcade

Used drive : PLEXTOR DVDR PX-880SA Adapter: 3 ID: 1

Read mode : Secure
Utilize accurate stream : Yes
Defeat audio cache : Yes
Make use of C2 pointers : No

Read offset correction : 6
Overread into Lead-In and Lead-Out : No
Fill up missing offset samples with silence : Yes
Delete leading and trailing silent blocks : No
Null samples used in CRC calculations : Yes
Used interface : Native Win32 interface for Win NT & 2000

Used output format : User Defined Encoder
Selected bitrate : 128 kBit/s
Quality : High
Add ID3 tag : No
Command line compressor : C:\Program Files (x86)\Exact Audio Copy\Flac\flac.exe
Additional command line options : -T "DATE=%y" -T "GENRE=%m" -8 -V %s

TOC of the extracted CD

Track | Start | Length | Start sector | End sector
---------------------------------------------------------
1 | 0:00.00 | 2:38.44 | 0 | 11893
2 | 2:38.44 | 3:07.33 | 11894 | 25951
3 | 5:46.02 | 0:57.35 | 25952 | 30261
4 | 6:43.37 | 0:44.72 | 30262 | 33633
5 | 7:28.34 | 2:45.33 | 33634 | 46041
6 | 10:13.67 | 2:04.13 | 46042 | 55354
7 | 12:18.05 | 2:03.58 | 55355 | 64637
8 | 14:21.63 | 2:25.44 | 64638 | 75556
9 | 16:47.32 | 3:19.55 | 75557 | 90536
10 | 20:07.12 | 4:52.48 | 90537 | 112484
11 | 24:59.60 | 5:10.22 | 112485 | 135756
12 | 30:10.07 | 2:40.56 | 135757 | 147812
13 | 32:50.63 | 3:56.69 | 147813 | 165581
14 | 36:47.57 | 1:24.02 | 165582 | 171883
15 | 38:11.59 | 0:58.40 | 171884 | 176273
16 | 39:10.24 | 0:48.48 | 176274 | 179921
17 | 39:58.72 | 1:50.35 | 179922 | 188206
18 | 41:49.32 | 2:01.22 | 188207 | 197303
19 | 43:50.54 | 0:28.56 | 197304 | 199459
20 | 44:19.35 | 0:33.32 | 199460 | 201966
21 | 44:52.67 | 1:27.64 | 201967 | 208555
22 | 46:20.56 | 1:29.36 | 208556 | 215266
23 | 47:50.17 | 1:51.68 | 215267 | 223659
24 | 49:42.10 | 1:37.11 | 223660 | 230945
25 | 51:19.21 | 4:40.01 | 230946 | 251946
26 | 55:59.22 | 4:03.20 | 251947 | 270191
27 | 60:02.42 | 3:05.39 | 270192 | 284105
28 | 63:08.06 | 1:11.71 | 284106 | 289501
29 | 64:20.02 | 3:25.16 | 289502 | 304892

Range status and errors

Selected range

Filename D:\CD8\Akira Yamaoka - CD8 - Silent Hill Extra Music & Silent Hill The Arcade.wav

Peak level 98.8 %
Range quality 99.9 %
Test CRC 99BEBB99
Copy CRC 99BEBB99
Copy OK

No errors occurred

AccurateRip summary

Track 1 not present in database
Track 2 not present in database
Track 3 not present in database
Track 4 not present in database
Track 5 not present in database
Track 6 not present in database
Track 7 not present in database
Track 8 not present in database
Track 9 not present in database
Track 10 not present in database
Track 11 not present in database
Track 12 not present in database
Track 13 not present in database
Track 14 not present in database
Track 15 not present in database
Track 16 not present in database
Track 17 not present in database
Track 18 not present in database
Track 19 not present in database
Track 20 not present in database
Track 21 not present in database
Track 22 not present in database
Track 23 not present in database
Track 24 not present in database
Track 25 not present in database
Track 26 not present in database
Track 27 not present in database
Track 28 not present in database
Track 29 not present in database

None of the tracks are present in the AccurateRip database

End of status report
Жанр: Score
Год выпуска диска: Mar 13, 2012
Композитор: Daniel Licht
Страна-производитель диска: USA
Издатель (лейбл): Milan Records
Номер каталога: M2-36565
Продолжительность: 00:58:41



01. Silent Hill (by Jonathan Davis) (3:10)
02. Intro Perk Walk (2:48)
03. In the Ravine (3:18)
04. Bus to Nowhere (3:42)
05. Meet JP (2:15)
06. Stalking for Dinner (4:27)
07. Don't Go in the Basement (2:27)
08. Railcar Ride (3:01)
09. Downpour Intro (4:38)
10. Jump Monster (1:40)
11. Monastic Tendencies (4:25)
12. Clowning Around With Monsters (2:18)
13. Welcome to Devil's Pit (2:22)
14. Basement Fight (2:54)
15. Cablehouse Blues (2:23)
16. Town Rain (2:58)
17. The Caverns (2:55)
18. Monastery Otherworld (2:50)
19. The Downpour (4:02)
 
Exact Audio Copy V1.0 beta 3 from 29. August 2011

EAC extraction logfile from 24. March 2012, 20:45

Daniel Licht / Silent Hill Downpour

Used drive : Optiarc DVD RW AD-7241S Adapter: 1 ID: 0

Read mode : Secure
Utilize accurate stream : Yes
Defeat audio cache : Yes
Make use of C2 pointers : No

Read offset correction : 48
Overread into Lead-In and Lead-Out : No
Fill up missing offset samples with silence : Yes
Delete leading and trailing silent blocks : No
Null samples used in CRC calculations : Yes
Used interface : Native Win32 interface for Win NT & 2000
Gap handling : Appended to previous track

Used output format : User Defined Encoder
Selected bitrate : 768 kBit/s
Quality : High
Add ID3 tag : No
Command line compressor : C:\Program Files (x86)\Exact Audio Copy\FLAC\FLAC.EXE
Additional command line options : -8 -V -T "ARTIST=%artist%" -T "TITLE=%title%" -T "ALBUM=%albumtitle%" -T "DATE=%year%" -T "TRACKNUMBER=%tracknr%" -T "GENRE=%genre%" -T "PERFORMER=%albuminterpret%" -T "COMPOSER=%composer%" %haslyrics%--tag-from-file=LYRICS="%lyricsfile%"%haslyrics% -T "ALBUMARTIST=%albumartist%" -T "ALBUM ARTIST=%albumartist%" -T "DISCNUMBER=%cdnumber%" -T "TOTALDISCS=%totalcds%" -T "TOTALTRACKS=%numtracks%" -T "COMMENT=%comment%" %source% -o %dest%

TOC of the extracted CD

Track | Start | Length | Start sector | End sector
---------------------------------------------------------
1 | 0:00.00 | 3:10.58 | 0 | 14307
2 | 3:10.58 | 2:48.59 | 14308 | 26966
3 | 5:59.42 | 3:17.70 | 26967 | 41811
4 | 9:17.37 | 3:42.09 | 41812 | 58470
5 | 12:59.46 | 2:15.49 | 58471 | 68644
6 | 15:15.20 | 4:27.55 | 68645 | 88724
7 | 19:43.00 | 2:27.31 | 88725 | 99780
8 | 22:10.31 | 3:01.69 | 99781 | 113424
9 | 25:12.25 | 4:38.09 | 113425 | 134283
10 | 29:50.34 | 1:40.33 | 134284 | 141816
11 | 31:30.67 | 4:25.51 | 141817 | 161742
12 | 35:56.43 | 2:18.38 | 161743 | 172130
13 | 38:15.06 | 2:22.11 | 172131 | 182791
14 | 40:37.17 | 2:54.14 | 182792 | 195855
15 | 43:31.31 | 2:23.14 | 195856 | 206594
16 | 45:54.45 | 2:58.68 | 206595 | 220012
17 | 48:53.38 | 2:55.01 | 220013 | 233138
18 | 51:48.39 | 2:49.72 | 233139 | 245885
19 | 54:38.36 | 4:02.47 | 245886 | 264082

Track 1

Filename C:\Users\chris\Desktop\Rips\01 - Jonathan Davis - Silent Hill.wav

Pre-gap length 0:00:02.00

Peak level 97.5 %
Extraction speed 2.3 X
Track quality 100.0 %
Test CRC 65AFEBA0
Copy CRC 65AFEBA0
Track not present in AccurateRip database
Copy OK

Track 2

Filename C:\Users\chris\Desktop\Rips\02 - Daniel Licht - Intro Perp Walk.wav

Peak level 98.9 %
Extraction speed 2.4 X
Track quality 100.0 %
Test CRC 0961651E
Copy CRC 0961651E
Track not present in AccurateRip database
Copy OK

Track 3

Filename C:\Users\chris\Desktop\Rips\03 - Daniel Licht - In the Ravine.wav

Peak level 93.4 %
Extraction speed 2.7 X
Track quality 100.0 %
Test CRC 388D9FEE
Copy CRC 388D9FEE
Track not present in AccurateRip database
Copy OK

Track 4

Filename C:\Users\chris\Desktop\Rips\04 - Daniel Licht - Bus to Nowhere.wav

Peak level 96.7 %
Extraction speed 2.6 X
Track quality 99.9 %
Test CRC E2D11AD8
Copy CRC E2D11AD8
Track not present in AccurateRip database
Copy OK

Track 5

Filename C:\Users\chris\Desktop\Rips\05 - Daniel Licht - Meet JP.wav

Peak level 96.3 %
Extraction speed 2.8 X
Track quality 100.0 %
Test CRC 6FED5A3E
Copy CRC 6FED5A3E
Track not present in AccurateRip database
Copy OK

Track 6

Filename C:\Users\chris\Desktop\Rips\06 - Daniel Licht - Stalking for Dinner.wav

Peak level 96.6 %
Extraction speed 3.4 X
Track quality 100.0 %
Test CRC B51C2D8E
Copy CRC B51C2D8E
Track not present in AccurateRip database
Copy OK

Track 7

Filename C:\Users\chris\Desktop\Rips\07 - Daniel Licht - Don't Go in the Basement.wav

Peak level 46.5 %
Extraction speed 2.7 X
Track quality 99.9 %
Test CRC F84CCCBE
Copy CRC F84CCCBE
Track not present in AccurateRip database
Copy OK

Track 8

Filename C:\Users\chris\Desktop\Rips\08 - Daniel Licht - Railcar Ride.wav

Peak level 96.9 %
Extraction speed 2.9 X
Track quality 99.9 %
Test CRC AB626474
Copy CRC AB626474
Track not present in AccurateRip database
Copy OK

Track 9

Filename C:\Users\chris\Desktop\Rips\09 - Daniel Licht - Downpour Intro.wav

Peak level 97.2 %
Extraction speed 3.8 X
Track quality 100.0 %
Test CRC 0A8CC5D2
Copy CRC 0A8CC5D2
Track not present in AccurateRip database
Copy OK

Track 10

Filename C:\Users\chris\Desktop\Rips\10 - Daniel Licht - Jump Monster.wav

Peak level 97.0 %
Extraction speed 3.2 X
Track quality 100.0 %
Test CRC 5DEF59AF
Copy CRC 5DEF59AF
Track not present in AccurateRip database
Copy OK

Track 11

Filename C:\Users\chris\Desktop\Rips\11 - Daniel Licht - Monastic Tendencies.wav

Peak level 97.1 %
Extraction speed 4.1 X
Track quality 100.0 %
Test CRC 1D420C98
Copy CRC 1D420C98
Track not present in AccurateRip database
Copy OK

Track 12

Filename C:\Users\chris\Desktop\Rips\12 - Daniel Licht - Clowning Around With Monsters.wav

Peak level 87.4 %
Extraction speed 3.8 X
Track quality 100.0 %
Test CRC D322BCF8
Copy CRC D322BCF8
Track not present in AccurateRip database
Copy OK

Track 13

Filename C:\Users\chris\Desktop\Rips\13 - Daniel Licht - Welcome to Devil's Pit.wav

Peak level 94.7 %
Extraction speed 3.9 X
Track quality 100.0 %
Test CRC 0EE3383B
Copy CRC 0EE3383B
Track not present in AccurateRip database
Copy OK

Track 14

Filename C:\Users\chris\Desktop\Rips\14 - Daniel Licht - Basement Fight.wav

Peak level 94.8 %
Extraction speed 4.1 X
Track quality 100.0 %
Test CRC 7DB875DC
Copy CRC 7DB875DC
Track not present in AccurateRip database
Copy OK

Track 15

Filename C:\Users\chris\Desktop\Rips\15 - Daniel Licht - Cablehouse Blues.wav

Peak level 58.5 %
Extraction speed 4.1 X
Track quality 100.0 %
Test CRC 73AC8F28
Copy CRC 73AC8F28
Track not present in AccurateRip database
Copy OK

Track 16

Filename C:\Users\chris\Desktop\Rips\16 - Daniel Licht - Town Rain.wav

Peak level 96.4 %
Extraction speed 4.3 X
Track quality 100.0 %
Test CRC 6E5A9581
Copy CRC 6E5A9581
Track not present in AccurateRip database
Copy OK

Track 17

Filename C:\Users\chris\Desktop\Rips\17 - Daniel Licht - The Caverns.wav

Peak level 73.0 %
Extraction speed 4.4 X
Track quality 100.0 %
Test CRC EF6B2DC6
Copy CRC EF6B2DC6
Track not present in AccurateRip database
Copy OK

Track 18

Filename C:\Users\chris\Desktop\Rips\18 - Daniel Licht - Monastery Otherworld.wav

Peak level 97.0 %
Extraction speed 3.8 X
Track quality 99.9 %
Test CRC 3F70C03D
Copy CRC 3F70C03D
Track not present in AccurateRip database
Copy OK

Track 19

Filename C:\Users\chris\Desktop\Rips\19 - Daniel Licht - The Downpour.wav

Peak level 96.8 %
Extraction speed 4.8 X
Track quality 100.0 %
Test CRC 9718BFE5
Copy CRC 9718BFE5
Track not present in AccurateRip database
Copy OK

None of the tracks are present in the AccurateRip database

No errors occurred

End of status report

==== Log checksum 3514E8ADEC618207FE4EA174690ABDE1DBFC59CBD3C102FAB2A8978003D409E4 ====
Жанр: Score
Год выпуска диска: Apr 17, 2012
Композитор: Daniel Licht
Страна-производитель диска: USA
Издатель (лейбл): Milan Records
Номер каталога: M2-36570
Продолжительность: 01:02:55



01. Opening the Book (2:14)
02. Water-World (3:44)
03. The Water Boss (1:40)
04. Quiet Before the Storm (2:17)
05. The Light Boss (2:33)
06. Wood-World (2:33)
07. Save Yourself (1:14)
08. Blood-World (3:29)
09. The Earth Boss (1:43)
10. What's On The Menu? (1:47)
11. The Blood Boss (2:10)
12. Fire-World (3:19)
13. Light-World (3:17)
14. Earth-World (3:36)
15. Action in the Dark (2:14)
16. Steel-World (2:36)
17. You're on the Menu Today (1:45)
18. Rust-World (2:50)
19. The Fire Boss (1:23)
20. The Wood Boss (1:18)
21. The Steel Boss (2:05)
22. The Shop Room (1:26)
23. The Scare Room (1:17)
24. Dangerous Maneuvers (2:16)
25. Now We're Free (4:11)
26. Love Psalm (3:58)
 
Exact Audio Copy V1.0 beta 3 from 29. August 2011

EAC extraction logfile from 24. April 2012, 21:13

Daniel Licht / Silent Hill: Book of Memories

Used drive : Optiarc DVD RW AD-7241S Adapter: 1 ID: 0

Read mode : Secure
Utilize accurate stream : Yes
Defeat audio cache : Yes
Make use of C2 pointers : No

Read offset correction : 48
Overread into Lead-In and Lead-Out : No
Fill up missing offset samples with silence : Yes
Delete leading and trailing silent blocks : No
Null samples used in CRC calculations : Yes
Used interface : Native Win32 interface for Win NT & 2000
Gap handling : Appended to previous track

Used output format : User Defined Encoder
Selected bitrate : 768 kBit/s
Quality : High
Add ID3 tag : No
Command line compressor : C:\Program Files (x86)\Exact Audio Copy\FLAC\FLAC.EXE
Additional command line options : -8 -V -T "ARTIST=%artist%" -T "TITLE=%title%" -T "ALBUM=%albumtitle%" -T "DATE=%year%" -T "TRACKNUMBER=%tracknr%" -T "GENRE=%genre%" -T "PERFORMER=%albuminterpret%" -T "COMPOSER=%composer%" %haslyrics%--tag-from-file=LYRICS="%lyricsfile%"%haslyrics% -T "ALBUMARTIST=%albumartist%" -T "ALBUM ARTIST=%albumartist%" -T "DISCNUMBER=%cdnumber%" -T "TOTALDISCS=%totalcds%" -T "TOTALTRACKS=%numtracks%" -T "COMMENT=%comment%" %source% -o %dest%

TOC of the extracted CD

Track | Start | Length | Start sector | End sector
---------------------------------------------------------
1 | 0:00.00 | 2:14.28 | 0 | 10077
2 | 2:14.28 | 3:44.04 | 10078 | 26881
3 | 5:58.32 | 1:39.68 | 26882 | 34374
4 | 7:38.25 | 2:17.30 | 34375 | 44679
5 | 9:55.55 | 2:33.00 | 44680 | 56154
6 | 12:28.55 | 2:33.17 | 56155 | 67646
7 | 15:01.72 | 1:13.71 | 67647 | 73192
8 | 16:15.68 | 3:28.38 | 73193 | 88830
9 | 19:44.31 | 1:42.50 | 88831 | 96530
10 | 21:27.06 | 1:46.53 | 96531 | 104533
11 | 23:13.59 | 2:10.17 | 104534 | 114300
12 | 25:24.01 | 3:19.25 | 114301 | 129250
13 | 28:43.26 | 3:17.23 | 129251 | 144048
14 | 32:00.49 | 3:36.34 | 144049 | 160282
15 | 35:37.08 | 2:13.62 | 160283 | 170319
16 | 37:50.70 | 2:35.66 | 170320 | 182010
17 | 40:26.61 | 1:45.34 | 182011 | 189919
18 | 42:12.20 | 2:49.52 | 189920 | 202646
19 | 45:01.72 | 1:23.00 | 202647 | 208871
20 | 46:24.72 | 1:17.63 | 208872 | 214709
21 | 47:42.60 | 2:04.51 | 214710 | 224060
22 | 49:47.36 | 1:26.17 | 224061 | 230527
23 | 51:13.53 | 1:17.03 | 230528 | 236305
24 | 52:30.56 | 2:16.02 | 236306 | 246507
25 | 54:46.58 | 4:10.48 | 246508 | 265305
26 | 58:57.31 | 3:57.47 | 265306 | 283127

Track 1

Filename C:\Users\chris\Desktop\Rips\01 - Daniel Licht - Opening the Book.wav

Pre-gap length 0:00:02.00

Peak level 81.2 %
Extraction speed 2.1 X
Track quality 100.0 %
Test CRC 31C787A3
Copy CRC 31C787A3
Track not present in AccurateRip database
Copy OK

Track 2

Filename C:\Users\chris\Desktop\Rips\02 - Daniel Licht - Water-World.wav

Peak level 96.6 %
Extraction speed 2.5 X
Track quality 100.0 %
Test CRC D063CB9B
Copy CRC D063CB9B
Track not present in AccurateRip database
Copy OK

Track 3

Filename C:\Users\chris\Desktop\Rips\03 - Daniel Licht - The Water Boss.wav

Peak level 96.6 %
Extraction speed 1.8 X
Track quality 99.8 %
Test CRC 8409752A
Copy CRC 8409752A
Track not present in AccurateRip database
Copy OK

Track 4

Filename C:\Users\chris\Desktop\Rips\04 - Daniel Licht - Quiet Before the Storm.wav

Peak level 63.7 %
Extraction speed 2.5 X
Track quality 100.0 %
Test CRC 9D61FE6B
Copy CRC 9D61FE6B
Track not present in AccurateRip database
Copy OK

Track 5

Filename C:\Users\chris\Desktop\Rips\05 - Daniel Licht - The Light Boss.wav

Peak level 96.6 %
Extraction speed 2.8 X
Track quality 100.0 %
Test CRC 20FA9481
Copy CRC 20FA9481
Track not present in AccurateRip database
Copy OK

Track 6

Filename C:\Users\chris\Desktop\Rips\06 - Daniel Licht - Wood-World.wav

Peak level 96.6 %
Extraction speed 2.8 X
Track quality 100.0 %
Test CRC 35A897CA
Copy CRC 35A897CA
Track not present in AccurateRip database
Copy OK

Track 7

Filename C:\Users\chris\Desktop\Rips\07 - Daniel Licht - Save Yourself.wav

Peak level 50.9 %
Extraction speed 2.4 X
Track quality 100.0 %
Test CRC F7CF9837
Copy CRC F7CF9837
Track not present in AccurateRip database
Copy OK

Track 8

Filename C:\Users\chris\Desktop\Rips\08 - Daniel Licht - Blood-World.wav

Peak level 96.6 %
Extraction speed 2.8 X
Track quality 99.9 %
Test CRC 11026538
Copy CRC 11026538
Track not present in AccurateRip database
Copy OK

Track 9

Filename C:\Users\chris\Desktop\Rips\09 - Daniel Licht - The Earth Boss.wav

Peak level 96.6 %
Extraction speed 2.9 X
Track quality 100.0 %
Test CRC 33E1AF6B
Copy CRC 33E1AF6B
Track not present in AccurateRip database
Copy OK

Track 10

Filename C:\Users\chris\Desktop\Rips\10 - Daniel Licht - What's On The Menu.wav

Peak level 81.0 %
Extraction speed 3.0 X
Track quality 100.0 %
Test CRC 17F64F5A
Copy CRC 17F64F5A
Track not present in AccurateRip database
Copy OK

Track 11

Filename C:\Users\chris\Desktop\Rips\11 - Daniel Licht - The Blood Boss.wav

Peak level 96.6 %
Extraction speed 3.3 X
Track quality 100.0 %
Test CRC 5F70D7EC
Copy CRC 5F70D7EC
Track not present in AccurateRip database
Copy OK

Track 12

Filename C:\Users\chris\Desktop\Rips\12 - Daniel Licht - Fire-World.wav

Peak level 96.6 %
Extraction speed 3.7 X
Track quality 100.0 %
Test CRC 5251F50F
Copy CRC 5251F50F
Track not present in AccurateRip database
Copy OK

Track 13

Filename C:\Users\chris\Desktop\Rips\13 - Daniel Licht - Light-World.wav

Peak level 100.0 %
Extraction speed 3.8 X
Track quality 100.0 %
Test CRC 9F11CA09
Copy CRC 9F11CA09
Track not present in AccurateRip database
Copy OK

Track 14

Filename C:\Users\chris\Desktop\Rips\14 - Daniel Licht - Earth-World.wav

Peak level 96.6 %
Extraction speed 3.5 X
Track quality 99.9 %
Test CRC 62DE16CF
Copy CRC 62DE16CF
Track not present in AccurateRip database
Copy OK

Track 15

Filename C:\Users\chris\Desktop\Rips\15 - Daniel Licht - Action in the Dark.wav

Peak level 96.6 %
Extraction speed 3.7 X
Track quality 100.0 %
Test CRC A346ED51
Copy CRC A346ED51
Track not present in AccurateRip database
Copy OK

Track 16

Filename C:\Users\chris\Desktop\Rips\16 - Daniel Licht - Steel-World.wav

Peak level 96.6 %
Extraction speed 4.0 X
Track quality 100.0 %
Test CRC 758FFE46
Copy CRC 758FFE46
Track not present in AccurateRip database
Copy OK

Track 17

Filename C:\Users\chris\Desktop\Rips\17 - Daniel Licht - You're on the Menu Today.wav

Peak level 96.6 %
Extraction speed 3.7 X
Track quality 100.0 %
Test CRC 707D7D3C
Copy CRC 707D7D3C
Track not present in AccurateRip database
Copy OK

Track 18

Filename C:\Users\chris\Desktop\Rips\18 - Daniel Licht - Rust-World.wav

Peak level 96.6 %
Extraction speed 4.2 X
Track quality 100.0 %
Test CRC 8E78ACB7
Copy CRC 8E78ACB7
Track not present in AccurateRip database
Copy OK

Track 19

Filename C:\Users\chris\Desktop\Rips\19 - Daniel Licht - The Fire Boss.wav

Peak level 100.0 %
Extraction speed 2.7 X
Track quality 99.8 %
Test CRC 53D80583
Copy CRC 53D80583
Track not present in AccurateRip database
Copy OK

Track 20

Filename C:\Users\chris\Desktop\Rips\20 - Daniel Licht - The Wood Boss.wav

Peak level 96.6 %
Extraction speed 3.5 X
Track quality 100.0 %
Test CRC E7509930
Copy CRC E7509930
Track not present in AccurateRip database
Copy OK

Track 21

Filename C:\Users\chris\Desktop\Rips\21 - Daniel Licht - The Steel Boss.wav

Peak level 65.2 %
Extraction speed 4.1 X
Track quality 100.0 %
Test CRC D255E3F1
Copy CRC D255E3F1
Track not present in AccurateRip database
Copy OK

Track 22

Filename C:\Users\chris\Desktop\Rips\22 - Daniel Licht - The Shop Room.wav

Peak level 58.2 %
Extraction speed 3.7 X
Track quality 100.0 %
Test CRC 5FD0EE04
Copy CRC 5FD0EE04
Track not present in AccurateRip database
Copy OK

Track 23

Filename C:\Users\chris\Desktop\Rips\23 - Daniel Licht - The Scare Room.wav

Peak level 96.6 %
Extraction speed 2.7 X
Track quality 99.8 %
Test CRC 2EEAE170
Copy CRC 2EEAE170
Track not present in AccurateRip database
Copy OK

Track 24

Filename C:\Users\chris\Desktop\Rips\24 - Daniel Licht - Dangerous Maneuvers.wav

Peak level 96.6 %
Extraction speed 4.3 X
Track quality 100.0 %
Test CRC CC781BE5
Copy CRC CC781BE5
Track not present in AccurateRip database
Copy OK

Track 25

Filename C:\Users\chris\Desktop\Rips\25 - Mary Elizabeth McGlynn - Now We're Free.wav

Peak level 96.6 %
Extraction speed 4.3 X
Track quality 99.9 %
Test CRC AA3B4AB2
Copy CRC AA3B4AB2
Track not present in AccurateRip database
Copy OK

Track 26

Filename C:\Users\chris\Desktop\Rips\26 - Mary Elizabeth McGlynn - Love Pslam.wav

Peak level 70.7 %
Extraction speed 5.0 X
Track quality 100.0 %
Test CRC F3D88A3A
Copy CRC F3D88A3A
Track not present in AccurateRip database
Copy OK

None of the tracks are present in the AccurateRip database

No errors occurred

End of status report

==== Log checksum 3E1EB35B5AEF71B7E8B588CE6D96A6E3A7C23C30951852393F2300C468308C05 ====
Жанр: Score
Композитор: Akira Yamaoka
Год выпуска: Apr 12, 2017
Страна-производитель: USA
Лейбл: Mondo
Номер каталога: MOND-098

Носитель: LP
Формат записи: 24/192
Формат раздачи: 24/192
Продолжительность: 01:01:06

Источник оцифровки: Valeron
Код класса состояния винила: Mint
Устройство воспроизведения: Micro Seiki DD-8 + ZYX R100 Fuji S
Предварительный усилитель: PS audio Phono Stage + Tube Preamp (Telefunken)
АЦП: TASCAM HS-P82
Обработка: Удалялись щелчки (вручную)



A01. Silent Hill
A02. All
A03. The Wait
A04. Until Death
A05. Over
A06. Devil's Lyric
A07. Rising Sun
A08. For All
A09. Follow the Leader
A10. Claw Finger

B11. Hear Nothing
B12. Children Kill
B13. Killed By Death
B14. Don't Cry
B15. The Bitter Season
B16. Moonchild
B17. Never Again
B18. Fear Of The Dark
B19. Half Day
B20. Heaven Give Me Say
B21. Far

C22. I'll Kill You
C23. My Justice For You
C24. Devil's Lyric 2
C25. Dead End
C26. Ain't Gonna Rain
C27. Nothing Else
C28. Alive
C29. Never Again
C30. Die
C31. Never End, Never End, Never End
C32. Down Time
C33. Kill Angels
C34. Only You
C35. Not Tomorrow 1
C36. Not Tomorrow 2
C37. My Heaven

D38. Tears Of...
D39. Killing Time
D40. She
D41. Silent Hill (Otherside)

info [Профиль]  [ЛС] 
Показать сообщения:    
Ответить на тему

Текущее время: 14-Дек 20:09

Часовой пояс: GMT + 4



Вы не можете начинать темы
Вы не можете отвечать на сообщения
Вы не можете редактировать свои сообщения
Вы не можете удалять свои сообщения
Вы не можете голосовать в опросах
Вы не можете прикреплять файлы к сообщениям
Вы не можете скачивать файлы