Ошибка

(Score) Tales of Legendia (by Go Shiina) (3 CD) - 2005 г., FLAC (tracks), lossless

Ответить на тему
 
Автор Сообщение

Hobbit38

Пол: Пол:Муж

Стаж: 4 года 7 месяцев

Сообщений: 761

Предупреждений: 1

Россия
Рейтинг

post 21-Ноя-2018 09:24 0[+]

[Цитировать] 


Жанр: Score | Год выпуска: Aug 24, 2005 | Композитор: Go Shiina

Издатель (лейбл): avex trax | Номер каталога: AVCD-17741~3

Аудиокодек: FLAC (.flac) | Тип рипа: tracks | Битрейт аудио: lossless

Полиграфия: Присутствует | Продолжительность: 02:13:14


01. Tao -game version- 1:41
02. melfes ~ Shining Blue 3:09
03. The Meeting Place Is the Fountain Plaza 1:58
04. Forest of No Return 3:08
05. A Cheerful Bandit 1:56
06. Sunlight Filtering Through the Trees 4:41
07. March 2:09
08. Spinning Thoughts, Bound Hands 2:30
09. The Legendary Sorceror 2:21
10. It's Not A Bluff 2:28
11. To Deliver the Feelings 4:49
12. Ancient Ship 3:14
13. Tomorrow Will Surely Be Sunny 3:52
14. Enemy Attack 3:16
15. Beyond That Hill 1:56
16. Battle Artist 3:23
17. Seeking Victory 3:46
18. Sea of Rage 3:28
19. Between Memories and Hope 1:21
20. my tales 5:26
01. A Firefly's Light 4:55
02. Whisper of the Crystal 3:23
03. Coming Up On 12 O'Clock 3:24
04. Chasing Shirley 3:08
05. Short Circuit 2:57
06. Stella 2:07
07. Let's Go! 3:35
08. Gentle Big Sister 3:28
09. Land of Peace 2:42
10. Run to the Middle of the Storm 1:51
11. TAO -melfes version- 3:03
12. The Bird Chirps, I Sing 3:52
13. Delkes - Black Wings 3:45
14. Thank You 1:59
15. Looming Crisis 0:44
16. Guiding Star 1:38
17. A Flower's Name 0:44
18. Funeral March 2:01
19. Let's Talk 2:31
20. Changing Prayers Into Power 3:10
21. hotarubi 4:22
22. TALES 3:04
01. The Travellers' Rest 7:15
02. An Important Day ~ The Strong Bond With Comrades 3:04
 
Exact Audio Copy V1.0 beta 3 from 29. August 2011

EAC extraction logfile from 16. July 2012, 22:11

Go Shiina / TALES OF LEGENDIA ORIGINAL SOUNDTRACK (Disc 1)

Used drive : PIONEER DVD-RW DVR-212 Adapter: 0 ID: 2

Read mode : Secure
Utilize accurate stream : Yes
Defeat audio cache : Yes
Make use of C2 pointers : No

Read offset correction : 48
Overread into Lead-In and Lead-Out : No
Fill up missing offset samples with silence : Yes
Delete leading and trailing silent blocks : No
Null samples used in CRC calculations : Yes
Used interface : Native Win32 interface for Win NT & 2000
Gap handling : Appended to previous track

Used output format : User Defined Encoder
Selected bitrate : 1024 kBit/s
Quality : High
Add ID3 tag : No
Command line compressor : C:\Program Files (x86)\FLAC\flac.exe
Additional command line options : -8 -V -T "ARTIST=%artist%" -T "TITLE=%title%" -T "ALBUM=%albumtitle%" -T "DATE=%year%" -T "TRACKNUMBER=%tracknr%" -T "GENRE=%genre%" -T "PERFORMER=%albuminterpret%" -T "COMPOSER=%composer%" %haslyrics%--tag-from-file=LYRICS="%lyricsfile%"%haslyrics% -T "ALBUMARTIST=%albumartist%" -T "ALBUM ARTIST=%albumartist%" -T "DISCNUMBER=%cdnumber%" -T "TOTALDISCS=%totalcds%" -T "TOTALTRACKS=%numtracks%" -T "COMMENT=%comment%" %source% -o %dest%

TOC of the extracted CD

Track | Start | Length | Start sector | End sector
---------------------------------------------------------
1 | 0:00.00 | 1:41.05 | 0 | 7579
2 | 1:41.05 | 3:09.12 | 7580 | 21766
3 | 4:50.17 | 1:58.23 | 21767 | 30639
4 | 6:48.40 | 3:08.45 | 30640 | 44784
5 | 9:57.10 | 1:56.55 | 44785 | 53539
6 | 11:53.65 | 4:41.52 | 53540 | 74666
7 | 16:35.42 | 2:09.30 | 74667 | 84371
8 | 18:44.72 | 2:30.73 | 84372 | 95694
9 | 21:15.70 | 2:21.07 | 95695 | 106276
10 | 23:37.02 | 2:28.65 | 106277 | 117441
11 | 26:05.67 | 4:49.55 | 117442 | 139171
12 | 30:55.47 | 3:14.10 | 139172 | 153731
13 | 34:09.57 | 3:52.55 | 153732 | 171186
14 | 38:02.37 | 3:16.40 | 171187 | 185926
15 | 41:19.02 | 1:56.60 | 185927 | 194686
16 | 43:15.62 | 3:23.20 | 194687 | 209931
17 | 46:39.07 | 3:46.18 | 209932 | 226899
18 | 50:25.25 | 3:28.20 | 226900 | 242519
19 | 53:53.45 | 1:21.07 | 242520 | 248601
20 | 55:14.52 | 5:26.38 | 248602 | 273089

Track 1

Filename C:\EAC Rips\01 - TAO -game version-.wav

Pre-gap length 0:00:02.00

Peak level 97.7 %
Extraction speed 3.8 X
Track quality 100.0 %
Test CRC 23FFACAD
Copy CRC 23FFACAD
Accurately ripped (confidence 2) [AF3EB94B] (AR v1)
Copy OK

Track 2

Filename C:\EAC Rips\02 - melfes ~ Shining Blue.wav

Pre-gap length 0:00:04.10

Peak level 97.7 %
Extraction speed 4.8 X
Track quality 100.0 %
Test CRC 983F2D79
Copy CRC 983F2D79
Accurately ripped (confidence 2) [179EC5C3] (AR v1)
Copy OK

Track 3

Filename C:\EAC Rips\03 - The Meeting Place Is the Fountain Plaza.wav

Pre-gap length 0:00:02.46

Peak level 90.2 %
Extraction speed 4.6 X
Track quality 100.0 %
Test CRC E2A07A22
Copy CRC E2A07A22
Accurately ripped (confidence 2) [240C3408] (AR v1)
Copy OK

Track 4

Filename C:\EAC Rips\04 - Forest of No Return.wav

Pre-gap length 0:00:02.46

Peak level 90.6 %
Extraction speed 5.1 X
Track quality 100.0 %
Test CRC AB2A856C
Copy CRC AB2A856C
Accurately ripped (confidence 2) [0A16ED57] (AR v1)
Copy OK

Track 5

Filename C:\EAC Rips\05 - A Cheerful Bandit.wav

Pre-gap length 0:00:02.44

Peak level 96.8 %
Extraction speed 4.9 X
Track quality 100.0 %
Test CRC A81255B5
Copy CRC A81255B5
Accurately ripped (confidence 2) [4AB7212D] (AR v1)
Copy OK

Track 6

Filename C:\EAC Rips\06 - Sunlight Filtering Through the Trees.wav

Pre-gap length 0:00:02.46

Peak level 85.5 %
Extraction speed 6.2 X
Track quality 100.0 %
Test CRC A930215A
Copy CRC A930215A
Accurately ripped (confidence 2) [4EDEA3A3] (AR v1)
Copy OK

Track 7

Filename C:\EAC Rips\07 - March.wav

Pre-gap length 0:00:02.46

Peak level 92.5 %
Extraction speed 5.7 X
Track quality 100.0 %
Test CRC 46879D61
Copy CRC 46879D61
Accurately ripped (confidence 2) [F4FCF241] (AR v1)
Copy OK

Track 8

Filename C:\EAC Rips\08 - Spinning Thoughts, Bound Hands.wav

Pre-gap length 0:00:02.46

Peak level 93.1 %
Extraction speed 5.9 X
Track quality 100.0 %
Test CRC 7B5CB6CA
Copy CRC 7B5CB6CA
Accurately ripped (confidence 2) [713F5378] (AR v1)
Copy OK

Track 9

Filename C:\EAC Rips\09 - The Legendary Sorceror.wav

Pre-gap length 0:00:02.44

Peak level 94.0 %
Extraction speed 5.1 X
Track quality 99.9 %
Test CRC 5C6B8360
Copy CRC 5C6B8360
Accurately ripped (confidence 2) [7DB91361] (AR v1)
Copy OK

Track 10

Filename C:\EAC Rips\10 - It's Not A Bluff.wav

Pre-gap length 0:00:02.46

Peak level 68.2 %
Extraction speed 6.2 X
Track quality 100.0 %
Test CRC 031FD936
Copy CRC 031FD936
Accurately ripped (confidence 2) [C54B0557] (AR v1)
Copy OK

Track 11

Filename C:\EAC Rips\11 - To Deliver the Feelings.wav

Pre-gap length 0:00:04.76

Peak level 97.7 %
Extraction speed 7.1 X
Track quality 100.0 %
Test CRC 04E4819D
Copy CRC 04E4819D
Accurately ripped (confidence 2) [60CAF0C7] (AR v1)
Copy OK

Track 12

Filename C:\EAC Rips\12 - Ancient Ship.wav

Pre-gap length 0:00:02.46

Peak level 81.7 %
Extraction speed 7.1 X
Track quality 100.0 %
Test CRC 0356D3D5
Copy CRC 0356D3D5
Accurately ripped (confidence 2) [B3213130] (AR v1)
Copy OK

Track 13

Filename C:\EAC Rips\13 - Tomorrow Will Surely Be Sunny.wav

Pre-gap length 0:00:02.42

Peak level 86.3 %
Extraction speed 6.6 X
Track quality 99.9 %
Test CRC B1797B85
Copy CRC B1797B85
Accurately ripped (confidence 2) [A15AC122] (AR v1)
Copy OK

Track 14

Filename C:\EAC Rips\14 - Enemy Attack.wav

Pre-gap length 0:00:02.46

Peak level 81.7 %
Extraction speed 6.5 X
Track quality 99.9 %
Test CRC 8F1B5CED
Copy CRC 8F1B5CED
Accurately ripped (confidence 2) [20FC23CA] (AR v1)
Copy OK

Track 15

Filename C:\EAC Rips\15 - Beyond That Hill.wav

Pre-gap length 0:00:02.46

Peak level 85.5 %
Extraction speed 6.8 X
Track quality 100.0 %
Test CRC 622AB256
Copy CRC 622AB256
Accurately ripped (confidence 2) [08BD2BF3] (AR v1)
Copy OK

Track 16

Filename C:\EAC Rips\16 - Battle Artist.wav

Pre-gap length 0:00:02.46

Peak level 88.3 %
Extraction speed 7.5 X
Track quality 100.0 %
Test CRC 4413B440
Copy CRC 4413B440
Accurately ripped (confidence 2) [F4BA76A1] (AR v1)
Copy OK

Track 17

Filename C:\EAC Rips\17 - Seeking Victory.wav

Pre-gap length 0:00:02.46

Peak level 75.4 %
Extraction speed 8.1 X
Track quality 100.0 %
Test CRC B871FC8E
Copy CRC B871FC8E
Accurately ripped (confidence 2) [35C237F3] (AR v1)
Copy OK

Track 18

Filename C:\EAC Rips\18 - Sea of Rage.wav

Pre-gap length 0:00:02.46

Peak level 86.4 %
Extraction speed 8.2 X
Track quality 100.0 %
Test CRC DF033BAF
Copy CRC DF033BAF
Accurately ripped (confidence 2) [BA5120ED] (AR v1)
Copy OK

Track 19

Filename C:\EAC Rips\19 - Between Memories and Hope.wav

Pre-gap length 0:00:05.10

Peak level 90.9 %
Extraction speed 6.7 X
Track quality 100.0 %
Test CRC C2DFD66C
Copy CRC C2DFD66C
Accurately ripped (confidence 2) [60B1DDBE] (AR v1)
Copy OK

Track 20

Filename C:\EAC Rips\20 - my tales.wav

Pre-gap length 0:00:02.46

Peak level 86.3 %
Extraction speed 9.0 X
Track quality 100.0 %
Test CRC CAFDDDE6
Copy CRC CAFDDDE6
Accurately ripped (confidence 2) [6D4972AE] (AR v1)
Copy OK

All tracks accurately ripped

No errors occurred

End of status report

---- CUETools DB Plugin V2.1.3

[CTDB TOCID: ajwT8MA2X5LJy3U1qYyce3gdWls-] found, Submit result: ajwT8MA2X5LJy3U1qYyce3gdWls- has been confirmed
[0813837d] (2/2) Accurately ripped

==== Log checksum 83A54221901B51C97686F8FC98C3184377AE776074F71D8A4F22339A7FE1448C ====
 
Exact Audio Copy V1.0 beta 3 from 29. August 2011

EAC extraction logfile from 16. July 2012, 22:40

Go Shiina / TALES OF LEGENDIA ORIGINAL SOUNDTRACK (Disc 2)

Used drive : PIONEER DVD-RW DVR-212 Adapter: 0 ID: 2

Read mode : Secure
Utilize accurate stream : Yes
Defeat audio cache : Yes
Make use of C2 pointers : No

Read offset correction : 48
Overread into Lead-In and Lead-Out : No
Fill up missing offset samples with silence : Yes
Delete leading and trailing silent blocks : No
Null samples used in CRC calculations : Yes
Used interface : Native Win32 interface for Win NT & 2000
Gap handling : Appended to previous track

Used output format : User Defined Encoder
Selected bitrate : 1024 kBit/s
Quality : High
Add ID3 tag : No
Command line compressor : C:\Program Files (x86)\FLAC\flac.exe
Additional command line options : -8 -V -T "ARTIST=%artist%" -T "TITLE=%title%" -T "ALBUM=%albumtitle%" -T "DATE=%year%" -T "TRACKNUMBER=%tracknr%" -T "GENRE=%genre%" -T "PERFORMER=%albuminterpret%" -T "COMPOSER=%composer%" %haslyrics%--tag-from-file=LYRICS="%lyricsfile%"%haslyrics% -T "ALBUMARTIST=%albumartist%" -T "ALBUM ARTIST=%albumartist%" -T "DISCNUMBER=%cdnumber%" -T "TOTALDISCS=%totalcds%" -T "TOTALTRACKS=%numtracks%" -T "COMMENT=%comment%" %source% -o %dest%

TOC of the extracted CD

Track | Start | Length | Start sector | End sector
---------------------------------------------------------
1 | 0:00.00 | 4:55.05 | 0 | 22129
2 | 4:55.05 | 3:23.10 | 22130 | 37364
3 | 8:18.15 | 3:24.42 | 37365 | 52706
4 | 11:42.57 | 3:08.10 | 52707 | 66816
5 | 14:50.67 | 2:57.13 | 66817 | 80104
6 | 17:48.05 | 2:07.12 | 80105 | 89641
7 | 19:55.17 | 3:35.13 | 89642 | 105779
8 | 23:30.30 | 3:28.37 | 105780 | 121416
9 | 26:58.67 | 2:42.65 | 121417 | 133631
10 | 29:41.57 | 1:51.03 | 133632 | 141959
11 | 31:32.60 | 3:03.32 | 141960 | 155716
12 | 34:36.17 | 3:52.38 | 155717 | 173154
13 | 38:28.55 | 3:45.42 | 173155 | 190071
14 | 42:14.22 | 1:59.45 | 190072 | 199041
15 | 44:13.67 | 0:43.28 | 199042 | 202294
16 | 44:57.20 | 1:38.70 | 202295 | 209714
17 | 46:36.15 | 0:44.60 | 209715 | 213074
18 | 47:21.00 | 2:01.42 | 213075 | 222191
19 | 49:22.42 | 2:31.60 | 222192 | 233576
20 | 51:54.27 | 3:10.48 | 233577 | 247874
21 | 55:05.00 | 4:22.27 | 247875 | 267551
22 | 59:27.27 | 3:05.00 | 267552 | 281426

Track 1

Filename C:\EAC Rips\01 - A Firefly's Light.wav

Pre-gap length 0:00:02.00

Peak level 95.5 %
Extraction speed 4.9 X
Track quality 100.0 %
Test CRC E8A4C721
Copy CRC E8A4C721
Accurately ripped (confidence 3) [CDAF0239] (AR v1)
Copy OK

Track 2

Filename C:\EAC Rips\02 - Whisper of the Crystal.wav

Pre-gap length 0:00:02.46

Peak level 97.7 %
Extraction speed 5.2 X
Track quality 100.0 %
Test CRC A1DFB2A8
Copy CRC A1DFB2A8
Accurately ripped (confidence 2) [8CB844FF] (AR v1)
Copy OK

Track 3

Filename C:\EAC Rips\03 - Coming Up On 12 O'Clock.wav

Peak level 94.6 %
Extraction speed 5.5 X
Track quality 100.0 %
Test CRC 43772169
Copy CRC 43772169
Accurately ripped (confidence 2) [6DF18C72] (AR v1)
Copy OK

Track 4

Filename C:\EAC Rips\04 - Chasing Shirley.wav

Pre-gap length 0:00:02.46

Peak level 90.6 %
Extraction speed 5.7 X
Track quality 100.0 %
Test CRC B28C25E5
Copy CRC B28C25E5
Accurately ripped (confidence 2) [7E250770] (AR v1)
Copy OK

Track 5

Filename C:\EAC Rips\05 - Short Circuit.wav

Peak level 91.9 %
Extraction speed 5.9 X
Track quality 100.0 %
Test CRC 11C27F0F
Copy CRC 11C27F0F
Accurately ripped (confidence 2) [81C8B796] (AR v1)
Copy OK

Track 6

Filename C:\EAC Rips\06 - Stella.wav

Pre-gap length 0:00:02.46

Peak level 92.2 %
Extraction speed 4.6 X
Track quality 99.9 %
Test CRC 3AFC68EF
Copy CRC 3AFC68EF
Accurately ripped (confidence 2) [91B2C266] (AR v1)
Copy OK

Track 7

Filename C:\EAC Rips\07 - Let's Go!.wav

Pre-gap length 0:00:02.46

Peak level 97.7 %
Extraction speed 6.5 X
Track quality 100.0 %
Test CRC FCD95A11
Copy CRC FCD95A11
Accurately ripped (confidence 2) [89A0E293] (AR v1)
Copy OK

Track 8

Filename C:\EAC Rips\08 - Gentle Big Sister.wav

Pre-gap length 0:00:02.46

Peak level 91.1 %
Extraction speed 5.9 X
Track quality 99.9 %
Test CRC 9ED4CB88
Copy CRC 9ED4CB88
Accurately ripped (confidence 2) [F666BA9D] (AR v1)
Copy OK

Track 9

Filename C:\EAC Rips\09 - Land of Peace.wav

Pre-gap length 0:00:02.46

Peak level 93.5 %
Extraction speed 6.6 X
Track quality 100.0 %
Test CRC A8551EB2
Copy CRC A8551EB2
Accurately ripped (confidence 2) [85323613] (AR v1)
Copy OK

Track 10

Filename C:\EAC Rips\10 - Run to the Middle of the Storm.wav

Pre-gap length 0:00:01.46

Peak level 88.9 %
Extraction speed 6.1 X
Track quality 100.0 %
Test CRC 8DE762CE
Copy CRC 8DE762CE
Accurately ripped (confidence 2) [16C535B6] (AR v1)
Copy OK

Track 11

Filename C:\EAC Rips\11 - TAO -melfes version-.wav

Pre-gap length 0:00:02.46

Peak level 92.2 %
Extraction speed 7.0 X
Track quality 100.0 %
Test CRC EEA3256F
Copy CRC EEA3256F
Accurately ripped (confidence 2) [CEED2D2D] (AR v1)
Copy OK

Track 12

Filename C:\EAC Rips\12 - The Bird Chirps, I Sing.wav

Pre-gap length 0:00:02.42

Peak level 91.1 %
Extraction speed 7.6 X
Track quality 100.0 %
Test CRC 06780102
Copy CRC 06780102
Accurately ripped (confidence 2) [26EB6F2E] (AR v1)
Copy OK

Track 13

Filename C:\EAC Rips\13 - Delkes - Black Wings.wav

Pre-gap length 0:00:02.46

Peak level 97.7 %
Extraction speed 7.8 X
Track quality 100.0 %
Test CRC 4270EDD8
Copy CRC 4270EDD8
Accurately ripped (confidence 2) [10DC4375] (AR v1)
Copy OK

Track 14

Filename C:\EAC Rips\14 - Thank You.wav

Pre-gap length 0:00:02.42

Peak level 51.8 %
Extraction speed 7.0 X
Track quality 100.0 %
Test CRC 390BFD2D
Copy CRC 390BFD2D
Accurately ripped (confidence 2) [79DFF9F4] (AR v1)
Copy OK

Track 15

Filename C:\EAC Rips\15 - Looming Crisis.wav

Peak level 92.7 %
Extraction speed 4.9 X
Track quality 100.0 %
Test CRC EA258FE0
Copy CRC EA258FE0
Accurately ripped (confidence 2) [F1A8E7D5] (AR v1)
Copy OK

Track 16

Filename C:\EAC Rips\16 - Guiding Star.wav

Pre-gap length 0:00:02.46

Peak level 89.4 %
Extraction speed 5.4 X
Track quality 99.8 %
Test CRC 0DA98F13
Copy CRC 0DA98F13
Accurately ripped (confidence 2) [8E84B67B] (AR v1)
Copy OK

Track 17

Filename C:\EAC Rips\17 - A Flower's Name.wav

Peak level 97.7 %
Extraction speed 3.4 X
Track quality 99.7 %
Test CRC 3C157657
Copy CRC 3C157657
Accurately ripped (confidence 2) [4154AD51] (AR v1)
Copy OK

Track 18

Filename C:\EAC Rips\18 - Funeral March.wav

Pre-gap length 0:00:02.44

Peak level 97.7 %
Extraction speed 7.3 X
Track quality 100.0 %
Test CRC B4D40BE7
Copy CRC B4D40BE7
Accurately ripped (confidence 2) [7BED578D] (AR v1)
Copy OK

Track 19

Filename C:\EAC Rips\19 - Let's Talk.wav

Pre-gap length 0:00:02.46

Peak level 97.7 %
Extraction speed 7.9 X
Track quality 100.0 %
Test CRC E5F2648F
Copy CRC E5F2648F
Accurately ripped (confidence 2) [7ED4666B] (AR v1)
Copy OK

Track 20

Filename C:\EAC Rips\20 - Changing Prayers Into Power.wav

Pre-gap length 0:00:02.46

Peak level 97.7 %
Extraction speed 8.1 X
Track quality 100.0 %
Test CRC 6CFDAC54
Copy CRC 6CFDAC54
Accurately ripped (confidence 2) [D7714472] (AR v1)
Copy OK

Track 21

Filename C:\EAC Rips\21 - hotarubi.wav

Pre-gap length 0:00:02.46

Peak level 97.1 %
Extraction speed 8.9 X
Track quality 100.0 %
Test CRC 2D5658CD
Copy CRC 2D5658CD
Accurately ripped (confidence 2) [0F0FE384] (AR v1)
Copy OK

Track 22

Filename C:\EAC Rips\22 - TALES.wav

Pre-gap length 0:00:04.46

Peak level 97.7 %
Extraction speed 8.3 X
Track quality 100.0 %
Test CRC F588486F
Copy CRC F588486F
Accurately ripped (confidence 2) [CB28E102] (AR v1)
Copy OK

All tracks accurately ripped

No errors occurred

End of status report

---- CUETools DB Plugin V2.1.3

[CTDB TOCID: UyaKlPs8On3dfI3TjrImMbNjNOU-] found, Submit result: UyaKlPs8On3dfI3TjrImMbNjNOU- has been confirmed
[36e4ba71] (2/2) Accurately ripped

==== Log checksum 01350B5821A41130A59EB11406783A22E9380E9C2D6C831C84FC7CF45F00E4AE ====
 
Exact Audio Copy V1.0 beta 3 from 29. August 2011

EAC extraction logfile from 16. July 2012, 22:53

Go Shiina / TALES OF LEGENDIA ORIGINAL SOUNDTRACK (Disc 3)

Used drive : PIONEER DVD-RW DVR-212 Adapter: 0 ID: 2

Read mode : Secure
Utilize accurate stream : Yes
Defeat audio cache : Yes
Make use of C2 pointers : No

Read offset correction : 48
Overread into Lead-In and Lead-Out : No
Fill up missing offset samples with silence : Yes
Delete leading and trailing silent blocks : No
Null samples used in CRC calculations : Yes
Used interface : Native Win32 interface for Win NT & 2000
Gap handling : Appended to previous track

Used output format : User Defined Encoder
Selected bitrate : 1024 kBit/s
Quality : High
Add ID3 tag : No
Command line compressor : C:\Program Files (x86)\FLAC\flac.exe
Additional command line options : -8 -V -T "ARTIST=%artist%" -T "TITLE=%title%" -T "ALBUM=%albumtitle%" -T "DATE=%year%" -T "TRACKNUMBER=%tracknr%" -T "GENRE=%genre%" -T "PERFORMER=%albuminterpret%" -T "COMPOSER=%composer%" %haslyrics%--tag-from-file=LYRICS="%lyricsfile%"%haslyrics% -T "ALBUMARTIST=%albumartist%" -T "ALBUM ARTIST=%albumartist%" -T "DISCNUMBER=%cdnumber%" -T "TOTALDISCS=%totalcds%" -T "TOTALTRACKS=%numtracks%" -T "COMMENT=%comment%" %source% -o %dest%

TOC of the extracted CD

Track | Start | Length | Start sector | End sector
---------------------------------------------------------
1 | 0:00.00 | 7:15.32 | 0 | 32656
2 | 7:15.32 | 3:04.63 | 32657 | 46519

Track 1

Filename C:\EAC Rips\01 - The Travellers' Rest.wav

Pre-gap length 0:00:02.00

Peak level 99.2 %
Extraction speed 4.7 X
Track quality 100.0 %
Test CRC F806389C
Copy CRC F806389C
Accurately ripped (confidence 1) [2F2D6513] (AR v1)
Copy OK

Track 2

Filename C:\EAC Rips\02 - An Important Day ~ The Strong Bond With Comrades.wav

Pre-gap length 0:00:02.66

Peak level 73.1 %
Extraction speed 4.9 X
Track quality 100.0 %
Test CRC 2CD67671
Copy CRC 2CD67671
Accurately ripped (confidence 1) [14A72B34] (AR v1)
Copy OK

All tracks accurately ripped

No errors occurred

End of status report

---- CUETools DB Plugin V2.1.3

[CTDB TOCID: xk1gK8Y1hX7zN110UHSHw_2aiNc-] found, Submit result: xk1gK8Y1hX7zN110UHSHw_2aiNc- has been confirmed
[6a1e75a4] (2/2) Accurately ripped

==== Log checksum B623990FB048FE1D4439E97966DB15D3AAB14D84CE183AD8AF94024CA3814892 ====
-Music Credits-

Lyrics - Compose - Arrange: Go Shiina (NAMCO) excluding "TAO"

Strings: NAOTO string
(Naoto Takahashi
Mikiko Ise, Osamu Iyoku, Takayuki Oshikane, Yuko Kajitani
Misato Maruyama, Leina Ushiyama, Koichiro Muroya, Kiyo Kido
Kana Moriya, Yu Manabe, Makoto Osawa, Satoki Nagaoka
Kazuhiro Tanabe, Yuki Nanjo, Kaori Banba, Daisuke Kadowaki)

Trumpet: Shiro Sasaki, Naoki Umeda
Horn: Kensho Hagiwara
Oboe: Keiko Narita
Vocal: Nathan Ingram III
Violin: Yu Manabe
Cello: Masutami Endo
Erhu: Kenji Yamahira
Piano & Keyboard Harmonica & Flute: Tadasuke
Guitar: Shunji Takenaka
Bass & Sax: Jesahm(NAMCO)
Drums: Takashi Saito

Vocal:
Kanon (109, 212), Donna Burke (120, 221), Gab Desmond (120), Mayumi Sudo (201), Nathan Ingram III (212), Suzukake Children's Choir (219)

Chorus: Kaleb James, Paula Johnson, Argie Phine
Gary Adkins, Maki Watanabe, Haruhisa Ichinose, Mayumi Sudou

Choir: Isamu Ishizuka, Atsuko Okawa, Yukiko Kawamata, Shin Sugie
Akio Hayama, Hiroko Hayama, Mayumi Makino

Orchestra: New Japan Philharmonic
(disc1-02,11/disc2-13,18,20,22)

Conductor: Taizo Takemoto

Orchestrator: Hironori Osone, Natsumi Kameoka
Orchestration Supervisor: Akio Naraoka
Transcription Supervisor: Masato Kouchi

Orchestra Recording Engineer:
Masaki Takamura, Takashi Irisa, Keiko Kizawa, Shinichi Yanadori
Keishi Hirakawa, Tomomi Nishizaki, Shigeharu Nakauchi

Concert Master: Jun Tsujii

1st-Violin:
Mariko Aikawa, Momoko Inagaki, Ena Kuroda, Kazuyoshi Sawada, Hayato Takenaka
Naotaka Tamura, Masamichi Hara, Kenji Magaki, Makiko Matsumiya
Sachiko Yamaguchi, Ayumi Tamura, Yukako Funahashi, Makiko Murakoshi

2nd-Violin:
Satomi Tomatsu, Asami Tamura, Hatsumi Ishida, Mio Unosawa
Hidekazu Shinohara, Yoshie Sunahata, Fumiko Nakagawa, Eiji Nakaya
Mari Fukaya, Kanae Shima

Viola:
Keiko Kimura, Nao Kaneko, Kaori Iwai, Noriko Karaki
Takaaki Hara, Yoko Mase, Reiko Yanami, Ai Takayama

Cello:
Kaoru Hanazaki, Shozo Kaibara, Reo Tada, Tohru Hirota
Yutaka Morizawa, Akiko Yano

Contrabass:
Tsutomu Takeda, Tatsuya Anpo, Tsunefumi Ishida, Yoshihito Hiroshima
Yuko Muramatsu, Koichi Morizono

Flute: Akira Shirao, Kenji Wada, Yasushi Watanabe
Oboe: Ken-ichi Furube, Hidetaka Nanasawa, Shinsaku Tokuda
Clarinet: Kimie Shigematsu, Yasue Sawamura, Akira Ueki
Fagot: Motoko Kawamura, Akira Ishikawa, Akemi Takahashi
Horn: Masato Yoshinaga, Shozo Aida, Noriki Kaneko, Masaki Tanaka
Trumpet: Takaya Hattori, Kazuhiko Ichikawa, Shigeo Ohkura
Trombone: Hisato Yamaguchi, Kou Okumura, Sakon Ishihara
Tuba: Kazuhiko Sato
Timpani: Tatsuya Kawase
Percussion: Hikaru Kojima, Koya Nakatani, Toru Yamada, Junko Naka
Harp: Yuko Yamaguchi, Midori Tajima
Piano: Ryuta Suzuki
Stage Manager: Kiyoaki Naruse, Hideaki Iino

"TAO"
- words Psycho Kawamura
- music D-A-I
- arrangement Do As Infinity / Seiji Kameda

"TAO -melfes version-" arrangement NAMCO (arrangement staff: Go Shiina)

DRAMA ACTOR & ACTRESS (for Disk 3)

Senel Coolidge Kenichi Suzumura
Shirley Fennes Ryo Hirohashi
Will Raynerd Susumu Chiba
Chloe Valens Masumi Asano
Norma Biatty Kaori Mizuhashi
Jay Ryoko Shiraishi

info [Профиль]  [ЛС] 
Показать сообщения:    
Ответить на тему

Текущее время: 14-Дек 20:08

Часовой пояс: GMT + 4



Вы не можете начинать темы
Вы не можете отвечать на сообщения
Вы не можете редактировать свои сообщения
Вы не можете удалять свои сообщения
Вы не можете голосовать в опросах
Вы не можете прикреплять файлы к сообщениям
Вы не можете скачивать файлы