Ошибка

(Post-Grunge / Hard Rock / Pop Rock) Theory of a Deadman - Дискография (Restored, Declipped Version) (8 CD) - 2002-2017 г., FLAC (tracks), lossless

Ответить на тему
 
Автор Сообщение

Hobbit38

Пол: Пол:Муж

Стаж: 4 года 7 месяцев

Сообщений: 764

Предупреждений: 1

Россия
Рейтинг

post 13-Ноя-2018 14:00 0[+]

[Цитировать] 


Theory of a Deadman - Дискография
Restored, Declipped Version
Жанр: Post-Grunge / Hard Rock / Pop Rock | Страна: USA | Год выпуска: 2002-2017

Автор обработки Restored, Declipped Version: Лисной Йожыг

Аудиокодек: FLAC (.flac) | Тип рипа: tracks | Битрейт аудио: lossless

Полиграфия: Отсутствует | Продолжительность: 06:04:44

Автор Обработки: Лисной Йожыг

Обработка: Adobe Audition с плагинами Stereo Tool (Perfect Declipper, Natural Dynamics), Fabfilter Pro-L, Sonible Proximity EQ.

Мониторинг результата:
Стационарная аппаратура: NAD D 1050 + Beyerdynamic DT 990 Pro и Rotel RA-10 + Jamo C603
Мобильная аппаратура: Meizu MX2 + Sennheiser CX 980

Примечание: Деклиппинг и восстановление динамического диапазона - не панацея от некачественной записи. Целью реставрации является меньшая усталость при прослушивании, и звучание, приближенное к тому, которое задумывалось звукорежиссером, до вмешательства маркетологов.

Материалы по теме "Война громкости": 1, 2, 3, 4

01. Invisible Man (2:42)
02. Nothing Could Come Between Us (3:25)
03. Make Up Your Mind (4:02)
04. Point to Prove (3:39)
05. Leg to Stand On (3:27)
06. What You Deserve (4:01)
07. The Last Song (4:28)
08. Say I`m Sorry (3:16)
09. Any Other Way (3:47)
10. Confession (4:00)
11. Above This [bonus track] (2:15)
12. Inside [bonus track] (3:09)
13. Midnight Rider [Allman Brothers Band cover] [bonus track] (3:10)
Исходное издание: Roadrunner Records ‎– RR 8442-2
Обработка: Проведены деклиппинг и декомпрессия.




Код:

foobar2000 1.3.9 / Замер динамического диапазона (DR) 1.1.1
Дата отчёта: 2017-12-01 12:38:51

--------------------------------------------------------------------------------
Анализ:   Theory of a Deadman / Theory of a Deadman
--------------------------------------------------------------------------------

DR         Пики          RMS        Продолжительность трека
--------------------------------------------------------------------------------
DR11      -0.55 дБ   -12.21 дБ      2:42 1-Invisible Man
DR11      -0.60 дБ   -13.04 дБ      3:25 2-Nothing Could Come Between Us
DR11      -0.59 дБ   -13.34 дБ      4:02 3-Make Up Your Mind
DR11      -0.56 дБ   -12.53 дБ      3:39 4-Point to Prove
DR11      -0.50 дБ   -12.02 дБ      3:27 5-Leg to Stand On
DR11      -0.89 дБ   -13.01 дБ      4:01 6-What You Deserve
DR11      -1.50 дБ   -14.15 дБ      4:28 7-The Last Song
DR11      -0.86 дБ   -13.30 дБ      3:16 8-Say I`m Sorry
DR11      -0.61 дБ   -13.17 дБ      3:47 9-Any Other Way
DR11      -0.75 дБ   -12.68 дБ      4:00 10-Confession
DR11      -0.50 дБ   -12.52 дБ      2:15 11-Above This [bonus track]
DR12      -0.51 дБ   -13.73 дБ      3:09 12-Inside [bonus track]
DR11      -0.50 дБ   -13.26 дБ      3:10 13-Midnight Rider [Allman Brothers Band cover] [bonus track]
--------------------------------------------------------------------------------

Количество треков: 13
Реальные значения DR: DR11

Частота:  44100 Гц
Каналов:  2
Разрядность:   16
Битрейт:  883 кбит/с
Кодек:   FLAC
01. Hating Hollywood (3:26)
02. No Way Out (3:29)
03. No Surprise (3:40)
04. Quiver (2:51)
05. Santa Monica (4:07)
06. Better Off (2:51)
07. Say Goodbye (3:05)
08. Hello Lonely (Walk Away from This) (4:22)
09. Me & My Girl (3:40)
10. Since You've Been Gone (4:19)
11. Hell Just Ain't the Same (1:05)
12. Save the Best for Last (4:15)
13. In the Middle (3:36)
14. Lynchburg Lemonade (Southern Days) [bonus track] (3:32)
15. Got Me Wrong [Alice in Chains cover] [bonus track] (4:30)
16. What's Your Name [Lynyrd Skynyrd Cover] [bonus track] (3:31)
Исходное издание: 604 Records ‎– 2539600062
Обработка: Проведены деклиппинг и декомпрессия.




Код:

foobar2000 1.3.9 / Замер динамического диапазона (DR) 1.1.1
Дата отчёта: 2017-12-22 13:24:16

--------------------------------------------------------------------------------
Анализ:   Theory of a Deadman / Gasoline
--------------------------------------------------------------------------------

DR         Пики          RMS        Продолжительность трека
--------------------------------------------------------------------------------
DR11      -0.51 дБ   -12.88 дБ      3:26 1-Hating Hollywood
DR11      -0.52 дБ   -12.99 дБ      3:29 2-No Way Out
DR11      -0.53 дБ   -13.42 дБ      3:40 3-No Surprise
DR11      -1.05 дБ   -12.75 дБ      2:51 4-Quiver
DR12      -0.74 дБ   -14.11 дБ      4:07 5-Santa Monica
DR11      -0.50 дБ   -12.87 дБ      2:51 6-Better Off
DR11      -0.51 дБ   -13.28 дБ      3:05 7-Say Goodbye
DR11      -0.72 дБ   -13.49 дБ      4:22 8-Hello Lonely (Walk Away from This)
DR11      -0.83 дБ   -13.26 дБ      3:40 9-Me & My Girl
DR12      -0.84 дБ   -14.15 дБ      4:19 10-Since You've Been Gone
DR10      -6.48 дБ   -19.07 дБ      1:05 11-Hell Just Ain't the Same
DR11      -0.79 дБ   -13.26 дБ      4:15 12-Save the Best for Last
DR11      -1.45 дБ   -15.35 дБ      3:36 13-In the Middle
DR10      -1.50 дБ   -12.55 дБ      3:32 14-Lynchburg Lemonade (Southern Days) [bonus track]
DR13      -0.08 дБ   -14.23 дБ      4:30 15-Got Me Wrong [Alice in Chains cover] [bonus track]
DR11      -0.50 дБ   -13.42 дБ      3:31 16-What's Your Name [Lynyrd Skynyrd Cover] [bonus track]
--------------------------------------------------------------------------------

Количество треков: 16
Реальные значения DR: DR11

Частота:  44100 Гц
Каналов:  2
Разрядность:   16
Битрейт:  924 кбит/с
Кодек:   FLAC
01. So Happy (4:12)
02. By the Way (3:35)
03. Got It Made (3:15)
04. Not Meant to Be (3:34)
05. Crutch (3:17)
06. All or Nothing (3:31)
07. Heaven (Little by Little) (4:20)
08. Bad Girlfriend (3:26)
09. Hate My Life (3:11)
10. Little Smirk (3:32)
11. End of the Summer (3:30)
12. Wait for Me (4:03)
13. Sacrifice (2:56)
14. Great Pretender [bonus track] (3:40)
15. Shadow [bonus track] (3:49)
16. So Happy [acoustic] [bonus track] (4:11)
17. By the Way [acoustic] [bonus track] (3:33)
18. Not Meant to Be [acoustic] [bonus track] (3:30)
Исходное издание: Roadrunner Records ‎– 1686-180095
Обработка: Проведены деклиппинг и декомпрессия.




Код:

foobar2000 1.3.9 / Замер динамического диапазона (DR) 1.1.1
Дата отчёта: 2017-12-22 13:40:36

--------------------------------------------------------------------------------
Анализ:   Theory of a Deadman / Scars & Souvenirs
--------------------------------------------------------------------------------

DR         Пики          RMS        Продолжительность трека
--------------------------------------------------------------------------------
DR11      -0.99 дБ   -13.43 дБ      4:12 1-So Happy
DR10      -0.79 дБ   -13.02 дБ      3:35 2-By the Way
DR10      -1.47 дБ   -13.16 дБ      3:15 3-Got It Made
DR11      -1.04 дБ   -13.84 дБ      3:34 4-Not Meant to Be
DR11      -1.26 дБ   -12.84 дБ      3:17 5-Crutch
DR11      -1.28 дБ   -14.29 дБ      3:31 6-All or Nothing
DR11      -1.23 дБ   -13.79 дБ      4:20 7-Heaven (Little by Little)
DR11      -0.50 дБ   -12.39 дБ      3:26 8-Bad Girlfriend
DR11      -1.12 дБ   -14.46 дБ      3:11 9-Hate My Life
DR11      -1.28 дБ   -13.34 дБ      3:32 10-Little Smirk
DR11      -0.59 дБ   -13.23 дБ      3:30 11-End of the Summer
DR11      -1.21 дБ   -14.43 дБ      4:03 12-Wait for Me
DR11      -0.81 дБ   -13.11 дБ      2:56 13-Sacrifice
DR11      -1.42 дБ   -13.73 дБ      3:40 14-Great Pretender [bonus track]
DR12      -1.41 дБ   -14.71 дБ      3:49 15-Shadow [bonus track]
DR12      -2.91 дБ   -18.48 дБ      4:11 16-So Happy [acoustic] [bonus track]
DR12      -3.61 дБ   -17.95 дБ      3:33 17-By the Way [acoustic] [bonus track]
DR11      -3.53 дБ   -16.57 дБ      3:30 18-Not Meant to Be [acoustic] [bonus track]
--------------------------------------------------------------------------------

Количество треков: 18
Реальные значения DR: DR11

Частота:  44100 Гц
Каналов:  2
Разрядность:   16
Битрейт:  977 кбит/с
Кодек:   FLAC
01. Lowlife (3:26)
02. Bitch Came Back (3:39)
03. Hurricane (4:17)
04. Out of My Head (3:58)
05. Gentleman (3:29)
06. Love Is Hell (3:31)
07. The Truth Is... (I Lied About Everything) (3:28)
08. Head Above Water (3:32)
09. Drag Me to Hell (3:55)
10. What Was I Thinking (3:50)
11. Easy to Love You (4:20)
12. We Were Men (4:49)
13. Careless [bonus track] (3:37)
14. Does It Really Matter [bonus track] (3:41)
15. Villain [bonus track] (3:04)
16. Better or Worse [bonus track] (4:22)
17. Out of My Head [acoustic] [bonus track] (3:54)
18. Easy to Love You [acoustic] [bonus track] (4:19)
Исходное издание: Roadrunner Records ‎– RR-7729-5
Обработка: Проведены деклиппинг и декомпрессия.




Код:

foobar2000 1.3.9 / Замер динамического диапазона (DR) 1.1.1
Дата отчёта: 2017-12-22 13:45:03

--------------------------------------------------------------------------------
Анализ:   Theory of a Deadman / The Truth Is...
--------------------------------------------------------------------------------

DR         Пики          RMS        Продолжительность трека
--------------------------------------------------------------------------------
DR11      -0.61 дБ   -12.96 дБ      3:26 1-Lowlife
DR11      -0.58 дБ   -13.18 дБ      3:39 2-Bitch Came Back
DR11      -0.98 дБ   -14.45 дБ      4:17 3-Hurricane
DR12      -1.16 дБ   -14.37 дБ      3:58 4-Out of My Head
DR12      -0.68 дБ   -13.76 дБ      3:29 5-Gentleman
DR11      -1.05 дБ   -13.98 дБ      3:31 6-Love Is Hell
DR12      -0.88 дБ   -13.92 дБ      3:28 7-The Truth Is... (I Lied About Everything)
DR11      -0.96 дБ   -13.29 дБ      3:32 8-Head Above Water
DR12      -0.84 дБ   -13.84 дБ      3:55 9-Drag Me to Hell
DR11      -0.97 дБ   -14.39 дБ      3:50 10-What Was I Thinking
DR12      -0.74 дБ   -13.88 дБ      4:20 11-Easy to Love You
DR11      -0.84 дБ   -13.29 дБ      4:49 12-We Were Men
DR12      -0.89 дБ   -13.44 дБ      3:37 13-Careless [bonus track]
DR11      -0.97 дБ   -13.92 дБ      3:41 14-Does It Really Matter [bonus track]
DR13      -0.91 дБ   -15.10 дБ      3:04 15-Villain [bonus track]
DR11      -1.01 дБ   -14.03 дБ      4:22 16-Better or Worse [bonus track]
DR11      -2.37 дБ   -14.77 дБ      3:54 17-Out of My Head [acoustic] [bonus track]
DR11      -1.55 дБ   -13.93 дБ      4:19 18-Easy to Love You [acoustic] [bonus track]
--------------------------------------------------------------------------------

Количество треков: 18
Реальные значения DR: DR11

Частота:  44100 Гц
Каналов:  2
Разрядность:   16
Битрейт:  965 кбит/с
Кодек:   FLAC
01. Drown (3:42)
02. Blow (3:36)
03. Savages [feat. Alice Cooper] (3:33)
04. Misery of Mankind (3:24)
05. Salt in the Wound (3:38)
06. Angel (3:22)
07. Heavy (3:03)
08. Panic Room (3:14)
09. The One (3:58)
10. Livin' My Life Like a Country Song [feat. Joe Don Rooney] (3:20)
11. World War Me (3:15)
12. In Ruins (3:19)
13. The Sun Has Set On Me (5:21)
Исходное издание: Roadrunner Records ‎– 1686-175632
Обработка: Проведены деклиппинг и декомпрессия.




Код:

foobar2000 1.3.9 / Замер динамического диапазона (DR) 1.1.1
Дата отчёта: 2017-12-22 13:54:46

--------------------------------------------------------------------------------
Анализ:   Theory of a Deadman / Savages
--------------------------------------------------------------------------------

DR         Пики          RMS        Продолжительность трека
--------------------------------------------------------------------------------
DR12      -1.24 дБ   -14.99 дБ      3:42 1-Drown
DR12      -0.87 дБ   -14.43 дБ      3:36 2-Blow
DR11      -0.61 дБ   -13.28 дБ      3:33 3-Savages [feat. Alice Cooper]
DR12      -0.71 дБ   -13.75 дБ      3:24 4-Misery of Mankind
DR12      -0.80 дБ   -13.95 дБ      3:38 5-Salt in the Wound
DR12      -1.37 дБ   -15.04 дБ      3:22 6-Angel
DR12      -0.51 дБ   -13.35 дБ      3:03 7-Heavy
DR12      -0.47 дБ   -14.08 дБ      3:14 8-Panic Room
DR11      -3.49 дБ   -18.20 дБ      3:58 9-The One
DR12      -0.48 дБ   -14.66 дБ      3:20 10-Livin' My Life Like a Country Song [feat. Joe Don Rooney]
DR12      -0.78 дБ   -13.58 дБ      3:15 11-World War Me
DR12      -0.93 дБ   -14.50 дБ      3:19 12-In Ruins
DR12      -0.68 дБ   -14.67 дБ      5:21 13-The Sun Has Set On Me
--------------------------------------------------------------------------------

Количество треков: 13
Реальные значения DR: DR12

Частота:  44100 Гц
Каналов:  2
Разрядность:   16
Битрейт:  959 кбит/с
Кодек:   FLAC
01. Angel [acoustic] (3:22)
02. Santa Monica [acoustic] (4:08)
03. Habits (Stay High) [acoustic] (3:34)
04. Not Meant to Be [acoustic] (3:31)
05. The One [acoustic] (4:14)
Исходное издание: WEA Roadrunner
Обработка: Проведены деклиппинг и декомпрессия.




Код:

foobar2000 1.3.9 / Замер динамического диапазона (DR) 1.1.1
Дата отчёта: 2018-02-01 16:18:56

--------------------------------------------------------------------------------
Анализ:   Theory of A Deadman / Angel Acoustic (1-2)
          Theory of a Deadman / Angel Acoustic (3-5)
--------------------------------------------------------------------------------

DR         Пики          RMS        Продолжительность трека
--------------------------------------------------------------------------------
DR11      -0.50 дБ   -13.41 дБ      3:22 1-Angel [acoustic]
DR9       -2.03 дБ   -13.45 дБ      4:08 2-Santa Monica [acoustic]
DR12      -1.56 дБ   -15.72 дБ      3:34 3-Habits (Stay High) [acoustic]
DR11      -1.23 дБ   -14.84 дБ      3:31 4-Not Meant to Be [acoustic]
DR11      -2.72 дБ   -15.56 дБ      4:14 5-The One [acoustic]
--------------------------------------------------------------------------------

Количество треков: 5
Реальные значения DR: DR11

Частота:  44100 Гц
Каналов:  2
Разрядность:   16
Битрейт:  906 кбит/с
Кодек:   FLAC
01. Straight Jacket (4:01)
02. Rx (Medicate) (3:53)
03. Echoes (3:58)
04. Wake Up Call (3:55)
05. PCH (3:36)
06. G.O.A.T (4:09)
07. Loner (3:37)
08. Time Machine (2:56)
09. Glass Jaw (3:53)
10. Po Mouth (3:34)
11. Wicked Game [Chris Isaak cover] (3:40)
Исходное издание: Atlantic ‎– none
Обработка: Проведены деклиппинг и декомпрессия.




Код:

foobar2000 1.3.9 / Замер динамического диапазона (DR) 1.1.1
Дата отчёта: 2017-12-22 13:59:33

--------------------------------------------------------------------------------
Анализ:   Theory of a Deadman / Wake Up Call
--------------------------------------------------------------------------------

DR         Пики          RMS        Продолжительность трека
--------------------------------------------------------------------------------
DR11      -0.68 дБ   -13.53 дБ      4:01 1-Straight Jacket
DR12      -0.73 дБ   -14.32 дБ      3:53 2-Rx (Medicate)
DR10      -0.92 дБ   -13.35 дБ      3:58 3-Echoes
DR11      -0.72 дБ   -14.31 дБ      3:55 4-Wake Up Call
DR11      -0.82 дБ   -14.07 дБ      3:36 5-PCH
DR11      -0.86 дБ   -13.75 дБ      4:09 6-G.O.A.T
DR10      -0.73 дБ   -12.88 дБ      3:37 7-Loner
DR11      -0.88 дБ   -14.92 дБ      2:56 8-Time Machine
DR10      -0.78 дБ   -13.13 дБ      3:53 9-Glass Jaw
DR11      -0.80 дБ   -13.76 дБ      3:34 10-Po Mouth
DR10      -1.05 дБ   -15.78 дБ      3:40 11-Wicked Game [Chris Isaak cover]
--------------------------------------------------------------------------------

Количество треков: 11
Реальные значения DR: DR11

Частота:  44100 Гц
Каналов:  2
Разрядность:   16
Битрейт:  854 кбит/с
Кодек:   FLAC

Cold Water (3:03)
Deadly Game (3:10)
Fake (3:33)
Hallelujah [Leonard Cohen cover] (4:44)
No Chance in Hell (2:56)
Shape of My Heart [Sting cover] (4:39)
Обработка: Проведены деклиппинг и декомпрессия.
Примечание: Данные треки взяты из разных мест. В тегах указана дополнительная информация.

info [Профиль]  [ЛС] 
Показать сообщения:    
Ответить на тему

Текущее время: 16-Дек 06:34

Часовой пояс: GMT + 4



Вы не можете начинать темы
Вы не можете отвечать на сообщения
Вы не можете редактировать свои сообщения
Вы не можете удалять свои сообщения
Вы не можете голосовать в опросах
Вы не можете прикреплять файлы к сообщениям
Вы не можете скачивать файлы