Ошибка

Пылающий / Burning (Ли Чхан-дон) [2018, детектив, триллер, драма, WEB-DL 1080p] [iTunes]

Ответить на тему
 
Автор Сообщение

DENZEL519

Пол: Пол:Муж

Стаж: 7 лет 5 месяцев

Сообщений: 2384

СССР
Рейтинг

post 04-Сен-2018 21:33 2[+]

[Цитировать] 

Пылающий / Burning
«У каждого есть своя тайна»

Год выпуска: 2018
Страна: Корея Южная
Жанр: детектив, триллер, драма
Продолжительность: 02:28:07
Перевод: Дублированный [iTunes]
Субтитры: Нет
Режиссер: Ли Чхан-дон
Сценарий: О Джон-ми, Ли Чхан-дон, Харуки Мураками
Продюсер: Ли Джун-дон, Ли Чхан-дон, Ок Кван-хи
Оператор: Хон Гён-пхё
Композитор: Моуг
Художник: Щин Джом-хи, Ли Чхун-ён
Монтаж: Ким Хён, Ким Да-вон
В ролях: Ю А-ин (Lee Jong-soo), Чон Джон-со (Shin Hae-mi), Стивен Ян (Ben), Ким Су-гён (Yeon-joo), Чхве Сын-хо (Yong-seok), Мун Сон-гын (Lawyer), Мин Бок-ки (Judge), Пан Хе-ра (Jong-soo's mom), Ли Бон-нён (Hae-mi's sister), Пак Сын-тхэ (Landlady), Пэ Мин-джон (Temporary shop model/dancer), Чан Вон-хён (Won-hyeong)



Описание: Молодой писатель Джонсу встречает старую знакомую, с которой они вместе росли. В ее жизни многое изменилось, и теперь перед ее очарованием сложно устоять. В поисках себя девушка отправляется в Африку и возвращается оттуда с новым другом по имени Бен. Бен — современный Гэтсби, у него нет изъянов, зато есть необычное хобби, узнав о котором, Джонсу лишается покоя.


Качество: WEB-DL 1080p
Формат: MKV
Видео кодек: AVC
Аудио кодек: AC3
Видео: 1908x792 (2.40:1), 23.976 fps, AVC, 4 433 Kbps
Аудио: Аудио #1: AC3, 384 Kbps, 48.0 KHz, 6 ch [Rus]


Код:

General
Unique ID                                : 226530966404897350918403976655570826801 (0xAA6C46F3800852FC9E1708E21D317631)
Complete name                            : PilayushijWEB-DL1080p.mkv
Format                                   : Matroska
Format version                           : Version 4 / Version 2
File size                                : 5.08 GiB
Duration                                 : 2h 28mn
Overall bit rate                         : 4 915 Kbps
Encoded date                             : UTC 2018-09-04 12:29:04
Writing application                      : mkvmerge v9.5.0 ('Quiet Fire') 64bit
Writing library                          : libebml v1.3.4 + libmatroska v1.4.5
DURATION                                 : 02:28:07.008000000
NUMBER_OF_FRAMES                         : 277719
NUMBER_OF_BYTES                          : 426576384
_STATISTICS_WRITING_APP                  : mkvmerge v9.5.0 ('Quiet Fire') 64bit
_STATISTICS_WRITING_DATE_UTC             : 2018-09-04 12:29:04
_STATISTICS_TAGS                         : BPS DURATION NUMBER_OF_FRAMES NUMBER_OF_BYTES

Video
ID                                       : 1
Format                                   : AVC
Format/Info                              : Advanced Video Codec
Format profile                           : High@L4.0
Format settings, CABAC                   : Yes
Format settings, ReFrames                : 5 frames
Codec ID                                 : V_MPEG4/ISO/AVC
Duration                                 : 2h 28mn
Bit rate                                 : 4 433 Kbps
Width                                    : 1 908 pixels
Height                                   : 792 pixels
Display aspect ratio                     : 2.40:1
Frame rate mode                          : Constant
Frame rate                               : 23.976 fps
Color space                              : YUV
Chroma subsampling                       : 4:2:0
Bit depth                                : 8 bits
Scan type                                : Progressive
Bits/(Pixel*Frame)                       : 0.122
Stream size                              : 4.59 GiB (90%)
Language                                 : English
Default                                  : Yes
Forced                                   : No
Color primaries                          : BT.709
Transfer characteristics                 : BT.709
Matrix coefficients                      : BT.709

Audio
ID                                       : 2
Format                                   : AC-3
Format/Info                              : Audio Coding 3
Mode extension                           : CM (complete main)
Format settings, Endianness              : Big
Codec ID                                 : A_AC3
Duration                                 : 2h 28mn
Bit rate mode                            : Constant
Bit rate                                 : 384 Kbps
Channel(s)                               : 6 channels
Channel positions                        : Front: L C R, Side: L R, LFE
Sampling rate                            : 48.0 KHz
Bit depth                                : 16 bits
Compression mode                         : Lossy
Stream size                              : 407 MiB (8%)
Language                                 : Russian
Default                                  : Yes
Forced                                   : No

Menu
00:00:00.000                             : en:1
00:02:42.000                             : en:2
00:11:45.000                             : en:3
00:22:01.000                             : en:4
00:31:41.000                             : en:5
00:43:19.000                             : en:6
00:53:52.000                             : en:7
01:02:24.000                             : en:8
01:12:58.000                             : en:9
01:21:33.000                             : en:10
01:32:06.000                             : en:11
01:42:57.000                             : en:12
01:51:12.000                             : en:13
02:05:41.000                             : en:14
02:14:28.000                             : en:15
02:25:00.000                             : en:16

» На 71-м Каннском кинофестивале фильм получил самые высокие оценки критиков.

» Кан Дон-вону была предложена главная роль, но он отклонил предложение.

Сборы в мире: $4 401 181 сборы
Сборы в России: $218 918
Зрители: Корея Южная 528 тыс., Россия 50.8 тыс.
Премьера (мир): 16 мая 2018
Премьера (РФ): 5 июля 2018



© Оформление by DENZEL519 for http://tapochek.net

info [Профиль]  [ЛС] 

Doctor Net

Пол: Пол:Муж

Стаж: 9 лет 5 месяцев

Сообщений: 919

Россия
Рейтинг

post 05-Сен-2018 16:24 (спустя 18 часов) [-]-21[+]

[Цитировать] 

Раз у фильма есть дубляж, то можно настроить себя на то, что в фильм про якутов и всё пойдёт как по маслу.
info [Профиль]  [ЛС] 

ktatatam

Пол: Пол:Муж

Стаж: 9 лет 8 месяцев

Сообщений: 31

Россия
Рейтинг

post 05-Сен-2018 18:08 (спустя 1 час 43 минуты) [-]8[+]

[Цитировать] 

Doctor Net
какую-то хрень сморозил
info [Профиль]  [ЛС] 

azunai

Пол: Пол:Муж

Стаж: 7 лет 5 месяцев

Сообщений: 186

Предупреждений: 1

Россия
Рейтинг

post 05-Сен-2018 19:43 (спустя 1 час 34 минуты) [-]-2[+]

[Цитировать] 

Ходил в кино. Жена хотела посмотреть на чувака из ходячих. Фильм редкий артхаус. Не ищите там смысл.
info [Профиль]  [ЛС] 

maikl7

Пол: Пол:Муж

Стаж: 6 лет 5 месяцев

Сообщений: 210

Россия
Рейтинг

post 05-Сен-2018 22:33 (спустя 2 часа 50 минут) [-]2[+]

[Цитировать] 

Цитата:

Кан Дон-вону была предложена главная роль, но он отклонил предложение.
Ещё бы знать, кто такой Кан Дон-вон, чтобы интересоваться тем, что ему предложили роль, но он отказался Улыбаюсь)))))
info [Профиль]  [ЛС] 

sweetchiba

Пол: Пол:Муж

Стаж: 8 лет 9 месяцев

Сообщений: 7

Россия
Рейтинг

post 05-Сен-2018 22:57 (спустя 24 минуты) [-]3[+]

[Цитировать] 

Ах он Кан Дон-вон какой Улыбаюсь
info [Профиль]  [ЛС] 

zavyaloff

Стаж: 9 лет 8 месяцев

Сообщений: 44

Россия
Рейтинг

post 06-Сен-2018 22:21 (спустя 23 часа) [-]0[+]

[Цитировать] 

Роскошный фильм! Ходил в кино, почти 3 часа медитативного кайфа)
info [Профиль]  [ЛС] 

Jason Parker

Пол: Пол:Муж

Стаж: 4 года

Сообщений: 164

Россия
Рейтинг

post 07-Сен-2018 19:29 (спустя 21 час) [-]0[+]

[Цитировать] 

Отличный фильм.
info [Профиль]  [ЛС] 
Показать сообщения:    
Ответить на тему

Текущее время: 19-Дек 06:33

Часовой пояс: GMT + 4



Вы не можете начинать темы
Вы не можете отвечать на сообщения
Вы не можете редактировать свои сообщения
Вы не можете удалять свои сообщения
Вы не можете голосовать в опросах
Вы не можете прикреплять файлы к сообщениям
Вы не можете скачивать файлы