Ошибка
Загрузка...

(Score) Гарри Поттер / Harry Potter (by John Williams, Patrick Doyle, Nicholas Hooper, Alexandre Desplat) - 2001-2011 г., FLAC (tracks), lossless

Ответить на тему
 
Автор Сообщение

Hobbit38

Пол: Пол:Муж

Стаж: 4 года 4 месяца

Сообщений: 651

Россия
Рейтинг

post 30-Апр-2018 14:07 0[+]

[Цитировать] 


Гарри Поттер / Harry Potter
Жанр: Score | Годы выпуска дисков: 2001-2011

Производители дисков: Atlantic / Wea, Warner Bros / Wea, Watertower Music

Аудио кодек: FLAC | Тип рипа: tracks | Битрейт аудио: lossless

Продолжительность: 10:15:57

Гарри Поттер и Философский камень / Harry Potter and the Sorcerer's Stone
Композитор: John Williams
Год выпуска диска: 2001
Продолжительность: 01:13:34

01. Prologue [02:12]
02. Harry's Wondrous World [05:21]
03. The Arrival of Baby Harry [04:25]
04. Visit to the Zoo - Letters from Hogwarts [03:22]
05. Diagon Alley - The Gringotts Vault [04:06]
06. Platform Nine-and-Three-Quarters - The Journey to Hogwarts [03:14]
07. Entry Into The Great Hall And The Banquet [03:42]
08. Mr. Longbottom Flies [03:35]
09. Hogwarts Forever! - The Moving Stairs [03:46]
10. The Norwegian Ridgeback - A Change of Season [02:47]
11. The Quidditch Match [08:28]
12. Christmas at Hogwarts [02:56]
13. The Invisibility Cloak - The Library Scene [03:15]
14. Fluffy's Harp [02:38]
15. In the Devil's Snare - The Flying Keys [02:20]
16. The Chess Game [03:48]
17. The Face of Voldemort [06:10]
18. Leaving Hogwarts [02:13]
19. Hedwig's Theme [05:09]
 
Exact Audio Copy V0.99 prebeta 4 from 23. January 2008

EAC extraction logfile from 17. June 2008, 17:06

Williams, John / Harry Potter and the Sorcerer's Stone

Used drive : TSSTcorpDVD-ROM TS-H352C Adapter: 1 ID: 1

Read mode : Secure
Utilize accurate stream : Yes
Defeat audio cache : Yes
Make use of C2 pointers : No

Read offset correction : 6
Overread into Lead-In and Lead-Out : No
Fill up missing offset samples with silence : Yes
Delete leading and trailing silent blocks : No
Null samples used in CRC calculations : Yes
Used interface : Installed external ASPI interface
Gap handling : Appended to previous track

Used output format : User Defined Encoder
Selected bitrate : 192 kBit/s
Quality : High
Add ID3 tag : No
Command line compressor : C:\Program Files\FLAC\flac.exe
Additional command line options : -8 -A tukey(0.25) -A gauss(0.1875) -b 4096 -V -T "artist=%a" -T "title=%t" -T "album=%g" -T "date=%y" -T "tracknumber=%n" -T "genre=%m" %s --sector-align

TOC of the extracted CD

Track | Start | Length | Start sector | End sector
---------------------------------------------------------
1 | 0:00.32 | 2:12.45 | 32 | 9976
2 | 2:13.02 | 5:21.05 | 9977 | 34056
3 | 7:34.07 | 4:25.30 | 34057 | 53961
4 | 11:59.37 | 3:22.68 | 53962 | 69179
5 | 15:22.30 | 4:06.07 | 69180 | 87636
6 | 19:28.37 | 3:14.03 | 87637 | 102189
7 | 22:42.40 | 3:42.07 | 102190 | 118846
8 | 26:24.47 | 3:35.10 | 118847 | 134981
9 | 29:59.57 | 3:46.25 | 134982 | 151956
10 | 33:46.07 | 2:47.30 | 151957 | 164511
11 | 36:33.37 | 8:28.40 | 164512 | 202651
12 | 45:02.02 | 2:56.55 | 202652 | 215906
13 | 47:58.57 | 3:15.15 | 215907 | 230546
14 | 51:13.72 | 2:38.30 | 230547 | 242426
15 | 53:52.27 | 2:20.55 | 242427 | 252981
16 | 56:13.07 | 3:48.55 | 252982 | 270136
17 | 60:01.62 | 6:10.25 | 270137 | 297911
18 | 66:12.12 | 2:13.43 | 297912 | 307929
19 | 68:25.55 | 5:09.07 | 307930 | 331111

Track 1

Filename N:\Music\Harry Potter\Harry Potter and the Sorcerer's Stone\01 - Prologue.wav

Pre-gap length 0:00:02.42

Peak level 24.7 %
Track quality 100.0 %
Test CRC CF8E7E34
Copy CRC CF8E7E34
Copy OK

Track 2

Filename N:\Music\Harry Potter\Harry Potter and the Sorcerer's Stone\02 - Harry's Wondrous World.wav

Peak level 95.4 %
Track quality 100.0 %
Test CRC 36FBA0FA
Copy CRC 36FBA0FA
Copy OK

Track 3

Filename N:\Music\Harry Potter\Harry Potter and the Sorcerer's Stone\03 - The Arrival of Baby Harry.wav

Peak level 65.4 %
Track quality 100.0 %
Test CRC 03F438DF
Copy CRC 03F438DF
Copy OK

Track 4

Filename N:\Music\Harry Potter\Harry Potter and the Sorcerer's Stone\04 - Visit to the Zoo - Letters from Hogwarts.wav

Peak level 52.3 %
Track quality 100.0 %
Test CRC B48111E4
Copy CRC B48111E4
Copy OK

Track 5

Filename N:\Music\Harry Potter\Harry Potter and the Sorcerer's Stone\05 - Diagon Alley - The Gringotts Vault.wav

Peak level 95.3 %
Track quality 100.0 %
Test CRC 3B896B13
Copy CRC 3B896B13
Copy OK

Track 6

Filename N:\Music\Harry Potter\Harry Potter and the Sorcerer's Stone\06 - Platform Nine-and-Three-Quarters - The Journey to Hogwarts.wav

Peak level 69.7 %
Track quality 100.0 %
Test CRC 3E789C61
Copy CRC 3E789C61
Copy OK

Track 7

Filename N:\Music\Harry Potter\Harry Potter and the Sorcerer's Stone\07 - Entry Into The Great Hall And The Banquet.wav

Peak level 72.6 %
Track quality 100.0 %
Test CRC 3F26DBC7
Copy CRC 3F26DBC7
Copy OK

Track 8

Filename N:\Music\Harry Potter\Harry Potter and the Sorcerer's Stone\08 - Mr. Longbottom Flies.wav

Peak level 76.8 %
Track quality 100.0 %
Test CRC 141F0DD8
Copy CRC 141F0DD8
Copy OK

Track 9

Filename N:\Music\Harry Potter\Harry Potter and the Sorcerer's Stone\09 - Hogwarts Forever! - The Moving Stairs.wav

Peak level 53.0 %
Track quality 100.0 %
Test CRC DC6E7E0C
Copy CRC DC6E7E0C
Copy OK

Track 10

Filename N:\Music\Harry Potter\Harry Potter and the Sorcerer's Stone\10 - The Norwegian Ridgeback - A Change of Season.wav

Peak level 45.7 %
Track quality 100.0 %
Test CRC 39D04175
Copy CRC 39D04175
Copy OK

Track 11

Filename N:\Music\Harry Potter\Harry Potter and the Sorcerer's Stone\11 - The Quidditch Match.wav

Peak level 94.7 %
Track quality 100.0 %
Test CRC 0549F2F4
Copy CRC 0549F2F4
Copy OK

Track 12

Filename N:\Music\Harry Potter\Harry Potter and the Sorcerer's Stone\12 - Christmas at Hogwarts.wav

Peak level 38.6 %
Track quality 100.0 %
Test CRC 02FB1D45
Copy CRC 02FB1D45
Copy OK

Track 13

Filename N:\Music\Harry Potter\Harry Potter and the Sorcerer's Stone\13 - The Invisibility Cloak - The Library Scene.wav

Peak level 58.5 %
Track quality 100.0 %
Test CRC 9B67C31A
Copy CRC 9B67C31A
Copy OK

Track 14

Filename N:\Music\Harry Potter\Harry Potter and the Sorcerer's Stone\14 - Fluffy's Harp.wav

Peak level 20.9 %
Track quality 99.9 %
Test CRC 724F2DC9
Copy CRC 724F2DC9
Copy OK

Track 15

Filename N:\Music\Harry Potter\Harry Potter and the Sorcerer's Stone\15 - In the Devil's Snare - The Flying Keys.wav

Peak level 68.3 %
Track quality 100.0 %
Test CRC 286B0999
Copy CRC 286B0999
Copy OK

Track 16

Filename N:\Music\Harry Potter\Harry Potter and the Sorcerer's Stone\16 - The Chess Game.wav

Peak level 84.3 %
Track quality 100.0 %
Test CRC 4CF375DB
Copy CRC 4CF375DB
Copy OK

Track 17

Filename N:\Music\Harry Potter\Harry Potter and the Sorcerer's Stone\17 - The Face of Voldemort.wav

Peak level 95.3 %
Track quality 100.0 %
Test CRC BA8C3AE0
Copy CRC BA8C3AE0
Copy OK

Track 18

Filename N:\Music\Harry Potter\Harry Potter and the Sorcerer's Stone\18 - Leaving Hogwarts.wav

Peak level 88.0 %
Track quality 100.0 %
Test CRC 8E6524B3
Copy CRC 8E6524B3
Copy OK

Track 19

Filename N:\Music\Harry Potter\Harry Potter and the Sorcerer's Stone\19 - Hedwig's Theme.wav

Peak level 95.7 %
Track quality 100.0 %
Test CRC B443FA00
Copy CRC B443FA00
Copy OK

No errors occurred

End of status report

Гарри Поттер и Тайная комната / Harry Potter and the Chamber of Secrets
Композитор: John Williams
Год выпуска диска: 2002
Продолжительность: 01:10:17

01. Prologue: BookII and The Escape from The Dursleys [03:31]
02. Fawkes The Phoenix [03:45]
03. The Chamber of Secrets [03:49]
04. Gilderoy Lockhart [02:05]
05. The Flying Car [04:08]
06. Knockturn Alley [01:47]
07. Introducing Colin [01:49]
08. The Dueling Club [04:08]
09. Dobby The House Elf [03:27]
10. The Spiders [04:32]
11. Moaning Myrtle [02:05]
12. Meeting Aragog [03:18]
13. Fawkes is Reborn [03:19]
14. Meeting Tom Riddle [03:38]
15. Cornish Pixies [02:13]
16. Polyjuice Potion [03:52]
17. Cakes for Crabbe and Goyle [03:30]
18. Dueling The Basilisk [05:02]
19. Reunion of Friends [05:08]
20. Harry's Wondrous World [05:02]
 
Exact Audio Copy V0.99 prebeta 4 from 23. January 2008

EAC extraction logfile from 13. June 2008, 10:06

John Williams / Harry Potter and The Chamber of Secrets

Used drive : HP DVD Writer 840x Adapter: 1 ID: 0

Read mode : Secure
Utilize accurate stream : Yes
Defeat audio cache : Yes
Make use of C2 pointers : No

Read offset correction : 102
Overread into Lead-In and Lead-Out : No
Fill up missing offset samples with silence : Yes
Delete leading and trailing silent blocks : No
Null samples used in CRC calculations : Yes
Used interface : Installed external ASPI interface
Gap handling : Appended to previous track

Used output format : User Defined Encoder
Selected bitrate : 192 kBit/s
Quality : High
Add ID3 tag : No
Command line compressor : C:\Program Files\TotalAudioConverter\flac.exe
Additional command line options : -8 -A tukey(0.25) -A gauss(0.1875) -b 4096 -V -T "artist=%a" -T "title=%t" -T "album=%g" -T "date=%y" -T "tracknumber=%n" -T "genre=%m" %s --sector-align

TOC of the extracted CD

Track | Start | Length | Start sector | End sector
---------------------------------------------------------
1 | 0:00.00 | 3:31.68 | 0 | 15892
2 | 3:31.68 | 3:45.51 | 15893 | 32818
3 | 7:17.44 | 3:49.72 | 32819 | 50065
4 | 11:07.41 | 2:05.73 | 50066 | 59513
5 | 13:13.39 | 4:08.14 | 59514 | 78127
6 | 17:21.53 | 1:47.72 | 78128 | 86224
7 | 19:09.50 | 1:49.14 | 86225 | 94413
8 | 20:58.64 | 4:08.01 | 94414 | 113014
9 | 25:06.65 | 3:27.38 | 113015 | 128577
10 | 28:34.28 | 4:32.65 | 128578 | 149042
11 | 33:07.18 | 2:05.62 | 149043 | 158479
12 | 35:13.05 | 3:18.61 | 158480 | 173390
13 | 38:31.66 | 3:19.11 | 173391 | 188326
14 | 41:51.02 | 3:38.00 | 188327 | 204676
15 | 45:29.02 | 2:13.01 | 204677 | 214652
16 | 47:42.03 | 3:52.00 | 214653 | 232052
17 | 51:34.03 | 3:30.48 | 232053 | 247850
18 | 55:04.51 | 5:02.56 | 247851 | 270556
19 | 60:07.32 | 5:08.15 | 270557 | 293671
20 | 65:15.47 | 5:02.09 | 293672 | 316330

Track 1

Filename N:\Music\Harry Potter\Harry Potter and the Chamber of Secrets\01 - Prologue- BookII and The Escape from The Dursleys.wav

Pre-gap length 0:00:02.00

Peak level 80.3 %
Track quality 100.0 %
Test CRC DC561E7C
Copy CRC DC561E7C
Copy OK

Track 2

Filename N:\Music\Harry Potter\Harry Potter and the Chamber of Secrets\02 - Fawkes The Phoenix.wav

Peak level 92.6 %
Track quality 100.0 %
Test CRC 97681D79
Copy CRC 97681D79
Copy OK

Track 3

Filename N:\Music\Harry Potter\Harry Potter and the Chamber of Secrets\03 - The Chamber of Secrets.wav

Peak level 94.4 %
Track quality 100.0 %
Test CRC D888FC6E
Copy CRC D888FC6E
Copy OK

Track 4

Filename N:\Music\Harry Potter\Harry Potter and the Chamber of Secrets\04 - Gilderoy Lockhart.wav

Peak level 73.3 %
Track quality 100.0 %
Test CRC DDDCFCEA
Copy CRC DDDCFCEA
Copy OK

Track 5

Filename N:\Music\Harry Potter\Harry Potter and the Chamber of Secrets\05 - The Flying Car.wav

Peak level 94.1 %
Track quality 100.0 %
Test CRC 88070843
Copy CRC 88070843
Copy OK

Track 6

Filename N:\Music\Harry Potter\Harry Potter and the Chamber of Secrets\06 - Knockturn Alley.wav

Peak level 71.2 %
Track quality 100.0 %
Test CRC 77A15D15
Copy CRC 77A15D15
Copy OK

Track 7

Filename N:\Music\Harry Potter\Harry Potter and the Chamber of Secrets\07 - Introducing Colin.wav

Peak level 59.0 %
Track quality 100.0 %
Test CRC A81001E8
Copy CRC A81001E8
Copy OK

Track 8

Filename N:\Music\Harry Potter\Harry Potter and the Chamber of Secrets\08 - The Dueling Club.wav

Peak level 94.5 %
Track quality 100.0 %
Test CRC 9F2A70C3
Copy CRC 9F2A70C3
Copy OK

Track 9

Filename N:\Music\Harry Potter\Harry Potter and the Chamber of Secrets\09 - Dobby The House Elf.wav

Peak level 89.7 %
Track quality 100.0 %
Test CRC E50E7FB5
Copy CRC E50E7FB5
Copy OK

Track 10

Filename N:\Music\Harry Potter\Harry Potter and the Chamber of Secrets\10 - The Spiders.wav

Peak level 94.1 %
Track quality 100.0 %
Test CRC 9C552C78
Copy CRC 9C552C78
Copy OK

Track 11

Filename N:\Music\Harry Potter\Harry Potter and the Chamber of Secrets\11 - Moaning Myrtle.wav

Peak level 81.6 %
Track quality 100.0 %
Test CRC A1663B5F
Copy CRC A1663B5F
Copy OK

Track 12

Filename N:\Music\Harry Potter\Harry Potter and the Chamber of Secrets\12 - Meeting Aragog.wav

Peak level 72.0 %
Track quality 100.0 %
Test CRC 3622AF95
Copy CRC 3622AF95
Copy OK

Track 13

Filename N:\Music\Harry Potter\Harry Potter and the Chamber of Secrets\13 - Fawkes is Reborn.wav

Peak level 92.7 %
Track quality 100.0 %
Test CRC D7F6AAAB
Copy CRC D7F6AAAB
Copy OK

Track 14

Filename N:\Music\Harry Potter\Harry Potter and the Chamber of Secrets\14 - Meeting Tom Riddle.wav

Peak level 94.5 %
Track quality 100.0 %
Test CRC FE52562B
Copy CRC FE52562B
Copy OK

Track 15

Filename N:\Music\Harry Potter\Harry Potter and the Chamber of Secrets\15 - Cornish Pixies.wav

Peak level 94.9 %
Track quality 100.0 %
Test CRC F8ABDED0
Copy CRC F8ABDED0
Copy OK

Track 16

Filename N:\Music\Harry Potter\Harry Potter and the Chamber of Secrets\16 - Polyjuice Potion.wav

Peak level 94.2 %
Track quality 100.0 %
Test CRC 81C397DF
Copy CRC 81C397DF
Copy OK

Track 17

Filename N:\Music\Harry Potter\Harry Potter and the Chamber of Secrets\17 - Cakes for Crabbe and Goyle.wav

Peak level 94.2 %
Track quality 100.0 %
Test CRC EEB44421
Copy CRC EEB44421
Copy OK

Track 18

Filename N:\Music\Harry Potter\Harry Potter and the Chamber of Secrets\18 - Dueling The Basilisk.wav

Peak level 96.7 %
Track quality 100.0 %
Test CRC 1449E061
Copy CRC 1449E061
Copy OK

Track 19

Filename N:\Music\Harry Potter\Harry Potter and the Chamber of Secrets\19 - Reunion of Friends.wav

Peak level 94.4 %
Track quality 100.0 %
Test CRC 7E9C4139
Copy CRC 7E9C4139
Copy OK

Track 20

Filename N:\Music\Harry Potter\Harry Potter and the Chamber of Secrets\20 - Harry's Wondrous World.wav

Peak level 94.4 %
Track quality 100.0 %
Test CRC 5C2A2D00
Copy CRC 5C2A2D00
Copy OK

No errors occurred

End of status report


Гарри Поттер и узник Азкабана / Harry Potter and the Prisoner of Azkaban
Композитор: John Williams
Год выпуска диска: 2004
Продолжительность: 01:08:36

01. Lumos! [01:38]
02. Aunt Marge's Waltz [02:15]
03. The Knight Bus [02:52]
04. Apparition on The Train [02:15]
05. Double Trouble [01:37]
06. Buckbeak's Flight [02:08]
07. A Window to The Past [03:54]
08. The Whomping Willow and The Snowball Fight [02:22]
09. Secrets of The Castle [02:32]
10. The Portrait Gallery [02:05]
11. Hagrid The Professor [01:59]
12. Monster Books and Boggarts! [02:26]
13. Quidditch, Third Year [03:47]
14. Lupin's Transformation and Chasing Scabbers [03:01]
15. The Patronus Light [01:12]
16. The Werewolf Scene [04:25]
17. Saving Buckbeak [06:39]
18. Forward to Time Past [02:33]
19. The Dementors Converge [03:12]
20. Finale [03:24]
21. Mischief Managed! [12:10]
 
Exact Audio Copy V0.99 prebeta 4 from 23. January 2008

EAC extraction logfile from 13. June 2008, 10:06

John Williams / Harry Potter and The Prisoner of Azkaban

Used drive : TSSTcorpDVD-ROM TS-H352C Adapter: 1 ID: 1

Read mode : Secure
Utilize accurate stream : Yes
Defeat audio cache : Yes
Make use of C2 pointers : No

Read offset correction : 6
Overread into Lead-In and Lead-Out : No
Fill up missing offset samples with silence : Yes
Delete leading and trailing silent blocks : No
Null samples used in CRC calculations : Yes
Used interface : Installed external ASPI interface
Gap handling : Appended to previous track

Used output format : User Defined Encoder
Selected bitrate : 192 kBit/s
Quality : High
Add ID3 tag : No
Command line compressor : C:\Program Files\TotalAudioConverter\flac.exe
Additional command line options : -8 -A tukey(0.25) -A gauss(0.1875) -b 4096 -V -T "artist=%a" -T "title=%t" -T "album=%g" -T "date=%y" -T "tracknumber=%n" -T "genre=%m" %s --sector-align

TOC of the extracted CD

Track | Start | Length | Start sector | End sector
---------------------------------------------------------
1 | 0:00.00 | 1:38.28 | 0 | 7377
2 | 1:38.28 | 2:15.27 | 7378 | 17529
3 | 3:53.55 | 2:52.04 | 17530 | 30433
4 | 6:45.59 | 2:15.01 | 30434 | 40559
5 | 9:00.60 | 1:37.17 | 40560 | 47851
6 | 10:38.02 | 2:08.35 | 47852 | 57486
7 | 12:46.37 | 3:54.03 | 57487 | 75039
8 | 16:40.40 | 2:22.24 | 75040 | 85713
9 | 19:02.64 | 2:32.11 | 85714 | 97124
10 | 21:35.00 | 2:05.65 | 97125 | 106564
11 | 23:40.65 | 1:59.35 | 106565 | 115524
12 | 25:40.25 | 2:26.57 | 115525 | 126531
13 | 28:07.07 | 3:47.31 | 126532 | 143587
14 | 31:54.38 | 3:01.65 | 143588 | 157227
15 | 34:56.28 | 1:12.51 | 157228 | 162678
16 | 36:09.04 | 4:25.25 | 162679 | 182578
17 | 40:34.29 | 6:39.62 | 182579 | 212565
18 | 47:14.16 | 2:33.59 | 212566 | 224099
19 | 49:48.00 | 3:12.64 | 224100 | 238563
20 | 53:00.64 | 3:24.70 | 238564 | 253933
21 | 56:25.59 | 12:10.41 | 253934 | 308724

Track 1

Filename N:\Music\Harry Potter\Harry Potter and the Prisoner of Azkaban\01 - Lumos!.wav

Pre-gap length 0:00:02.00

Peak level 34.1 %
Track quality 100.0 %
Test CRC 6FC2038A
Copy CRC 6FC2038A
Copy OK

Track 2

Filename N:\Music\Harry Potter\Harry Potter and the Prisoner of Azkaban\02 - Aunt Marge's Waltz.wav

Peak level 92.8 %
Track quality 100.0 %
Test CRC CE6533F3
Copy CRC CE6533F3
Copy OK

Track 3

Filename N:\Music\Harry Potter\Harry Potter and the Prisoner of Azkaban\03 - The Knight Bus.wav

Peak level 94.7 %
Track quality 100.0 %
Test CRC B0313C5B
Copy CRC B0313C5B
Copy OK

Track 4

Filename N:\Music\Harry Potter\Harry Potter and the Prisoner of Azkaban\04 - Apparition on The Train.wav

Peak level 82.8 %
Track quality 100.0 %
Test CRC EDC22144
Copy CRC EDC22144
Copy OK

Track 5

Filename N:\Music\Harry Potter\Harry Potter and the Prisoner of Azkaban\05 - Double Trouble.wav

Peak level 69.5 %
Track quality 100.0 %
Test CRC EA688723
Copy CRC EA688723
Copy OK

Track 6

Filename N:\Music\Harry Potter\Harry Potter and the Prisoner of Azkaban\06 - Buckbeak's Flight.wav

Peak level 94.7 %
Track quality 100.0 %
Test CRC 0E7D093D
Copy CRC 0E7D093D
Copy OK

Track 7

Filename N:\Music\Harry Potter\Harry Potter and the Prisoner of Azkaban\07 - A Window to The Past.wav

Peak level 74.9 %
Track quality 100.0 %
Test CRC 7C393CB2
Copy CRC 7C393CB2
Copy OK

Track 8

Filename N:\Music\Harry Potter\Harry Potter and the Prisoner of Azkaban\08 - The Whomping Willow and The Snowball Fight.wav

Peak level 93.0 %
Track quality 100.0 %
Test CRC 36631A36
Copy CRC 36631A36
Copy OK

Track 9

Filename N:\Music\Harry Potter\Harry Potter and the Prisoner of Azkaban\09 - Secrets of The Castle.wav

Peak level 44.1 %
Track quality 100.0 %
Test CRC 5B69D99E
Copy CRC 5B69D99E
Copy OK

Track 10

Filename N:\Music\Harry Potter\Harry Potter and the Prisoner of Azkaban\10 - The Portrait Gallery.wav

Peak level 86.8 %
Track quality 99.9 %
Test CRC 6B1FB153
Copy CRC 6B1FB153
Copy OK

Track 11

Filename N:\Music\Harry Potter\Harry Potter and the Prisoner of Azkaban\11 - Hagrid The Professor.wav

Peak level 42.4 %
Track quality 100.0 %
Test CRC 6B4889C6
Copy CRC 6B4889C6
Copy OK

Track 12

Filename N:\Music\Harry Potter\Harry Potter and the Prisoner of Azkaban\12 - Monster Books and Boggarts!.wav

Peak level 74.9 %
Track quality 99.9 %
Test CRC 39B6C98F
Copy CRC 39B6C98F
Copy OK

Track 13

Filename N:\Music\Harry Potter\Harry Potter and the Prisoner of Azkaban\13 - Quidditch, Third Year.wav

Peak level 93.1 %
Track quality 100.0 %
Test CRC AF1A8132
Copy CRC AF1A8132
Copy OK

Track 14

Filename N:\Music\Harry Potter\Harry Potter and the Prisoner of Azkaban\14 - Lupin's Transformation and Chasing Scabbers.wav

Peak level 94.7 %
Track quality 100.0 %
Test CRC EE6C91FF
Copy CRC EE6C91FF
Copy OK

Track 15

Filename N:\Music\Harry Potter\Harry Potter and the Prisoner of Azkaban\15 - The Patronus Light.wav

Peak level 47.1 %
Track quality 100.0 %
Test CRC 10BF3112
Copy CRC 10BF3112
Copy OK

Track 16

Filename N:\Music\Harry Potter\Harry Potter and the Prisoner of Azkaban\16 - The Werewolf Scene.wav

Peak level 89.9 %
Track quality 99.9 %
Test CRC 983F88F5
Copy CRC 983F88F5
Copy OK

Track 17

Filename N:\Music\Harry Potter\Harry Potter and the Prisoner of Azkaban\17 - Saving Buckbeak.wav

Peak level 93.2 %
Track quality 100.0 %
Test CRC F88CC8FC
Copy CRC F88CC8FC
Copy OK

Track 18

Filename N:\Music\Harry Potter\Harry Potter and the Prisoner of Azkaban\18 - Forward to Time Past.wav

Peak level 50.3 %
Track quality 100.0 %
Test CRC 50D806E2
Copy CRC 50D806E2
Copy OK

Track 19

Filename N:\Music\Harry Potter\Harry Potter and the Prisoner of Azkaban\19 - The Dementors Converge.wav

Peak level 92.1 %
Track quality 100.0 %
Test CRC 4DB639BA
Copy CRC 4DB639BA
Copy OK

Track 20

Filename N:\Music\Harry Potter\Harry Potter and the Prisoner of Azkaban\20 - Finale.wav

Peak level 94.7 %
Track quality 100.0 %
Test CRC 6C9356AF
Copy CRC 6C9356AF
Copy OK

Track 21

Filename N:\Music\Harry Potter\Harry Potter and the Prisoner of Azkaban\21 - Mischief Managed!.wav

Peak level 93.8 %
Track quality 99.9 %
Test CRC 87C2A4A5
Copy CRC 87C2A4A5
Copy OK

No errors occurred

End of status report


Гарри Поттер и Кубок огня / Harry Potter and the Goblet of Fire
Композитор: Patrick Doyle
Год выпуска диска: 2005
Продолжительность: 01:15:57

01. The Story Continues [01:31]
02. Frank Dies [02:12]
03. The Quidditch World Cup [01:52]
04. The Dark Mark [03:27]
05. Foreign Visitors Arrive [01:30]
06. The Goblet Of Fire [03:23]
07. Rita Skeeter [01:42]
08. Sirius Fire [02:00]
09. Harry Sees Dragons [01:54]
10. Golden Egg [06:11]
11. Neville's Waltz [02:11]
12. Harry In Winter [02:56]
13. Potter Waltz [02:19]
14. Underwater Secrets [02:28]
15. The Black Lake [04:37]
16. Hogwarts' March [02:46]
17. The Maze [04:44]
18. Voldemort [09:39]
19. Death of Cedric [01:59]
20. Another Year Ends [02:21]
21. Hogwarts' Hymn [02:59]
22. Do The Hippogriff (Song) [03:39]
23. This Is The Night (Song) [03:24]
24. Magic Works (Song) [04:01]
 
Exact Audio Copy V0.99 prebeta 4 from 23. January 2008

EAC extraction logfile from 13. June 2008, 2:56

Patrick Doyle / Harry Potter and the Goblet of Fire

Used drive : HP DVD Writer 840x Adapter: 1 ID: 0

Read mode : Secure
Utilize accurate stream : Yes
Defeat audio cache : Yes
Make use of C2 pointers : No

Read offset correction : 102
Overread into Lead-In and Lead-Out : No
Fill up missing offset samples with silence : Yes
Delete leading and trailing silent blocks : No
Null samples used in CRC calculations : Yes
Used interface : Installed external ASPI interface
Gap handling : Appended to previous track

Used output format : User Defined Encoder
Selected bitrate : 192 kBit/s
Quality : High
Add ID3 tag : No
Command line compressor : C:\Program Files\TotalAudioConverter\flac.exe
Additional command line options : -8 -A tukey(0.25) -A gauss(0.1875) -b 4096 -V -T "artist=%a" -T "title=%t" -T "album=%g" -T "date=%y" -T "tracknumber=%n" -T "genre=%m" %s --sector-align

TOC of the extracted CD

Track | Start | Length | Start sector | End sector
---------------------------------------------------------
1 | 0:00.00 | 1:31.72 | 0 | 6896
2 | 1:31.72 | 2:12.36 | 6897 | 16832
3 | 3:44.33 | 1:52.35 | 16833 | 25267
4 | 5:36.68 | 3:27.54 | 25268 | 40846
5 | 9:04.47 | 1:30.66 | 40847 | 47662
6 | 10:35.38 | 3:23.25 | 47663 | 62912
7 | 13:58.63 | 1:42.10 | 62913 | 70572
8 | 15:40.73 | 2:00.35 | 70573 | 79607
9 | 17:41.33 | 1:54.65 | 79608 | 88222
10 | 19:36.23 | 6:11.41 | 88223 | 116088
11 | 25:47.64 | 2:11.24 | 116089 | 125937
12 | 27:59.13 | 2:56.13 | 125938 | 139150
13 | 30:55.26 | 2:19.38 | 139151 | 149613
14 | 33:14.64 | 2:28.46 | 149614 | 160759
15 | 35:43.35 | 4:37.18 | 160760 | 181552
16 | 40:20.53 | 2:46.53 | 181553 | 194055
17 | 43:07.31 | 4:44.31 | 194056 | 215386
18 | 47:51.62 | 9:39.62 | 215387 | 258873
19 | 57:31.49 | 1:59.60 | 258874 | 267858
20 | 59:31.34 | 2:21.10 | 267859 | 278443
21 | 61:52.44 | 2:59.38 | 278444 | 291906
22 | 64:52.07 | 3:39.49 | 291907 | 308380
23 | 68:31.56 | 3:24.05 | 308381 | 323685
24 | 71:55.61 | 4:01.53 | 323686 | 341813

Track 1

Filename N:\Music\Harry Potter\Harry Potter and the Goblet of Fire\01 - The Story Continues.wav

Pre-gap length 0:00:02.00

Peak level 99.8 %
Track quality 99.8 %
Test CRC F846DF5F
Copy CRC F846DF5F
Copy OK

Track 2

Filename N:\Music\Harry Potter\Harry Potter and the Goblet of Fire\02 - Frank Dies.wav

Pre-gap length 0:00:02.77

Peak level 94.7 %
Track quality 99.9 %
Test CRC 21FC9277
Copy CRC 21FC9277
Copy OK

Track 3

Filename N:\Music\Harry Potter\Harry Potter and the Goblet of Fire\03 - The Quidditch World Cup.wav

Pre-gap length 0:00:02.37

Peak level 84.4 %
Track quality 100.0 %
Test CRC 908941CF
Copy CRC 908941CF
Copy OK

Track 4

Filename N:\Music\Harry Potter\Harry Potter and the Goblet of Fire\04 - The Dark Mark.wav

Pre-gap length 0:00:00.77

Peak level 94.7 %
Track quality 100.0 %
Test CRC 86993DF7
Copy CRC 86993DF7
Copy OK

Track 5

Filename N:\Music\Harry Potter\Harry Potter and the Goblet of Fire\05 - Foreign Visitors Arrive.wav

Pre-gap length 0:00:01.42

Peak level 94.7 %
Track quality 100.0 %
Test CRC 19D7F606
Copy CRC 19D7F606
Copy OK

Track 6

Filename N:\Music\Harry Potter\Harry Potter and the Goblet of Fire\06 - The Goblet Of Fire.wav

Pre-gap length 0:00:01.49

Peak level 94.7 %
Track quality 100.0 %
Test CRC 557C69CA
Copy CRC 557C69CA
Copy OK

Track 7

Filename N:\Music\Harry Potter\Harry Potter and the Goblet of Fire\07 - Rita Skeeter.wav

Pre-gap length 0:00:01.64

Peak level 26.6 %
Track quality 100.0 %
Test CRC 0318FE96
Copy CRC 0318FE96
Copy OK

Track 8

Filename N:\Music\Harry Potter\Harry Potter and the Goblet of Fire\08 - Sirius Fire.wav

Pre-gap length 0:00:00.78

Peak level 94.7 %
Track quality 100.0 %
Test CRC 611D0DDF
Copy CRC 611D0DDF
Copy OK

Track 9

Filename N:\Music\Harry Potter\Harry Potter and the Goblet of Fire\09 - Harry Sees Dragons.wav

Pre-gap length 0:00:01.36

Peak level 94.6 %
Track quality 99.9 %
Test CRC A6CB734B
Copy CRC A6CB734B
Copy OK

Track 10

Filename N:\Music\Harry Potter\Harry Potter and the Goblet of Fire\10 - Golden Egg.wav

Pre-gap length 0:00:01.70

Peak level 84.5 %
Track quality 99.9 %
Test CRC EDE2AB9D
Copy CRC EDE2AB9D
Copy OK

Track 11

Filename N:\Music\Harry Potter\Harry Potter and the Goblet of Fire\11 - Neville's Waltz.wav

Pre-gap length 0:00:01.32

Peak level 68.3 %
Track quality 100.0 %
Test CRC 39B719B2
Copy CRC 39B719B2
Copy OK

Track 12

Filename N:\Music\Harry Potter\Harry Potter and the Goblet of Fire\12 - Harry In Winter.wav

Pre-gap length 0:00:02.26

Peak level 58.7 %
Track quality 100.0 %
Test CRC 30073FD1
Copy CRC 30073FD1
Copy OK

Track 13

Filename N:\Music\Harry Potter\Harry Potter and the Goblet of Fire\13 - Potter Waltz.wav

Pre-gap length 0:00:01.73

Peak level 62.4 %
Track quality 100.0 %
Test CRC 41AB2981
Copy CRC 41AB2981
Copy OK

Track 14

Filename N:\Music\Harry Potter\Harry Potter and the Goblet of Fire\14 - Underwater Secrets.wav

Pre-gap length 0:00:00.66

Peak level 39.2 %
Track quality 100.0 %
Test CRC DF2FD776
Copy CRC DF2FD776
Copy OK

Track 15

Filename N:\Music\Harry Potter\Harry Potter and the Goblet of Fire\15 - The Black Lake.wav

Pre-gap length 0:00:02.12

Peak level 94.7 %
Track quality 100.0 %
Test CRC C70B50E9
Copy CRC C70B50E9
Copy OK

Track 16

Filename N:\Music\Harry Potter\Harry Potter and the Goblet of Fire\16 - Hogwarts' March.wav

Pre-gap length 0:00:00.30

Peak level 65.4 %
Track quality 99.9 %
Test CRC E7328184
Copy CRC E7328184
Copy OK

Track 17

Filename N:\Music\Harry Potter\Harry Potter and the Goblet of Fire\17 - The Maze.wav

Pre-gap length 0:00:03.18

Peak level 94.7 %
Track quality 100.0 %
Test CRC 52870A7B
Copy CRC 52870A7B
Copy OK

Track 18

Filename N:\Music\Harry Potter\Harry Potter and the Goblet of Fire\18 - Voldemort.wav

Pre-gap length 0:00:02.33

Peak level 94.7 %
Track quality 100.0 %
Test CRC 42583883
Copy CRC 42583883
Copy OK

Track 19

Filename N:\Music\Harry Potter\Harry Potter and the Goblet of Fire\19 - Death of Cedric.wav

Pre-gap length 0:00:01.84

Peak level 47.6 %
Track quality 100.0 %
Test CRC 2FF02EBC
Copy CRC 2FF02EBC
Copy OK

Track 20

Filename N:\Music\Harry Potter\Harry Potter and the Goblet of Fire\20 - Another Year Ends.wav

Pre-gap length 0:00:03.44

Peak level 75.0 %
Track quality 99.9 %
Test CRC 8AC36912
Copy CRC 8AC36912
Copy OK

Track 21

Filename N:\Music\Harry Potter\Harry Potter and the Goblet of Fire\21 - Hogwarts' Hymn.wav

Pre-gap length 0:00:02.50

Peak level 94.7 %
Track quality 100.0 %
Test CRC 57E82FB0
Copy CRC 57E82FB0
Copy OK

Track 22

Filename N:\Music\Harry Potter\Harry Potter and the Goblet of Fire\22 - Do The Hippogriff (Song).wav

Pre-gap length 0:00:03.20

Peak level 99.0 %
Track quality 100.0 %
Test CRC 84886454
Copy CRC 84886454
Copy OK

Track 23

Filename N:\Music\Harry Potter\Harry Potter and the Goblet of Fire\23 - This Is The Night (Song).wav

Pre-gap length 0:00:02.93

Peak level 84.6 %
Track quality 100.0 %
Test CRC C0F583E7
Copy CRC C0F583E7
Copy OK

Track 24

Filename N:\Music\Harry Potter\Harry Potter and the Goblet of Fire\24 - Magic Works (Song).wav

Pre-gap length 0:00:01.73

Peak level 93.2 %
Track quality 100.0 %
Test CRC 45F82EEF
Copy CRC 45F82EEF
Copy OK

No errors occurred

End of status report


Music from the Harry Potter Films
Композитор: John Williams, Patrick Doyle
Исполнитель: The City of Prague Philharmonic Orchestra
Год выпуска диска: 2006
Продолжительность: 00:54:34

01. Harry's Wondrous world [05:05]
02. Nimbus 2000 [02:24]
03. Fawkes the Phoenix [03:37]
04. Dobby The House Elf [03:27]
05. The Chamber of Secrets [04:15]
06. Gilderoy Lockhart [02:01]
07. Quidditch World Cup / The Foreigners Arrive [02:33]
08. Harry In Winter [03:12]
09. The Hogwarts March [02:56]
10. The Potter Waltz [02:29]
11. The Black Lake [05:28]
12. Another Year Ends [02:20]
13. The Hogwarts Hymn [02:53]
14. Harry Potter And the Prisoner of Azkaban ~Suite~ (Mischief Managed / A Window to the Past / Buckbeaks Flight [07:00]
15. Hedwig's Theme [04:54]
 
EAC extraction logfile from 15. May 2006, 17:56 for CD
The City of Prague Philharmonic Orchestra / Music from the Harry Potter Films
Used drive : HL-DT-STDVDRRW GWA-4161B Adapter: 1 ID: 1
Read mode : Secure with NO C2, accurate stream, disable cache
Read offset correction : 102
Overread into Lead-In and Lead-Out : No
Used output format : Internal WAV Routines
44.100 Hz; 16 Bit; Stereo
Other options :
Fill up missing offset samples with silence : Yes
Delete leading and trailing silent blocks : No
Installed external ASPI interface
Range status and errors
Selected range
Filename C:\[HQShare.Net]\The City of Prague Philharmonic Orchestra - Music from the Harry Potter Films.wav
Peak level 97.9 %
Range quality 99.9 %
CRC 5EEFBB46
Copy OK
No errors occured
End of status report
------------------------------------------------------------
EAC extraction logfile from 15. May 2006, 17:56 for CD
The City of Prague Philharmonic Orchestra / Music from the Harry Potter Films
Used drive : HL-DT-STDVDRRW GWA-4161B Adapter: 1 ID: 1
Read mode : Secure with NO C2, accurate stream, disable cache
Read offset correction : 102
Overread into Lead-In and Lead-Out : No
Used output format : Internal WAV Routines
44.100 Hz; 16 Bit; Stereo
Other options :
Fill up missing offset samples with silence : Yes
Delete leading and trailing silent blocks : No
Installed external ASPI interface
Range status and errors
Selected range
Filename C:\[HQShare.Net]\The City of Prague Philharmonic Orchestra - Music from the Harry Potter Films.wav
Peak level 97.9 %
Range quality 99.9 %
CRC 5EEFBB46
Copy OK
No errors occured
End of status report

Гарри Поттер и орден Феникса / Harry Potter and the Order of the Phoenix
Композитор: Nicholas Hooper
Год выпуска диска: 2007
Продолжительность: 00:51:56

01. Fireworks [01:45]
02. Professor Umbridge [02:32]
03. Another Story [02:37]
04. Dementors in the Underpass [01:43]
05. Dubledore's Army [02:40]
06. Hall of Prophecy [04:25]
07. Possession [03:18]
08. The Room of Requirement [06:07]
09. The Kiss [01:56]
10. A Journey to Hogwarts [02:52]
11. The Sirius Deception [02:34]
12. Death of Sirius [03:56]
13. Umbridge Spoils a Beautiful Morning [02:38]
14. Darkness Takes Over [02:57]
15. The Ministry of Magic [02:47]
16. The Sacking of Trelawney [02:13]
17. Flight of the Order of the Phoenix [01:31]
18. Loved Ones and Leaving [03:15]
 
Exact Audio Copy V0.99 prebeta 4 from 23. January 2008

EAC extraction logfile from 13. June 2008, 2:36

Nicholas Hooper / Harry Potter and the Order of the Phoenix

Used drive : TSSTcorpDVD-ROM TS-H352C Adapter: 1 ID: 1

Read mode : Secure
Utilize accurate stream : Yes
Defeat audio cache : Yes
Make use of C2 pointers : No

Read offset correction : 6
Overread into Lead-In and Lead-Out : No
Fill up missing offset samples with silence : Yes
Delete leading and trailing silent blocks : No
Null samples used in CRC calculations : Yes
Used interface : Installed external ASPI interface
Gap handling : Appended to previous track

Used output format : User Defined Encoder
Selected bitrate : 192 kBit/s
Quality : High
Add ID3 tag : No
Command line compressor : C:\Program Files\TotalAudioConverter\flac.exe
Additional command line options : -8 -A tukey(0.25) -A gauss(0.1875) -b 4096 -V -T "artist=%a" -T "title=%t" -T "album=%g" -T "date=%y" -T "tracknumber=%n" -T "genre=%m" %s --sector-align

TOC of the extracted CD

Track | Start | Length | Start sector | End sector
---------------------------------------------------------
1 | 0:00.00 | 1:45.66 | 0 | 7940
2 | 1:45.66 | 2:32.45 | 7941 | 19385
3 | 4:18.36 | 2:37.47 | 19386 | 31207
4 | 6:56.08 | 1:43.14 | 31208 | 38946
5 | 8:39.22 | 2:40.19 | 38947 | 50965
6 | 11:19.41 | 4:25.42 | 50966 | 70882
7 | 15:45.08 | 3:18.65 | 70883 | 85797
8 | 19:03.73 | 6:07.73 | 85798 | 113395
9 | 25:11.71 | 1:56.05 | 113396 | 122100
10 | 27:08.01 | 2:52.74 | 122101 | 135074
11 | 30:01.00 | 2:34.28 | 135075 | 146652
12 | 32:35.28 | 3:56.47 | 146653 | 164399
13 | 36:32.00 | 2:38.55 | 164400 | 176304
14 | 39:10.55 | 2:57.04 | 176305 | 189583
15 | 42:07.59 | 2:47.07 | 189584 | 202115
16 | 44:54.66 | 2:13.33 | 202116 | 212123
17 | 47:08.24 | 1:31.69 | 212124 | 219017
18 | 48:40.18 | 3:15.58 | 219018 | 233700

Track 1

Filename N:\Music\Harry Potter\Harry Potter and the Order of the Phoenix\01 - Fireworks.wav

Pre-gap length 0:00:02.00

Peak level 94.7 %
Track quality 100.0 %
Test CRC A6E145F7
Copy CRC A6E145F7
Copy OK

Track 2

Filename N:\Music\Harry Potter\Harry Potter and the Order of the Phoenix\02 - Professor Umbridge.wav

Peak level 94.5 %
Track quality 100.0 %
Test CRC 4C17995D
Copy CRC 4C17995D
Copy OK

Track 3

Filename N:\Music\Harry Potter\Harry Potter and the Order of the Phoenix\03 - Another Story.wav

Peak level 94.4 %
Track quality 100.0 %
Test CRC 7CC693F8
Copy CRC 7CC693F8
Copy OK

Track 4

Filename N:\Music\Harry Potter\Harry Potter and the Order of the Phoenix\04 - Dementors in the Underpass.wav

Peak level 94.4 %
Track quality 100.0 %
Test CRC 69786571
Copy CRC 69786571
Copy OK

Track 5

Filename N:\Music\Harry Potter\Harry Potter and the Order of the Phoenix\05 - Dubledore's Army.wav

Peak level 94.7 %
Track quality 100.0 %
Test CRC 663DF120
Copy CRC 663DF120
Copy OK

Track 6

Filename N:\Music\Harry Potter\Harry Potter and the Order of the Phoenix\06 - Hall of Prophecy.wav

Peak level 94.5 %
Track quality 100.0 %
Test CRC B25333AE
Copy CRC B25333AE
Copy OK

Track 7

Filename N:\Music\Harry Potter\Harry Potter and the Order of the Phoenix\07 - Possession.wav

Peak level 94.7 %
Track quality 100.0 %
Test CRC BC570B74
Copy CRC BC570B74
Copy OK

Track 8

Filename N:\Music\Harry Potter\Harry Potter and the Order of the Phoenix\08 - The Room of Requirement.wav

Peak level 94.4 %
Track quality 100.0 %
Test CRC CD8E8F33
Copy CRC CD8E8F33
Copy OK

Track 9

Filename N:\Music\Harry Potter\Harry Potter and the Order of the Phoenix\09 - The Kiss.wav

Peak level 70.5 %
Track quality 100.0 %
Test CRC 42E22FD7
Copy CRC 42E22FD7
Copy OK

Track 10

Filename N:\Music\Harry Potter\Harry Potter and the Order of the Phoenix\10 - A Journey to Hogwarts.wav

Peak level 94.3 %
Track quality 99.9 %
Test CRC 9D5F7BE2
Copy CRC 9D5F7BE2
Copy OK

Track 11

Filename N:\Music\Harry Potter\Harry Potter and the Order of the Phoenix\11 - The Sirius Deception.wav

Peak level 94.6 %
Track quality 99.9 %
Test CRC 1F16C6C0
Copy CRC 1F16C6C0
Copy OK

Track 12

Filename N:\Music\Harry Potter\Harry Potter and the Order of the Phoenix\12 - Death of Sirius.wav

Peak level 97.4 %
Track quality 100.0 %
Test CRC 30DF6E5C
Copy CRC 30DF6E5C
Copy OK

Track 13

Filename N:\Music\Harry Potter\Harry Potter and the Order of the Phoenix\13 - Umbridge Spoils a Beautiful Morning.wav

Peak level 28.8 %
Track quality 99.9 %
Test CRC 54F9517E
Copy CRC 54F9517E
Copy OK

Track 14

Filename N:\Music\Harry Potter\Harry Potter and the Order of the Phoenix\14 - Darkness Takes Over.wav

Peak level 94.7 %
Track quality 100.0 %
Test CRC 8B29CFEA
Copy CRC 8B29CFEA
Copy OK

Track 15

Filename N:\Music\Harry Potter\Harry Potter and the Order of the Phoenix\15 - The Ministry of Magic.wav

Peak level 94.6 %
Track quality 100.0 %
Test CRC 4D622637
Copy CRC 4D622637
Copy OK

Track 16

Filename N:\Music\Harry Potter\Harry Potter and the Order of the Phoenix\16 - The Sacking of Trelawney.wav

Peak level 94.5 %
Track quality 100.0 %
Test CRC 564CAEB8
Copy CRC 564CAEB8
Copy OK

Track 17

Filename N:\Music\Harry Potter\Harry Potter and the Order of the Phoenix\17 - Flight of the Order of the Phoenix.wav

Peak level 94.4 %
Track quality 100.0 %
Test CRC 8BB2A419
Copy CRC 8BB2A419
Copy OK

Track 18

Filename N:\Music\Harry Potter\Harry Potter and the Order of the Phoenix\18 - Loved Ones and Leaving.wav

Peak level 94.7 %
Track quality 100.0 %
Test CRC C8DD0FC7
Copy CRC C8DD0FC7
Copy OK

No errors occurred

End of status report

Гарри Поттер и Принц-полукровка / Harry Potter and the Half-Blood Prince
Композитор: Nicholas Hooper
Год выпуска диска: 2009
Продолжительность: 01:02:51

01. Opening [02:54]
02. In Noctem [02:00]
03. The Story begins [02:05]
04. Ginny [01:30]
05. Snape & The Unbreakable Vow [02:50]
06. Wizard Wheezes [01:42]
07. Dumbledore's Speech [01:31]
08. Living Death [01:55]
09. Into The Pensive [01:45]
10. The Book [01:44]
11. Ron's Victory [01:44]
12. Harry & Hermione [02:52]
13. School! [01:05]
14. Malfoy's Mission [02:53]
15. The Slug Party [02:11]
16. Into the Rushes [02:33]
17. Farewell Aragog [02:08]
18. Dumbledore's Foreboding [01:18]
19. Of Love & War [01:17]
20. When Ginny Kissed Harry [02:38]
21. Slughorn's Confession [03:33]
22. Journey To The Cave [03:08]
23. The Drink Of Despair [02:44]
24. Inferi In The Firestorm [01:53]
25. The Killing Of Dumbledore [03:34]
26. Dumbledore's Farewell [02:22]
27. The Friends [02:00]
28. The Weasley Stomp [02:49]
 
Exact Audio Copy V0.99 prebeta 5 from 4. May 2009

EAC extraction logfile from 15. July 2009, 22:47

Nicholas Hooper / Harry Potter And The Half-Blood Prince

Used drive : HP DVD Writer 840x Adapter: 1 ID: 0

Read mode : Secure
Utilize accurate stream : Yes
Defeat audio cache : Yes
Make use of C2 pointers : No

Read offset correction : 102
Overread into Lead-In and Lead-Out : No
Fill up missing offset samples with silence : Yes
Delete leading and trailing silent blocks : No
Null samples used in CRC calculations : Yes
Used interface : Installed external ASPI interface
Gap handling : Appended to previous track

Used output format : User Defined Encoder
Selected bitrate : 320 kBit/s
Quality : High
Add ID3 tag : No
Command line compressor : C:\Program Files\FLAC\flac.exe
Additional command line options : -V -8 -T "artist=%a" -T "title=%t" -T "album=%g" -T "date=%y" -T "tracknumber=%n" -T "genre=%m" %s

TOC of the extracted CD

Track | Start | Length | Start sector | End sector
---------------------------------------------------------
1 | 0:00.00 | 2:54.05 | 0 | 13054
2 | 2:54.05 | 2:00.58 | 13055 | 22112
3 | 4:54.63 | 2:05.25 | 22113 | 31512
4 | 7:00.13 | 1:30.58 | 31513 | 38320
5 | 8:30.71 | 2:50.61 | 38321 | 51131
6 | 11:21.57 | 1:42.56 | 51132 | 58837
7 | 13:04.38 | 1:31.67 | 58838 | 65729
8 | 14:36.30 | 1:55.18 | 65730 | 74372
9 | 16:31.48 | 1:45.55 | 74373 | 82302
10 | 18:17.28 | 1:44.39 | 82303 | 90141
11 | 20:01.67 | 1:44.73 | 90142 | 98014
12 | 21:46.65 | 2:52.49 | 98015 | 110963
13 | 24:39.39 | 1:05.10 | 110964 | 115848
14 | 25:44.49 | 2:53.52 | 115849 | 128875
15 | 28:38.26 | 2:11.35 | 128876 | 138735
16 | 30:49.61 | 2:33.10 | 138736 | 150220
17 | 33:22.71 | 2:08.25 | 150221 | 159845
18 | 35:31.21 | 1:18.60 | 159846 | 165755
19 | 36:50.06 | 1:17.46 | 165756 | 171576
20 | 38:07.52 | 2:38.14 | 171577 | 183440
21 | 40:45.66 | 3:33.04 | 183441 | 199419
22 | 44:18.70 | 3:08.21 | 199420 | 213540
23 | 47:27.16 | 2:44.38 | 213541 | 225878
24 | 50:11.54 | 1:53.36 | 225879 | 234389
25 | 52:05.15 | 3:34.70 | 234390 | 250509
26 | 55:40.10 | 2:22.19 | 250510 | 261178
27 | 58:02.29 | 2:00.40 | 261179 | 270218
28 | 60:02.69 | 2:49.01 | 270219 | 282894

Track 1

Filename N:\Music\Harry Potter\Harry Potter And The Half-Blood Prince [2009, FLAC] - Nicholas Hooper\01 - Opening.wav

Pre-gap length 0:00:02.00

Peak level 99.7 %
Track quality 100.0 %
Test CRC 189E64E1
Copy CRC 189E64E1
Track not present in AccurateRip database
Copy OK

Track 2

Filename N:\Music\Harry Potter\Harry Potter And The Half-Blood Prince [2009, FLAC] - Nicholas Hooper\02 - In Noctem.wav

Peak level 41.2 %
Track quality 100.0 %
Test CRC 123AF59A
Copy CRC 123AF59A
Track not present in AccurateRip database
Copy OK

Track 3

Filename N:\Music\Harry Potter\Harry Potter And The Half-Blood Prince [2009, FLAC] - Nicholas Hooper\03 - The Story begins.wav

Peak level 99.7 %
Track quality 100.0 %
Test CRC 5BDAA9C3
Copy CRC 5BDAA9C3
Track not present in AccurateRip database
Copy OK

Track 4

Filename N:\Music\Harry Potter\Harry Potter And The Half-Blood Prince [2009, FLAC] - Nicholas Hooper\04 - Ginny.wav

Peak level 43.0 %
Track quality 100.0 %
Test CRC F1BB68C0
Copy CRC F1BB68C0
Track not present in AccurateRip database
Copy OK

Track 5

Filename N:\Music\Harry Potter\Harry Potter And The Half-Blood Prince [2009, FLAC] - Nicholas Hooper\05 - Snape & The Unbreakable Vow.wav

Peak level 42.4 %
Track quality 100.0 %
Test CRC 1B5C6D59
Copy CRC 1B5C6D59
Track not present in AccurateRip database
Copy OK

Track 6

Filename N:\Music\Harry Potter\Harry Potter And The Half-Blood Prince [2009, FLAC] - Nicholas Hooper\06 - Wizard Wheezes.wav

Peak level 99.7 %
Track quality 100.0 %
Test CRC BF025C51
Copy CRC BF025C51
Track not present in AccurateRip database
Copy OK

Track 7

Filename N:\Music\Harry Potter\Harry Potter And The Half-Blood Prince [2009, FLAC] - Nicholas Hooper\07 - Dumbledore's Speech.wav

Peak level 77.3 %
Track quality 100.0 %
Test CRC 6500DA11
Copy CRC 6500DA11
Track not present in AccurateRip database
Copy OK

Track 8

Filename N:\Music\Harry Potter\Harry Potter And The Half-Blood Prince [2009, FLAC] - Nicholas Hooper\08 - Living Death.wav

Peak level 68.3 %
Track quality 99.9 %
Test CRC 19ADD48D
Copy CRC 19ADD48D
Track not present in AccurateRip database
Copy OK

Track 9

Filename N:\Music\Harry Potter\Harry Potter And The Half-Blood Prince [2009, FLAC] - Nicholas Hooper\09 - Into The Pensive.wav

Peak level 96.9 %
Track quality 100.0 %
Test CRC C4C751CB
Copy CRC C4C751CB
Track not present in AccurateRip database
Copy OK

Track 10

Filename N:\Music\Harry Potter\Harry Potter And The Half-Blood Prince [2009, FLAC] - Nicholas Hooper\10 - The Book.wav

Peak level 52.7 %
Track quality 100.0 %
Test CRC 19AEA7F1
Copy CRC 19AEA7F1
Track not present in AccurateRip database
Copy OK

Track 11

Filename N:\Music\Harry Potter\Harry Potter And The Half-Blood Prince [2009, FLAC] - Nicholas Hooper\11 - Ron's Victory.wav

Peak level 99.7 %
Track quality 100.0 %
Test CRC A04BEAC5
Copy CRC A04BEAC5
Track not present in AccurateRip database
Copy OK

Track 12

Filename N:\Music\Harry Potter\Harry Potter And The Half-Blood Prince [2009, FLAC] - Nicholas Hooper\12 - Harry & Hermione.wav

Peak level 65.5 %
Track quality 99.9 %
Test CRC 757CA133
Copy CRC 757CA133
Track not present in AccurateRip database
Copy OK

Track 13

Filename N:\Music\Harry Potter\Harry Potter And The Half-Blood Prince [2009, FLAC] - Nicholas Hooper\13 - School!.wav

Peak level 40.8 %
Track quality 100.0 %
Test CRC 49DEF0A7
Copy CRC 49DEF0A7
Track not present in AccurateRip database
Copy OK

Track 14

Filename N:\Music\Harry Potter\Harry Potter And The Half-Blood Prince [2009, FLAC] - Nicholas Hooper\14 - Malfoy's Mission.wav

Peak level 90.3 %
Track quality 99.9 %
Test CRC B50A6B58
Copy CRC B50A6B58
Track not present in AccurateRip database
Copy OK

Track 15

Filename N:\Music\Harry Potter\Harry Potter And The Half-Blood Prince [2009, FLAC] - Nicholas Hooper\15 - The Slug Party.wav

Peak level 36.2 %
Track quality 100.0 %
Test CRC C1341314
Copy CRC C1341314
Track not present in AccurateRip database
Copy OK

Track 16

Filename N:\Music\Harry Potter\Harry Potter And The Half-Blood Prince [2009, FLAC] - Nicholas Hooper\16 - Into the Rushes.wav

Peak level 99.7 %
Track quality 100.0 %
Test CRC 24B7B5FC
Copy CRC 24B7B5FC
Track not present in AccurateRip database
Copy OK

Track 17

Filename N:\Music\Harry Potter\Harry Potter And The Half-Blood Prince [2009, FLAC] - Nicholas Hooper\17 - Farewell Aragog.wav

Peak level 50.9 %
Track quality 100.0 %
Test CRC 437FBB12
Copy CRC 437FBB12
Track not present in AccurateRip database
Copy OK

Track 18

Filename N:\Music\Harry Potter\Harry Potter And The Half-Blood Prince [2009, FLAC] - Nicholas Hooper\18 - Dumbledore's Foreboding.wav

Peak level 52.1 %
Track quality 100.0 %
Test CRC E225D8E4
Copy CRC E225D8E4
Track not present in AccurateRip database
Copy OK

Track 19

Filename N:\Music\Harry Potter\Harry Potter And The Half-Blood Prince [2009, FLAC] - Nicholas Hooper\19 - Of Love & War.wav

Peak level 99.6 %
Track quality 100.0 %
Test CRC 92924D98
Copy CRC 92924D98
Track not present in AccurateRip database
Copy OK

Track 20

Filename N:\Music\Harry Potter\Harry Potter And The Half-Blood Prince [2009, FLAC] - Nicholas Hooper\20 - When Ginny Kissed Harry.wav

Peak level 52.5 %
Track quality 100.0 %
Test CRC 65B8DB2A
Copy CRC 65B8DB2A
Track not present in AccurateRip database
Copy OK

Track 21

Filename N:\Music\Harry Potter\Harry Potter And The Half-Blood Prince [2009, FLAC] - Nicholas Hooper\21 - Slughorn's Confession.wav

Peak level 65.8 %
Track quality 100.0 %
Test CRC E71515BD
Copy CRC E71515BD
Track not present in AccurateRip database
Copy OK

Track 22

Filename N:\Music\Harry Potter\Harry Potter And The Half-Blood Prince [2009, FLAC] - Nicholas Hooper\22 - Journey To The Cave.wav

Peak level 94.2 %
Track quality 99.9 %
Test CRC 8E246551
Copy CRC 8E246551
Track not present in AccurateRip database
Copy OK

Track 23

Filename N:\Music\Harry Potter\Harry Potter And The Half-Blood Prince [2009, FLAC] - Nicholas Hooper\23 - The Drink Of Despair.wav

Peak level 64.4 %
Track quality 100.0 %
Test CRC A24210AB
Copy CRC A24210AB
Track not present in AccurateRip database
Copy OK

Track 24

Filename N:\Music\Harry Potter\Harry Potter And The Half-Blood Prince [2009, FLAC] - Nicholas Hooper\24 - Inferi In The Firestorm.wav

Peak level 99.6 %
Track quality 100.0 %
Test CRC 600025CE
Copy CRC 600025CE
Track not present in AccurateRip database
Copy OK

Track 25

Filename N:\Music\Harry Potter\Harry Potter And The Half-Blood Prince [2009, FLAC] - Nicholas Hooper\25 - The Killing Of Dumbledore.wav

Peak level 99.7 %
Track quality 100.0 %
Test CRC F5997C57
Copy CRC F5997C57
Track not present in AccurateRip database
Copy OK

Track 26

Filename N:\Music\Harry Potter\Harry Potter And The Half-Blood Prince [2009, FLAC] - Nicholas Hooper\26 - Dumbledore's Farewell.wav

Peak level 62.3 %
Track quality 100.0 %
Test CRC 66D618F6
Copy CRC 66D618F6
Track not present in AccurateRip database
Copy OK

Track 27

Filename N:\Music\Harry Potter\Harry Potter And The Half-Blood Prince [2009, FLAC] - Nicholas Hooper\27 - The Friends.wav

Peak level 35.9 %
Track quality 99.9 %
Test CRC D40D6B05
Copy CRC D40D6B05
Track not present in AccurateRip database
Copy OK

Track 28

Filename N:\Music\Harry Potter\Harry Potter And The Half-Blood Prince [2009, FLAC] - Nicholas Hooper\28 - The Weasley Stomp.wav

Peak level 99.7 %
Track quality 99.9 %
Test CRC 5CBA0E1C
Copy CRC 5CBA0E1C
Track not present in AccurateRip database
Copy OK

None of the tracks are present in the AccurateRip database

No errors occurred

End of status report


Гарри Поттер и Дары Смерти: Часть 1 / Harry Potter And The Deathly Hallows: Part 1 (Limited Edition Collector's Box Set)
Композитор: Alexandre Desplat
Год выпуска диска: 2010
Продолжительность: 01:13:55 + 00:15:51

DISC 1
01. Obliviate [03:02]
02. Snape to Malfoy Manor [01:58]
03. Polyjuice Potion [03:32]
04. Sky Battle [03:48]
05. At the Burrow [02:35]
06. Harry and Ginny [01:43]
07. The Will [03:39]
08. Death Eaters [03:14]
09. Dobby [03:49]
10. Ministry of Magic [01:46]
11. Detonators [02:23]
12. The Locket [01:52]
13. Fireplaces Escape [02:54]
14. Ron Leaves [02:35]
15. The Exodus [01:37]
16. Godric's Hollow Graveyard [03:15]
17. Bathilda Bagshot [03:54]
18. Hermione's Parents [05:50]
19. Destroying the Locket [01:10]
20. Ron's Speech [02:16]
21. Lovegood [03:27]
22. The Deathly Hallows [03:17]
23. Captured and Tourtured [02:56]
24. Rescuing Hermione [01:50]
25. Farewell to Dobby [03:43]
26. The Elder Wand [01:36]

DISC 2
01. Voldemort [04:18]
02. Grimmauld Place [02:12]
03. The Dumbledores [02:09]
04. The Tale Of The Three Brothers [01:53]
05. Bellatrix [02:11]
06. My Love Is Always There [03:04]
 
Exact Audio Copy V1.0 beta 1 from 15. November 2010

EAC extraction logfile from 25. December 2010, 12:54

Alexandre Desplat / Harry Potter and the Deathly Hallows: Part 1 (Collector's Edition) - CD 1

Used drive : LITE-ON DVD SHD-16P1S Adapter: 0 ID: 0

Read mode : Secure
Utilize accurate stream : Yes
Defeat audio cache : Yes
Make use of C2 pointers : No

Read offset correction : 6
Overread into Lead-In and Lead-Out : No
Fill up missing offset samples with silence : Yes
Delete leading and trailing silent blocks : No
Null samples used in CRC calculations : Yes
Used interface : Native Win32 interface for Win NT & 2000
Gap handling : Appended to previous track

Used output format : User Defined Encoder
Selected bitrate : 320 kBit/s
Quality : High
Add ID3 tag : No
Command line compressor : C:\Program Files (x86)\FLAC\flac.exe
Additional command line options : -V -8 -T "artist=%a" -T "title=%t" -T "album=%g" -T "date=%y" -T "tracknumber=%n" -T "genre=%m" %s

TOC of the extracted CD

Track | Start | Length | Start sector | End sector
---------------------------------------------------------
1 | 0:00.00 | 3:02.15 | 0 | 13664
2 | 3:02.15 | 1:58.35 | 13665 | 22549
3 | 5:00.50 | 3:32.31 | 22550 | 38480
4 | 8:33.06 | 3:48.49 | 38481 | 55629
5 | 12:21.55 | 2:35.11 | 55630 | 67265
6 | 14:56.66 | 1:43.64 | 67266 | 75054
7 | 16:40.55 | 3:39.19 | 75055 | 91498
8 | 20:19.74 | 3:14.66 | 91499 | 106114
9 | 23:34.65 | 3:49.08 | 106115 | 123297
10 | 27:23.73 | 1:46.31 | 123298 | 131278
11 | 29:10.29 | 2:23.37 | 131279 | 142040
12 | 31:33.66 | 1:52.22 | 142041 | 150462
13 | 33:26.13 | 2:54.44 | 150463 | 163556
14 | 36:20.57 | 2:35.67 | 163557 | 175248
15 | 38:56.49 | 1:37.39 | 175249 | 182562
16 | 40:34.13 | 3:15.02 | 182563 | 197189
17 | 43:49.15 | 3:54.33 | 197190 | 214772
18 | 47:43.48 | 5:50.69 | 214773 | 241091
19 | 53:34.42 | 1:10.72 | 241092 | 246413
20 | 54:45.39 | 2:16.44 | 246414 | 256657
21 | 57:02.08 | 3:27.39 | 256658 | 272221
22 | 60:29.47 | 3:17.64 | 272222 | 287060
23 | 63:47.36 | 2:56.43 | 287061 | 300303
24 | 66:44.04 | 1:50.47 | 300304 | 308600
25 | 68:34.51 | 3:43.46 | 308601 | 325371
26 | 72:18.22 | 1:36.67 | 325372 | 332638
27 | 76:27.14 | 2:18.73 | 344039 | 354461

Track 1

Filename H:\Musiques\Alexandre Desplat\Harry Potter and the Deathly Hallows - Part 1 (Collector's Edition)\CD 1\FLAC\01 Obliviate.wav

Pre-gap length 0:00:02.00

Peak level 98.0 %
Extraction speed 8.2 X
Track quality 100.0 %
Test CRC CA86FF1B
Copy CRC CA86FF1B
Track not present in AccurateRip database
Copy OK

Track 2

Filename H:\Musiques\Alexandre Desplat\Harry Potter and the Deathly Hallows - Part 1 (Collector's Edition)\CD 1\FLAC\02 Snape to Malfoy Manor.wav

Pre-gap length 0:00:00.50

Peak level 96.4 %
Extraction speed 7.2 X
Track quality 100.0 %
Test CRC 095FCFB2
Copy CRC 095FCFB2
Track not present in AccurateRip database
Copy OK

Track 3

Filename H:\Musiques\Alexandre Desplat\Harry Potter and the Deathly Hallows - Part 1 (Collector's Edition)\CD 1\FLAC\03 Polyjuice Potion.wav

Peak level 98.0 %
Extraction speed 8.4 X
Track quality 100.0 %
Test CRC E07A43BE
Copy CRC E07A43BE
Track not present in AccurateRip database
Copy OK

Track 4

Filename H:\Musiques\Alexandre Desplat\Harry Potter and the Deathly Hallows - Part 1 (Collector's Edition)\CD 1\FLAC\04 Sky Battle.wav

Pre-gap length 0:00:00.21

Peak level 98.0 %
Extraction speed 9.3 X
Track quality 100.0 %
Test CRC A219DBC8
Copy CRC A219DBC8
Track not present in AccurateRip database
Copy OK

Track 5

Filename H:\Musiques\Alexandre Desplat\Harry Potter and the Deathly Hallows - Part 1 (Collector's Edition)\CD 1\FLAC\05 At the Burrow.wav

Peak level 88.4 %
Extraction speed 9.1 X
Track quality 100.0 %
Test CRC 2D89A1A7
Copy CRC 2D89A1A7
Track not present in AccurateRip database
Copy OK

Track 6

Filename H:\Musiques\Alexandre Desplat\Harry Potter and the Deathly Hallows - Part 1 (Collector's Edition)\CD 1\FLAC\06 Harry and Ginny.wav

Peak level 46.8 %
Extraction speed 8.1 X
Track quality 100.0 %
Test CRC 95251B38
Copy CRC 95251B38
Track not present in AccurateRip database
Copy OK

Track 7

Filename H:\Musiques\Alexandre Desplat\Harry Potter and the Deathly Hallows - Part 1 (Collector's Edition)\CD 1\FLAC\07 The Will.wav

Pre-gap length 0:00:00.26

Peak level 98.0 %
Extraction speed 10.2 X
Track quality 100.0 %
Test CRC 5227CFF8
Copy CRC 5227CFF8
Track not present in AccurateRip database
Copy OK

Track 8

Filename H:\Musiques\Alexandre Desplat\Harry Potter and the Deathly Hallows - Part 1 (Collector's Edition)\CD 1\FLAC\08 Death Eaters.wav

Peak level 98.0 %
Extraction speed 10.4 X
Track quality 100.0 %
Test CRC 0D23B68D
Copy CRC 0D23B68D
Track not present in AccurateRip database
Copy OK

Track 9

Filename H:\Musiques\Alexandre Desplat\Harry Potter and the Deathly Hallows - Part 1 (Collector's Edition)\CD 1\FLAC\09 Dobby.wav

Pre-gap length 0:00:00.05

Peak level 93.0 %
Extraction speed 9.7 X
Track quality 99.9 %
Test CRC D70C058A
Copy CRC D70C058A
Track not present in AccurateRip database
Copy OK

Track 10

Filename H:\Musiques\Alexandre Desplat\Harry Potter and the Deathly Hallows - Part 1 (Collector's Edition)\CD 1\FLAC\10 Ministry of Magic.wav

Pre-gap length 0:00:00.29

Peak level 98.0 %
Extraction speed 9.5 X
Track quality 100.0 %
Test CRC 14990AF8
Copy CRC 14990AF8
Track not present in AccurateRip database
Copy OK

Track 11

Filename H:\Musiques\Alexandre Desplat\Harry Potter and the Deathly Hallows - Part 1 (Collector's Edition)\CD 1\FLAC\11 Detonators.wav

Peak level 98.0 %
Extraction speed 10.6 X
Track quality 100.0 %
Test CRC FEA38A6E
Copy CRC FEA38A6E
Track not present in AccurateRip database
Copy OK

Track 12

Filename H:\Musiques\Alexandre Desplat\Harry Potter and the Deathly Hallows - Part 1 (Collector's Edition)\CD 1\FLAC\12 The Locket.wav

Pre-gap length 0:00:00.14

Peak level 97.8 %
Extraction speed 10.1 X
Track quality 100.0 %
Test CRC A9A6670B
Copy CRC A9A6670B
Track not present in AccurateRip database
Copy OK

Track 13

Filename H:\Musiques\Alexandre Desplat\Harry Potter and the Deathly Hallows - Part 1 (Collector's Edition)\CD 1\FLAC\13 Fireplaces Escape.wav

Pre-gap length 0:00:00.18

Peak level 98.0 %
Extraction speed 11.7 X
Track quality 100.0 %
Test CRC D5746EF7
Copy CRC D5746EF7
Track not present in AccurateRip database
Copy OK

Track 14

Filename H:\Musiques\Alexandre Desplat\Harry Potter and the Deathly Hallows - Part 1 (Collector's Edition)\CD 1\FLAC\14 Ron Leaves.wav

Pre-gap length 0:00:00.97

Peak level 90.8 %
Extraction speed 10.7 X
Track quality 100.0 %
Test CRC 797B52F8
Copy CRC 797B52F8
Track not present in AccurateRip database
Copy OK

Track 15

Filename H:\Musiques\Alexandre Desplat\Harry Potter and the Deathly Hallows - Part 1 (Collector's Edition)\CD 1\FLAC\15 The Exodus.wav

Pre-gap length 0:00:00.09

Peak level 98.0 %
Extraction speed 10.3 X
Track quality 100.0 %
Test CRC 6918AAC8
Copy CRC 6918AAC8
Track not present in AccurateRip database
Copy OK

Track 16

Filename H:\Musiques\Alexandre Desplat\Harry Potter and the Deathly Hallows - Part 1 (Collector's Edition)\CD 1\FLAC\16 Godric's Hollow Graveyard.wav

Pre-gap length 0:00:00.34

Peak level 77.4 %
Extraction speed 12.7 X
Track quality 100.0 %
Test CRC D7BA0EAB
Copy CRC D7BA0EAB
Track not present in AccurateRip database
Copy OK

Track 17

Filename H:\Musiques\Alexandre Desplat\Harry Potter and the Deathly Hallows - Part 1 (Collector's Edition)\CD 1\FLAC\17 Bathilda Bagshot.wav

Peak level 98.0 %
Extraction speed 8.9 X
Track quality 99.9 %
Test CRC 6370833B
Copy CRC 6370833B
Track not present in AccurateRip database
Copy OK

Track 18

Filename H:\Musiques\Alexandre Desplat\Harry Potter and the Deathly Hallows - Part 1 (Collector's Edition)\CD 1\FLAC\18 Hermione's Parents.wav

Peak level 89.5 %
Extraction speed 7.8 X
Track quality 100.0 %
Test CRC 94FCC24D
Copy CRC 94FCC24D
Track not present in AccurateRip database
Copy OK

Track 19

Filename H:\Musiques\Alexandre Desplat\Harry Potter and the Deathly Hallows - Part 1 (Collector's Edition)\CD 1\FLAC\19 Destroying the Locket.wav

Peak level 97.9 %
Extraction speed 6.5 X
Track quality 100.0 %
Test CRC E657639F
Copy CRC E657639F
Track not present in AccurateRip database
Copy OK

Track 20

Filename H:\Musiques\Alexandre Desplat\Harry Potter and the Deathly Hallows - Part 1 (Collector's Edition)\CD 1\FLAC\20 Ron's Speech.wav

Pre-gap length 0:00:00.40

Peak level 54.1 %
Extraction speed 6.9 X
Track quality 100.0 %
Test CRC ABFF7A83
Copy CRC ABFF7A83
Track not present in AccurateRip database
Copy OK

Track 21

Filename H:\Musiques\Alexandre Desplat\Harry Potter and the Deathly Hallows - Part 1 (Collector's Edition)\CD 1\FLAC\21 Lovegood.wav

Peak level 96.6 %
Extraction speed 6.9 X
Track quality 99.9 %
Test CRC 9A81B4C7
Copy CRC 9A81B4C7
Track not present in AccurateRip database
Copy OK

Track 22

Filename H:\Musiques\Alexandre Desplat\Harry Potter and the Deathly Hallows - Part 1 (Collector's Edition)\CD 1\FLAC\22 The Deathly Hallows.wav

Pre-gap length 0:00:00.29

Peak level 98.0 %
Extraction speed 14.8 X
Track quality 100.0 %
Test CRC 11D24475
Copy CRC 11D24475
Track not present in AccurateRip database
Copy OK

Track 23

Filename H:\Musiques\Alexandre Desplat\Harry Potter and the Deathly Hallows - Part 1 (Collector's Edition)\CD 1\FLAC\23 Captured and Tourtured.wav

Pre-gap length 0:00:00.61

Peak level 98.0 %
Extraction speed 15.2 X
Track quality 100.0 %
Test CRC 3D7752FD
Copy CRC 3D7752FD
Track not present in AccurateRip database
Copy OK

Track 24

Filename H:\Musiques\Alexandre Desplat\Harry Potter and the Deathly Hallows - Part 1 (Collector's Edition)\CD 1\FLAC\24 Rescuing Hermione.wav

Peak level 98.0 %
Extraction speed 13.9 X
Track quality 100.0 %
Test CRC 847A0A8A
Copy CRC 847A0A8A
Track not present in AccurateRip database
Copy OK

Track 25

Filename H:\Musiques\Alexandre Desplat\Harry Potter and the Deathly Hallows - Part 1 (Collector's Edition)\CD 1\FLAC\25 Farewell to Dobby.wav

Peak level 90.6 %
Extraction speed 15.7 X
Track quality 100.0 %
Test CRC 12326ED2
Copy CRC 12326ED2
Track not present in AccurateRip database
Copy OK

Track 26

Filename H:\Musiques\Alexandre Desplat\Harry Potter and the Deathly Hallows - Part 1 (Collector's Edition)\CD 1\FLAC\26 The Elder Wand.wav

Pre-gap length 0:00:00.20

Peak level 98.0 %
Extraction speed 13.6 X
Track quality 100.0 %
Test CRC 71150D8F
Copy CRC 71150D8F
Track not present in AccurateRip database
Copy OK

None of the tracks are present in the AccurateRip database

No errors occurred

End of status report
 
Exact Audio Copy V1.0 beta 1 from 15. November 2010

EAC extraction logfile from 25. December 2010, 13:02

Alexandre Desplat / Harry Potter and the Deathly Hallows: Part 1 (Collector's Edition) - CD 2

Used drive : LITE-ON DVD SHD-16P1S Adapter: 0 ID: 0

Read mode : Secure
Utilize accurate stream : Yes
Defeat audio cache : Yes
Make use of C2 pointers : No

Read offset correction : 6
Overread into Lead-In and Lead-Out : No
Fill up missing offset samples with silence : Yes
Delete leading and trailing silent blocks : No
Null samples used in CRC calculations : Yes
Used interface : Native Win32 interface for Win NT & 2000
Gap handling : Appended to previous track

Used output format : User Defined Encoder
Selected bitrate : 320 kBit/s
Quality : High
Add ID3 tag : No
Command line compressor : C:\Program Files (x86)\FLAC\flac.exe
Additional command line options : -V -8 -T "artist=%a" -T "title=%t" -T "album=%g" -T "date=%y" -T "tracknumber=%n" -T "genre=%m" %s

TOC of the extracted CD

Track | Start | Length | Start sector | End sector
---------------------------------------------------------
1 | 0:00.00 | 4:18.45 | 0 | 19394
2 | 4:18.45 | 2:12.45 | 19395 | 29339
3 | 6:31.15 | 2:09.60 | 29340 | 39074
4 | 8:41.00 | 1:53.74 | 39075 | 47623
5 | 10:34.74 | 2:11.22 | 47624 | 57470
6 | 12:46.21 | 3:04.67 | 57471 | 71337

Track 1

Filename H:\Musiques\Alexandre Desplat\Harry Potter and the Deathly Hallows - Part 1 (Collector's Edition)\CD 2\FLAC\01 Voldemort.wav

Pre-gap length 0:00:02.00

Peak level 98.9 %
Extraction speed 6.9 X
Track quality 100.0 %
Test CRC 3CD1ADA6
Copy CRC 3CD1ADA6
Track not present in AccurateRip database
Copy OK

Track 2

Filename H:\Musiques\Alexandre Desplat\Harry Potter and the Deathly Hallows - Part 1 (Collector's Edition)\CD 2\FLAC\02 Grimmauld Place.wav

Peak level 96.5 %
Extraction speed 6.7 X
Track quality 100.0 %
Test CRC C45664CF
Copy CRC C45664CF
Track not present in AccurateRip database
Copy OK

Track 3

Filename H:\Musiques\Alexandre Desplat\Harry Potter and the Deathly Hallows - Part 1 (Collector's Edition)\CD 2\FLAC\03 The Dumbledores.wav

Peak level 51.3 %
Extraction speed 6.9 X
Track quality 100.0 %
Test CRC 0FE2601E
Copy CRC 0FE2601E
Track not present in AccurateRip database
Copy OK

Track 4

Filename H:\Musiques\Alexandre Desplat\Harry Potter and the Deathly Hallows - Part 1 (Collector's Edition)\CD 2\FLAC\04 The Tale Of The Three Brothers.wav

Peak level 51.9 %
Extraction speed 7.0 X
Track quality 100.0 %
Test CRC F75B42B4
Copy CRC F75B42B4
Track not present in AccurateRip database
Copy OK

Track 5

Filename H:\Musiques\Alexandre Desplat\Harry Potter and the Deathly Hallows - Part 1 (Collector's Edition)\CD 2\FLAC\05 Bellatrix.wav

Peak level 96.0 %
Extraction speed 7.4 X
Track quality 100.0 %
Test CRC 81E9E99C
Copy CRC 81E9E99C
Track not present in AccurateRip database
Copy OK

Track 6

Filename H:\Musiques\Alexandre Desplat\Harry Potter and the Deathly Hallows - Part 1 (Collector's Edition)\CD 2\FLAC\06 My Love Is Always There.wav

Pre-gap length 0:00:00.08

Peak level 67.4 %
Extraction speed 7.7 X
Track quality 100.0 %
Test CRC 8C42BF13
Copy CRC 8C42BF13
Track not present in AccurateRip database
Copy OK

None of the tracks are present in the AccurateRip database

No errors occurred

End of status report

Гарри Поттер и Дары Смерти: Часть 2 / Harry Potter And The Deathly Hallows: Part 2
Композитор: Alexandre Desplat
Год выпуска диска: 2011
Продолжительность: 01:08:22

01. Lily's Theme [02:28]
02. The Tunnel [01:09]
03. Underworld [05:26]
04. Gringotts [02:24]
05. Dragon Flight [01:44]
06. Neville [01:40]
07. A New Headmaster [03:26]
08. Panic Inside Hogwarts [01:53]
09. Statues [02:24]
10. The Grey Lady [05:51]
11. In The Chamber Of Secrets [01:37]
12. Battlefield [02:13]
13. The Diadem [03:08]
14. Broomsticks And Fire [01:24]
15. Courtyard Apocalypse [02:00]
16. Snape's Demise [02:51]
17. Severus And Lily [06:08]
18. Harry's Sacrifice [01:57]
19. The Resurrection Stone [04:32]
20. Harry Surrenders [01:30]
21. Procession [02:07]
22. Neville The Hero [02:17]
23. Showdown [03:37]
24. Voldemort's End [02:44]
25. A New Beginning [01:39]
 
Exact Audio Copy V1.0 beta 2 from 29. April 2011

EAC extraction logfile from 16. July 2011, 14:41

Alexandre Desplat / Harry Potter and the Deathly Hallows Part 2

Used drive : SONY DVD RW DRU-700A Adapter: 0 ID: 1

Read mode : Secure
Utilize accurate stream : Yes
Defeat audio cache : Yes
Make use of C2 pointers : No

Read offset correction : 12
Overread into Lead-In and Lead-Out : No
Fill up missing offset samples with silence : Yes
Delete leading and trailing silent blocks : No
Null samples used in CRC calculations : No
Used interface : Native Win32 interface for Win NT & 2000
Gap handling : Appended to previous track

Used output format : User Defined Encoder
Selected bitrate : 768 kBit/s
Quality : High
Add ID3 tag : No
Command line compressor : C:\Program Files (x86)\Exact Audio Copy\FLAC\FLAC.EXE
Additional command line options : -6 -V -T "ARTIST=%artist%" -T "TITLE=%title%" -T "ALBUM=%albumtitle%" -T "DATE=%year%" -T "TRACKNUMBER=%tracknr%" -T "GENRE=%genre%" -T "COMMENT=%comment%" -T "BAND=%albuminterpret%" -T "COMPOSER=%composer%" %haslyrics%--ta

TOC of the extracted CD

Track | Start | Length | Start sector | End sector
---------------------------------------------------------
1 | 0:00.00 | 2:28.61 | 0 | 11160
2 | 2:28.61 | 1:09.65 | 11161 | 16400
3 | 3:38.51 | 5:26.28 | 16401 | 40878
4 | 9:05.04 | 2:24.35 | 40879 | 51713
5 | 11:29.39 | 1:44.56 | 51714 | 59569
6 | 13:14.20 | 1:40.58 | 59570 | 67127
7 | 14:55.03 | 3:26.09 | 67128 | 82586
8 | 18:21.12 | 1:53.48 | 82587 | 91109
9 | 20:14.60 | 2:24.15 | 91110 | 101924
10 | 22:39.00 | 5:51.14 | 101925 | 128263
11 | 28:30.14 | 1:37.50 | 128264 | 135588
12 | 30:07.64 | 2:13.57 | 135589 | 145620
13 | 32:21.46 | 3:08.19 | 145621 | 159739
14 | 35:29.65 | 1:24.23 | 159740 | 166062
15 | 36:54.13 | 2:00.29 | 166063 | 175091
16 | 38:54.42 | 2:51.54 | 175092 | 187970
17 | 41:46.21 | 6:08.41 | 187971 | 215611
18 | 47:54.62 | 1:57.38 | 215612 | 224424
19 | 49:52.25 | 4:32.64 | 224425 | 244888
20 | 54:25.14 | 1:30.54 | 244889 | 251692
21 | 55:55.68 | 2:07.68 | 251693 | 261285
22 | 58:03.61 | 2:17.10 | 261286 | 271570
23 | 60:20.71 | 3:37.63 | 271571 | 287908
24 | 63:58.59 | 2:44.16 | 287909 | 300224
25 | 66:43.00 | 1:39.18 | 300225 | 307667

Track 1

Filename P:\Music\Harry Potter and the Deathly Hallows Part 2 (2011) - Alexandre Desplat\Harry Potter and the Deathly Hallows Part 2 (2011, FLAC) - Alexandre Desplat\01 Lily's Theme.wav

Pre-gap length 0:00:02.00

Peak level 42.4 %
Extraction speed 4.2 X
Track quality 100.0 %
Test CRC 72B36E9A
Copy CRC 72B36E9A
Track not present in AccurateRip database
Copy OK

Track 2

Filename P:\Music\Harry Potter and the Deathly Hallows Part 2 (2011) - Alexandre Desplat\Harry Potter and the Deathly Hallows Part 2 (2011, FLAC) - Alexandre Desplat\02 The Tunnel.wav

Peak level 98.0 %
Extraction speed 4.0 X
Track quality 100.0 %
Test CRC A98665A0
Copy CRC A98665A0
Track not present in AccurateRip database
Copy OK

Track 3

Filename P:\Music\Harry Potter and the Deathly Hallows Part 2 (2011) - Alexandre Desplat\Harry Potter and the Deathly Hallows Part 2 (2011, FLAC) - Alexandre Desplat\03 Underworld.wav

Pre-gap length 0:00:00.15

Peak level 98.0 %
Extraction speed 4.8 X
Track quality 100.0 %
Test CRC CAA3B4C7
Copy CRC CAA3B4C7
Track not present in AccurateRip database
Copy OK

Track 4

Filename P:\Music\Harry Potter and the Deathly Hallows Part 2 (2011) - Alexandre Desplat\Harry Potter and the Deathly Hallows Part 2 (2011, FLAC) - Alexandre Desplat\04 Gringotts.wav

Pre-gap length 0:00:01.60

Peak level 92.1 %
Extraction speed 4.9 X
Track quality 100.0 %
Test CRC BE7DA436
Copy CRC BE7DA436
Track not present in AccurateRip database
Copy OK

Track 5

Filename P:\Music\Harry Potter and the Deathly Hallows Part 2 (2011) - Alexandre Desplat\Harry Potter and the Deathly Hallows Part 2 (2011, FLAC) - Alexandre Desplat\05 Dragon Flight.wav

Peak level 98.0 %
Extraction speed 5.0 X
Track quality 100.0 %
Test CRC 8B4DF811
Copy CRC 8B4DF811
Track not present in AccurateRip database
Copy OK

Track 6

Filename P:\Music\Harry Potter and the Deathly Hallows Part 2 (2011) - Alexandre Desplat\Harry Potter and the Deathly Hallows Part 2 (2011, FLAC) - Alexandre Desplat\06 Neville.wav

Pre-gap length 0:00:00.67

Peak level 31.4 %
Extraction speed 5.0 X
Track quality 100.0 %
Test CRC D7F3F376
Copy CRC D7F3F376
Track not present in AccurateRip database
Copy OK

Track 7

Filename P:\Music\Harry Potter and the Deathly Hallows Part 2 (2011) - Alexandre Desplat\Harry Potter and the Deathly Hallows Part 2 (2011, FLAC) - Alexandre Desplat\07 A New Headmaster.wav

Peak level 98.0 %
Extraction speed 5.5 X
Track quality 100.0 %
Test CRC 8E384EF3
Copy CRC 8E384EF3
Track not present in AccurateRip database
Copy OK

Track 8

Filename P:\Music\Harry Potter and the Deathly Hallows Part 2 (2011) - Alexandre Desplat\Harry Potter and the Deathly Hallows Part 2 (2011, FLAC) - Alexandre Desplat\08 Panic Inside Hogwarts.wav

Pre-gap length 0:00:00.20

Peak level 98.0 %
Extraction speed 5.4 X
Track quality 100.0 %
Test CRC 5673BF05
Copy CRC 5673BF05
Track not present in AccurateRip database
Copy OK

Track 9

Filename P:\Music\Harry Potter and the Deathly Hallows Part 2 (2011) - Alexandre Desplat\Harry Potter and the Deathly Hallows Part 2 (2011, FLAC) - Alexandre Desplat\09 Statues.wav

Peak level 98.0 %
Extraction speed 5.7 X
Track quality 100.0 %
Test CRC C0FC67D1
Copy CRC C0FC67D1
Track not present in AccurateRip database
Copy OK

Track 10

Filename P:\Music\Harry Potter and the Deathly Hallows Part 2 (2011) - Alexandre Desplat\Harry Potter and the Deathly Hallows Part 2 (2011, FLAC) - Alexandre Desplat\10 The Grey Lady.wav

Pre-gap length 0:00:01.32

Peak level 98.0 %
Extraction speed 6.2 X
Track quality 100.0 %
Test CRC F31DDB7A
Copy CRC F31DDB7A
Track not present in AccurateRip database
Copy OK

Track 11

Filename P:\Music\Harry Potter and the Deathly Hallows Part 2 (2011) - Alexandre Desplat\Harry Potter and the Deathly Hallows Part 2 (2011, FLAC) - Alexandre Desplat\11 In The Chamber Of Secrets.wav

Peak level 98.0 %
Extraction speed 6.0 X
Track quality 100.0 %
Test CRC B56353A5
Copy CRC B56353A5
Track not present in AccurateRip database
Copy OK

Track 12

Filename P:\Music\Harry Potter and the Deathly Hallows Part 2 (2011) - Alexandre Desplat\Harry Potter and the Deathly Hallows Part 2 (2011, FLAC) - Alexandre Desplat\12 Battlefield.wav

Peak level 98.0 %
Extraction speed 5.6 X
Track quality 99.9 %
Test CRC DD009E23
Copy CRC DD009E23
Track not present in AccurateRip database
Copy OK

Track 13

Filename P:\Music\Harry Potter and the Deathly Hallows Part 2 (2011) - Alexandre Desplat\Harry Potter and the Deathly Hallows Part 2 (2011, FLAC) - Alexandre Desplat\13 The Diadem.wav

Peak level 98.0 %
Extraction speed 5.9 X
Track quality 99.9 %
Test CRC 46D1576D
Copy CRC 46D1576D
Track not present in AccurateRip database
Copy OK

Track 14

Filename P:\Music\Harry Potter and the Deathly Hallows Part 2 (2011) - Alexandre Desplat\Harry Potter and the Deathly Hallows Part 2 (2011, FLAC) - Alexandre Desplat\14 Broomsticks And Fire.wav

Peak level 98.0 %
Extraction speed 5.1 X
Track quality 99.8 %
Test CRC 6CE98524
Copy CRC 6CE98524
Track not present in AccurateRip database
Copy OK

Track 15

Filename P:\Music\Harry Potter and the Deathly Hallows Part 2 (2011) - Alexandre Desplat\Harry Potter and the Deathly Hallows Part 2 (2011, FLAC) - Alexandre Desplat\15 Courtyard Apocalypse.wav

Peak level 98.0 %
Extraction speed 6.5 X
Track quality 100.0 %
Test CRC 35D9A9B2
Copy CRC 35D9A9B2
Track not present in AccurateRip database
Copy OK

Track 16

Filename P:\Music\Harry Potter and the Deathly Hallows Part 2 (2011) - Alexandre Desplat\Harry Potter and the Deathly Hallows Part 2 (2011, FLAC) - Alexandre Desplat\16 Snape's Demise.wav

Peak level 95.9 %
Extraction speed 6.8 X
Track quality 100.0 %
Test CRC 8622397F
Copy CRC 8622397F
Track not present in AccurateRip database
Copy OK

Track 17

Filename P:\Music\Harry Potter and the Deathly Hallows Part 2 (2011) - Alexandre Desplat\Harry Potter and the Deathly Hallows Part 2 (2011, FLAC) - Alexandre Desplat\17 Severus And Lily.wav

Peak level 98.0 %
Extraction speed 7.3 X
Track quality 100.0 %
Test CRC A9801249
Copy CRC A9801249
Track not present in AccurateRip database
Copy OK

Track 18

Filename P:\Music\Harry Potter and the Deathly Hallows Part 2 (2011) - Alexandre Desplat\Harry Potter and the Deathly Hallows Part 2 (2011, FLAC) - Alexandre Desplat\18 Harry's Sacrifice.wav

Peak level 31.7 %
Extraction speed 5.9 X
Track quality 99.9 %
Test CRC A25606B9
Copy CRC A25606B9
Track not present in AccurateRip database
Copy OK

Track 19

Filename P:\Music\Harry Potter and the Deathly Hallows Part 2 (2011) - Alexandre Desplat\Harry Potter and the Deathly Hallows Part 2 (2011, FLAC) - Alexandre Desplat\19 The Resurrection Stone.wav

Peak level 38.5 %
Extraction speed 7.0 X
Track quality 99.9 %
Test CRC C7B9E365
Copy CRC C7B9E365
Track not present in AccurateRip database
Copy OK

Track 20

Filename P:\Music\Harry Potter and the Deathly Hallows Part 2 (2011) - Alexandre Desplat\Harry Potter and the Deathly Hallows Part 2 (2011, FLAC) - Alexandre Desplat\20 Harry Surrenders.wav

Peak level 48.1 %
Extraction speed 7.0 X
Track quality 100.0 %
Test CRC 685FF211
Copy CRC 685FF211
Track not present in AccurateRip database
Copy OK

Track 21

Filename P:\Music\Harry Potter and the Deathly Hallows Part 2 (2011) - Alexandre Desplat\Harry Potter and the Deathly Hallows Part 2 (2011, FLAC) - Alexandre Desplat\21 Procession.wav

Peak level 99.2 %
Extraction speed 7.4 X
Track quality 100.0 %
Test CRC 3B351017
Copy CRC 3B351017
Track not present in AccurateRip database
Copy OK

Track 22

Filename P:\Music\Harry Potter and the Deathly Hallows Part 2 (2011) - Alexandre Desplat\Harry Potter and the Deathly Hallows Part 2 (2011, FLAC) - Alexandre Desplat\22 Neville The Hero.wav

Peak level 98.0 %
Extraction speed 6.4 X
Track quality 99.9 %
Test CRC F2C3BDC7
Copy CRC F2C3BDC7
Track not present in AccurateRip database
Copy OK

Track 23

Filename P:\Music\Harry Potter and the Deathly Hallows Part 2 (2011) - Alexandre Desplat\Harry Potter and the Deathly Hallows Part 2 (2011, FLAC) - Alexandre Desplat\23 Showdown.wav

Peak level 98.0 %
Extraction speed 7.9 X
Track quality 100.0 %
Test CRC 82A2590A
Copy CRC 82A2590A
Track not present in AccurateRip database
Copy OK

Track 24

Filename P:\Music\Harry Potter and the Deathly Hallows Part 2 (2011) - Alexandre Desplat\Harry Potter and the Deathly Hallows Part 2 (2011, FLAC) - Alexandre Desplat\24 Voldemort's End.wav

Peak level 98.0 %
Extraction speed 7.8 X
Track quality 100.0 %
Test CRC C441781B
Copy CRC C441781B
Track not present in AccurateRip database
Copy OK

Track 25

Filename P:\Music\Harry Potter and the Deathly Hallows Part 2 (2011) - Alexandre Desplat\Harry Potter and the Deathly Hallows Part 2 (2011, FLAC) - Alexandre Desplat\25 A New Beginning.wav

Peak level 27.3 %
Extraction speed 4.3 X
Track quality 100.0 %
Test CRC 388B7CF1
Copy CRC 388B7CF1
Track not present in AccurateRip database
Copy OK

None of the tracks are present in the AccurateRip database

No errors occurred

End of status report

info [Профиль]  [ЛС] 
Показать сообщения:    
Ответить на тему

Текущее время: 22-Сен 16:08

Часовой пояс: GMT + 4



Вы не можете начинать темы
Вы не можете отвечать на сообщения
Вы не можете редактировать свои сообщения
Вы не можете удалять свои сообщения
Вы не можете голосовать в опросах
Вы не можете прикреплять файлы к сообщениям
Вы не можете скачивать файлы