Ошибка
Загрузка...

(Score) Звездные Войны / The Star Wars Trilogy (by John Williams and The Skywalker Symphony Orchestra) - 1990 г., FLAC (tracks), lossless

Ответить на тему
 
Автор Сообщение

Hobbit38

Пол: Пол:Муж

Стаж: 4 года

Сообщений: 527

Россия
Рейтинг

post 30-Апр-2018 14:07 0[+]

[Цитировать] 


The Star Wars Trilogy
Жанр: Score | Год выпуска диска: 1990

Композитор: John Williams | Исполнитель: The Skywalker Symphony Orchestra

Страна-производитель диска: Austria | Издатель (лейбл): Sony Classical SK 45947

Аудио кодек: FLAC (.flac) | Тип рипа: tracks | Битрейт аудио: lossless

Продолжительность: 00:55:46

01. Star Wars - Main Theme 5:51
02. Princess Leia 4:43
03. The Little People 5:15
04. The Imperial March 3:03
05. Yoda's Theme 3:15
06. Parade Of The Ewoks 3:47
07. The Asteroid Field 4:34
08. Luke And Leia 4:59
09. The Cantina Band 2:16
10. Here They Come! 2:16
11. Jabba The Hutt 3:07
12. The Forest Battle 4:20
13. Throne Room And Finale 7:57
 
Exact Audio Copy V1.0 beta 2 from 29. April 2011
EAC extraction logfile from 29. October 2011, 23:07
John Williams / The Star Wars Trilogy
Used drive : HL-DT-STDVDRAM GSA-H12L Adapter: 0 ID: 0
Read mode : Secure
Utilize accurate stream : Yes
Defeat audio cache : Yes
Make use of C2 pointers : No
Read offset correction : 667
Overread into Lead-In and Lead-Out : No
Fill up missing offset samples with silence : Yes
Delete leading and trailing silent blocks : No
Null samples used in CRC calculations : Yes
Used interface : Native Win32 interface for Win NT & 2000
Used output format : User Defined Encoder
Selected bitrate : 896 kBit/s
Quality : High
Add ID3 tag : No
Command line compressor : C:\Program Files\FLAC\flac.exe
Additional command line options : -5 -T "Artist=%artist%" -T "Title=%title%" -T "Album=%albumtitle%" -T "Date=%year%" -T "Tracknumber=%tracknr%" -T "Genre=%genre%" %source% -o %dest%
TOC of the extracted CD
Track | Start | Length | Start sector | End sector
---------------------------------------------------------
1 | 0:00.00 | 5:52.00 | 0 | 26399
2 | 5:52.00 | 4:46.42 | 26400 | 47891
3 | 10:38.42 | 5:16.15 | 47892 | 71606
4 | 15:54.57 | 3:05.73 | 71607 | 85554
5 | 19:00.55 | 3:16.67 | 85555 | 100321
6 | 22:17.47 | 3:49.20 | 100322 | 117516
7 | 26:06.67 | 4:35.43 | 117517 | 138184
8 | 30:42.35 | 5:01.55 | 138185 | 160814
9 | 35:44.15 | 2:19.07 | 160815 | 171246
10 | 38:03.22 | 2:17.40 | 171247 | 181561
11 | 40:20.62 | 3:07.25 | 181562 | 195611
12 | 43:28.12 | 4:20.55 | 195612 | 215166
13 | 47:48.67 | 7:57.38 | 215167 | 250979
Range status and errors
Selected range
Filename I:\=== VINYL RIPS ===\=== EAC===\John Williams - The Star Wars Trilogy.wav
Peak level 100.0 %
Extraction speed 7.8 X
Range quality 100.0 %
Test CRC 09618C5F
Copy CRC 09618C5F
Copy OK
No errors occurred
AccurateRip summary
Track 1 accurately ripped (confidence 3) [405E1F09] (AR v2)
Track 2 accurately ripped (confidence 3) [50B4FF72] (AR v2)
Track 3 accurately ripped (confidence 3) [327A76E4] (AR v2)
Track 4 accurately ripped (confidence 3) [567EC708] (AR v2)
Track 5 accurately ripped (confidence 3) [47AC6A01] (AR v2)
Track 6 accurately ripped (confidence 3) [985E9B65] (AR v2)
Track 7 accurately ripped (confidence 3) [D6920269] (AR v2)
Track 8 accurately ripped (confidence 3) [0D8C2F2B] (AR v2)
Track 9 accurately ripped (confidence 3) [215FC12C] (AR v2)
Track 10 accurately ripped (confidence 3) [75FD5CB9] (AR v2)
Track 11 accurately ripped (confidence 3) [7B835C9F] (AR v2)
Track 12 accurately ripped (confidence 3) [85DE83B9] (AR v2)
Track 13 accurately ripped (confidence 3) [FB714352] (AR v2)
All tracks accurately ripped
End of status report
==== Log checksum B4D2A12CB8E5BADDEB22D773230A3B02D43717AA0B2937236309320A0E4464D5 ====

info [Профиль]  [ЛС] 
Показать сообщения:    
Ответить на тему

Текущее время: 23-Май 19:08

Часовой пояс: GMT + 4



Вы не можете начинать темы
Вы не можете отвечать на сообщения
Вы не можете редактировать свои сообщения
Вы не можете удалять свои сообщения
Вы не можете голосовать в опросах
Вы не можете прикреплять файлы к сообщениям
Вы не можете скачивать файлы