Ошибка

Недокументированный тег pre: Возможности и применение.

Тема закрыта
 
Автор Сообщение

Попрыгун

Пол: Пол:Муж

Стаж: 13 лет

Сообщений: 602

Рейтинг

post 28-Дек-2009 20:02 [-]0[+]

[Цитировать] 

В нашем с вами распоряжении появился тег pre, позволяющий делать логи EAC более читабельными (альтернатива тегу code). Тег является не документированным. Особенность его состоит в том, что служебные символы и пробелы не выкидываются, сохраняется исходное форматирование (для nfo). Рекомендуемая область применения: лог EAC и nfo

Примеры:
EAC extraction logfile from 10. September 2008, 21:02 for CD
Medwyn Goodall / Amun Ra

Used drive : IDE-DVD DROM6216 Adapter: 0 ID: 1
Read mode : Secure with NO C2, accurate stream, disable cache
Read offset correction : 738
Overread into Lead-In and Lead-Out : No

Used output format : C:\Program Files\FLAC\flac.exe (User Defined Encoder)
256 kBit/s
Additional command line options : -8 -V -T "ARTIST=%a" -T "TITLE=%t" -T "ALBUM=%g" -T "DATE=%y" -T "TRACKNUMBER=%n" -T "GENRE=%m" -T "COMMENT=EAC FLAC -8" %s

Other options :
Fill up missing offset samples with silence : Yes
Delete leading and trailing silent blocks : No
Installed external ASPI interface

Track 1
Filename D:\Flac Rips\01 - Amun Ra.wav

Pre-gap length 0:00:02.01

Peak level 94.7 %
Track quality 99.9 %
Test CRC CF046ACB
Copy CRC CF046ACB
Copy OK

Track 2
Filename D:\Flac Rips\02 - The Lost Pharoah.wav

Peak level 96.5 %
Track quality 100.0 %
Test CRC 1493FDB7
Copy CRC 1493FDB7
Copy OK

Track 3
Filename D:\Flac Rips\03 - Temples of the Sun.wav

Peak level 97.8 %
Track quality 100.0 %
Test CRC 609C14E0
Copy CRC 609C14E0
Copy OK

Track 4
Filename D:\Flac Rips\04 - Gold in the Sand.wav

Peak level 99.4 %
Track quality 100.0 %
Test CRC B341A313
Copy CRC B341A313
Copy OK

Track 5
Filename D:\Flac Rips\05 - Dance of Veils.wav

Peak level 85.1 %
Track quality 100.0 %
Test CRC 1D2730D1
Copy CRC 1D2730D1
Copy OK

Track 6
Filename D:\Flac Rips\06 - Sunspell.wav

Peak level 77.7 %
Track quality 100.0 %
Test CRC 0836D0D9
Copy CRC 0836D0D9
Copy OK

Track 7
Filename D:\Flac Rips\07 - Ra - single version.wav

Peak level 100.0 %
Track quality 100.0 %
Test CRC 90A71AFF
Copy CRC 90A71AFF
Copy OK

No errors occured

End of status report

Код:

EAC extraction logfile from 10. September 2008, 21:02 for CD
 Medwyn Goodall / Amun Ra

 Used drive  : IDE-DVD DROM6216   Adapter: 0  ID: 1
 Read mode   : Secure with NO C2, accurate stream, disable cache
 Read offset correction : 738
 Overread into Lead-In and Lead-Out : No

 Used output format : C:\Program Files\FLAC\flac.exe   (User Defined Encoder)
                      256 kBit/s
                      Additional command line options : -8 -V -T "ARTIST=%a" -T "TITLE=%t" -T "ALBUM=%g" -T "DATE=%y" -T "TRACKNUMBER=%n" -T "GENRE=%m" -T "COMMENT=EAC FLAC -8" %s

 Other options      :
     Fill up missing offset samples with silence : Yes
     Delete leading and trailing silent blocks : No
     Installed external ASPI interface

 Track  1
      Filename D:\Flac Rips\01 - Amun Ra.wav

      Pre-gap length  0:00:02.01

      Peak level 94.7 %
      Track quality 99.9 %
      Test CRC CF046ACB
      Copy CRC CF046ACB
      Copy OK

 Track  2
      Filename D:\Flac Rips\02 - The Lost Pharoah.wav

      Peak level 96.5 %
      Track quality 100.0 %
      Test CRC 1493FDB7
      Copy CRC 1493FDB7
      Copy OK

 Track  3
      Filename D:\Flac Rips\03 - Temples of the Sun.wav

      Peak level 97.8 %
      Track quality 100.0 %
      Test CRC 609C14E0
      Copy CRC 609C14E0
      Copy OK

 Track  4
      Filename D:\Flac Rips\04 - Gold in the Sand.wav

      Peak level 99.4 %
      Track quality 100.0 %
      Test CRC B341A313
      Copy CRC B341A313
      Copy OK

 Track  5
      Filename D:\Flac Rips\05 - Dance of Veils.wav

      Peak level 85.1 %
      Track quality 100.0 %
      Test CRC 1D2730D1
      Copy CRC 1D2730D1
      Copy OK

 Track  6
      Filename D:\Flac Rips\06 - Sunspell.wav

      Peak level 77.7 %
      Track quality 100.0 %
      Test CRC 0836D0D9
      Copy CRC 0836D0D9
      Copy OK

 Track  7
      Filename D:\Flac Rips\07 - Ra - single version.wav

      Peak level 100.0 %
      Track quality 100.0 %
      Test CRC 90A71AFF
      Copy CRC 90A71AFF
      Copy OK

 No errors occured

 End of status report
EAC extraction logfile from 10. September 2008, 21:02 for CD 
Medwyn Goodall / Amun Ra

Used drive : IDE-DVD DROM6216 Adapter: 0 ID: 1
Read mode : Secure with NO C2, accurate stream, disable cache
Read offset correction : 738
Overread into Lead-In and Lead-Out : No

Used output format : C:\Program Files\FLAC\flac.exe (User Defined Encoder)
256 kBit/s
Additional command line options : -8 -V -T "ARTIST=%a" -T "TITLE=%t" -T "ALBUM=%g" -T "DATE=%y" -T "TRACKNUMBER=%n" -T "GENRE=%m" -T "COMMENT=EAC FLAC -8" %s

Other options :
Fill up missing offset samples with silence : Yes
Delete leading and trailing silent blocks : No
Installed external ASPI interface

Track 1
Filename D:\Flac Rips\01 - Amun Ra.wav

Pre-gap length 0:00:02.01

Peak level 94.7 %
Track quality 99.9 %
Test CRC CF046ACB
Copy CRC CF046ACB
Copy OK

Track 2
Filename D:\Flac Rips\02 - The Lost Pharoah.wav

Peak level 96.5 %
Track quality 100.0 %
Test CRC 1493FDB7
Copy CRC 1493FDB7
Copy OK

Track 3
Filename D:\Flac Rips\03 - Temples of the Sun.wav

Peak level 97.8 %
Track quality 100.0 %
Test CRC 609C14E0
Copy CRC 609C14E0
Copy OK

Track 4
Filename D:\Flac Rips\04 - Gold in the Sand.wav

Peak level 99.4 %
Track quality 100.0 %
Test CRC B341A313
Copy CRC B341A313
Copy OK

Track 5
Filename D:\Flac Rips\05 - Dance of Veils.wav

Peak level 85.1 %
Track quality 100.0 %
Test CRC 1D2730D1
Copy CRC 1D2730D1
Copy OK

Track 6
Filename D:\Flac Rips\06 - Sunspell.wav

Peak level 77.7 %
Track quality 100.0 %
Test CRC 0836D0D9
Copy CRC 0836D0D9
Copy OK

Track 7
Filename D:\Flac Rips\07 - Ra - single version.wav

Peak level 100.0 %
Track quality 100.0 %
Test CRC 90A71AFF
Copy CRC 90A71AFF
Copy OK

No errors occured

End of status report
.
▄██████▄ ████ ▐██████████
██████████ ▐████▌ ▐██████████
▐████▀▀████▌ ██████ ▐████▀▀▀▀▀▀
████▌ ▐████ ▐██████▌ ▐████
████ ███▌▐███ ▐████
████ ▄▄▄▄▄ ▐███ ███▌ ▐██████████
████ ██████ ████ ████ ▐██████████
████ ▀█████ ▐███▌ ▐███▌ ▐████
████ ████ ████████████ ▐████
████▌ ████ ▐████████████▌ ▐████
▐████▄▄█████ ████▌ ▐████ ▐████
▀█████▀████ ▐█████ █████▌ ▐████

──┤ iNFO─├─────────────┤ Give A Fuck Proudly Presents ├───────────────────────

ARTiST ..: Moonbeam And Tyler Michaud Feat Fisher
TITLE ...: Love Never Dies

GENRE ...: Trance
LABEL ...: High Contrast Nubreed Holland
CAT# ....: HCNB 008

SOURCE ..: WEB
URL .....: http://www.junodownload.com
ENCODER .: FLAC 1.2.1b
QUALITY .: LOSSLESS / 44.1kHz / Joint Stereo

SiZE ....: 128 MB
TRACKS ..: 03

┤ TRACKS ├────────────────────────────────────────────────────────────────────

01 Moonbeam And Tyler Michaud feat 07:37
Fisher - Love Never Dies
02 Moonbeam And Tyler Michaud feat 07:05
Fisher - Love Never Dies (Dub)
03 Moonbeam And Tyler Michaud feat 03:40
Fisher - Love Never Dies (Radio Edit)

18:22 min

─┤ NOTES ├────────────────────────────────────────────────────────────────────

ENJOY!

Like a release? Buy it!

─┤ GROUP ├────────────────────────────────────────────────────────────────────

GAF is here to bring you lossless and maybe some 320 mp3s. We certainly
aren't here here to race other groups. We just release what we like,
and that's that. If you've got a problem with that, then you can just
gtfo.

Код:

.
                     ▄██████▄          ████        ▐██████████
                    ██████████        ▐████▌       ▐██████████
                   ▐████▀▀████▌       ██████       ▐████▀▀▀▀▀▀
                   ████▌  ▐████      ▐██████▌      ▐████
                   ████              ███▌▐███      ▐████
                   ████  ▄▄▄▄▄      ▐███  ███▌     ▐██████████
                   ████  ██████     ████  ████     ▐██████████
                   ████  ▀█████    ▐███▌  ▐███▌    ▐████
                   ████    ████    ████████████    ▐████
                   ████▌   ████   ▐████████████▌   ▐████
                   ▐████▄▄█████   ████▌    ▐████   ▐████
                    ▀█████▀████  ▐█████    █████▌  ▐████

 ──┤ iNFO─├─────────────┤ Give A Fuck Proudly Presents ├───────────────────────

    ARTiST ..: Moonbeam And Tyler Michaud Feat Fisher
    TITLE ...: Love Never Dies

    GENRE ...: Trance
    LABEL ...: High Contrast Nubreed Holland
    CAT# ....: HCNB 008

    SOURCE ..: WEB
    URL .....: http://www.junodownload.com
    ENCODER .: FLAC 1.2.1b
    QUALITY .: LOSSLESS / 44.1kHz / Joint Stereo

    SiZE ....: 128 MB
    TRACKS ..: 03

 ┤ TRACKS ├────────────────────────────────────────────────────────────────────

           01 Moonbeam And Tyler Michaud feat        07:37
              Fisher - Love Never Dies
           02 Moonbeam And Tyler Michaud feat        07:05
              Fisher - Love Never Dies (Dub)
           03 Moonbeam And Tyler Michaud feat        03:40
              Fisher - Love Never Dies (Radio Edit)

                                                     18:22 min

 ─┤ NOTES ├────────────────────────────────────────────────────────────────────

       ENJOY!

       Like a release? Buy it!

 ─┤ GROUP ├────────────────────────────────────────────────────────────────────

       GAF is here to bring you lossless and maybe some 320 mp3s. We certainly
       aren't here here to race other groups. We just release what we like,
       and that's that. If you've got a problem with that, then you can just
       gtfo.
. 
▄██████▄ ████ ▐██████████
██████████ ▐████▌ ▐██████████
▐████▀▀████▌ ██████ ▐████▀▀▀▀▀▀
████▌ ▐████ ▐██████▌ ▐████
████ ███▌▐███ ▐████
████ ▄▄▄▄▄ ▐███ ███▌ ▐██████████
████ ██████ ████ ████ ▐██████████
████ ▀█████ ▐███▌ ▐███▌ ▐████
████ ████ ████████████ ▐████
████▌ ████ ▐████████████▌ ▐████
▐████▄▄█████ ████▌ ▐████ ▐████
▀█████▀████ ▐█████ █████▌ ▐████

──┤ iNFO─├─────────────┤ Give A Fuck Proudly Presents ├───────────────────────

ARTiST ..: Moonbeam And Tyler Michaud Feat Fisher
TITLE ...: Love Never Dies

GENRE ...: Trance
LABEL ...: High Contrast Nubreed Holland
CAT# ....: HCNB 008

SOURCE ..: WEB
URL .....: http://www.junodownload.com
ENCODER .: FLAC 1.2.1b
QUALITY .: LOSSLESS / 44.1kHz / Joint Stereo

SiZE ....: 128 MB
TRACKS ..: 03

┤ TRACKS ├────────────────────────────────────────────────────────────────────

01 Moonbeam And Tyler Michaud feat 07:37
Fisher - Love Never Dies
02 Moonbeam And Tyler Michaud feat 07:05
Fisher - Love Never Dies (Dub)
03 Moonbeam And Tyler Michaud feat 03:40
Fisher - Love Never Dies (Radio Edit)

18:22 min

─┤ NOTES ├────────────────────────────────────────────────────────────────────

ENJOY!

Like a release? Buy it!

─┤ GROUP ├────────────────────────────────────────────────────────────────────

GAF is here to bring you lossless and maybe some 320 mp3s. We certainly
aren't here here to race other groups. We just release what we like,
and that's that. If you've got a problem with that, then you can just
gtfo.
Для того, чтобы использовать тег оформляйте свои спойлеры следующим образом

Код:

[spoiler="Лог EAC"][pre]Содержимое лога или nfo[/pre][/spoiler]
info [Профиль]  [ЛС] 
Показать сообщения:    
Тема закрыта

Текущее время: 29-Ноя 12:18

Часовой пояс: GMT + 4



Вы не можете начинать темы
Вы не можете отвечать на сообщения
Вы не можете редактировать свои сообщения
Вы не можете удалять свои сообщения
Вы не можете голосовать в опросах
Вы не можете прикреплять файлы к сообщениям
Вы не можете скачивать файлы