Ошибка

(Score) God of War Soundtrack Collection (2010-2013 г.), FLAC (tracks), lossless

Ответить на тему
 
Автор Сообщение

Hobbit38

Пол: Пол:Муж

Стаж: 3 года 7 месяцев

Сообщений: 237

Россия
Рейтинг

post 29-Ноя-2017 02:51 0[+]

[Цитировать] 


God of War Soundtrack Collection
Жанр: Score | Страна: США | Год выпуска: 2010-2013

Аудиокодек: FLAC | Тип рипа: tracks | Битрейт аудио: lossless

Продолжительность: 03:50:32

Композиторы: Gerard Marino, Mike Reagan, Cris Velasco, Ron Fish and Winifred Phillips with Winnie Waldron
Год выпуска диска: 2010
Страна-производитель диска: США
Продолжительность: 00:47:36



01. The Vengeful Spartan (1:23)
02. Kratos And The Sea (2:23)
03. The Splendor Of Athens (2:11)
04. Ares Destroys Athens (1:15)
05. Mind The Cyclops (2:11)
06. Athenian Battle (3:09)
07. Exploring The Ruins (2:04)
08. Athens Rooftops Fighting (2:41)
09. Save The Oracle Challenge (1:37)
10. Kratos' Evil Past (2:02)
11. The Story Of Cronos (1:19)
12. Battle The Lethal Sirens (2:30)
13. The Temple Of Pandora (0:38)
14. Pandoran Cyclopes Attack (1:44)
15. The Architect's Mysteries (2:02)
16. Zeus' Wrath Divine (3:06)
17. The Underwater World Of Poseidon (3:06)
18. Minotaur Boss Battle (1:59)
19. Pandora's Box (1:02)
20. Hades, God Of The Underworld (1:15)
21. Duel With Ares (2:24)
22. Enthroned On Mount Olympus (1:59)
23. God Of War End Title (3:35)
 
Exact Audio Copy V0.99 prebeta 5 from 4. May 2009

EAC extraction logfile from 18. March 2010, 10:04

Sony Team / God Of War Soundtrack

Used drive : TSSTcorpCDDVDW SH-S203P Adapter: 2 ID: 0

Read mode : Secure
Utilize accurate stream : Yes
Defeat audio cache : Yes
Make use of C2 pointers : No

Read offset correction : 6
Overread into Lead-In and Lead-Out : No
Fill up missing offset samples with silence : Yes
Delete leading and trailing silent blocks : No
Null samples used in CRC calculations : Yes
Used interface : Native Win32 interface for Win NT & 2000
Gap handling : Appended to previous track

Used output format : User Defined Encoder
Selected bitrate : 768 kBit/s
Quality : High
Add ID3 tag : No
Command line compressor : C:\Program Files\Exact Audio Copy\FLAC\FLAC.EXE
Additional command line options : -6 -V -T "ARTIST=%a" -T "TITLE=%t" -T "ALBUM=%g" -T "DATE=%y" -T "TRACKNUMBER=%n" -T "GENRE=%m" -T "COMMENT=%e" %s -o %d

TOC of the extracted CD

Track | Start | Length | Start sector | End sector
---------------------------------------------------------
1 | 0:00.00 | 1:23.34 | 0 | 6258
2 | 1:23.34 | 2:23.10 | 6259 | 16993
3 | 3:46.44 | 2:10.40 | 16994 | 26783
4 | 5:57.09 | 1:15.03 | 26784 | 32411
5 | 7:12.12 | 2:11.34 | 32412 | 42270
6 | 9:23.46 | 3:08.64 | 42271 | 56434
7 | 12:32.35 | 2:04.13 | 56435 | 65747
8 | 14:36.48 | 2:40.48 | 65748 | 77795
9 | 17:17.21 | 1:36.53 | 77796 | 85048
10 | 18:53.74 | 2:02.37 | 85049 | 94235
11 | 20:56.36 | 1:19.12 | 94236 | 100172
12 | 22:15.48 | 2:30.19 | 100173 | 111441
13 | 24:45.67 | 0:38.12 | 111442 | 114303
14 | 25:24.04 | 1:44.21 | 114304 | 122124
15 | 27:08.25 | 2:01.73 | 122125 | 131272
16 | 29:10.23 | 3:05.69 | 131273 | 145216
17 | 32:16.17 | 3:05.72 | 145217 | 159163
18 | 35:22.14 | 1:58.63 | 159164 | 168076
19 | 37:21.02 | 1:02.27 | 168077 | 172753
20 | 38:23.29 | 1:15.04 | 172754 | 178382
21 | 39:38.33 | 2:23.38 | 178383 | 189145
22 | 42:01.71 | 1:59.09 | 189146 | 198079
23 | 44:01.05 | 3:34.66 | 198080 | 214195

Track 1

Filename C:\Documents and Settings\H2o\Bureau\Flac\Personnal Rip\Sony Team\2010. God Of War Trilogy Soundtrack\01. God Of War Soundtrack\01. The Vengeful Spartan.wav

Pre-gap length 0:00:02.00

Peak level 98.8 %
Track quality 100.0 %
Test CRC 1289544E
Copy CRC 1289544E
Track not present in AccurateRip database
Copy OK

Track 2

Filename C:\Documents and Settings\H2o\Bureau\Flac\Personnal Rip\Sony Team\2010. God Of War Trilogy Soundtrack\01. God Of War Soundtrack\02. Kratos And The Sea.wav

Pre-gap length 0:00:01.49

Peak level 98.8 %
Track quality 99.9 %
Test CRC 9F99173C
Copy CRC 9F99173C
Track not present in AccurateRip database
Copy OK

Track 3

Filename C:\Documents and Settings\H2o\Bureau\Flac\Personnal Rip\Sony Team\2010. God Of War Trilogy Soundtrack\01. God Of War Soundtrack\03. The Splendor Of Athens.wav

Pre-gap length 0:00:01.49

Peak level 98.8 %
Track quality 100.0 %
Test CRC 70C5ADCF
Copy CRC 70C5ADCF
Track not present in AccurateRip database
Copy OK

Track 4

Filename C:\Documents and Settings\H2o\Bureau\Flac\Personnal Rip\Sony Team\2010. God Of War Trilogy Soundtrack\01. God Of War Soundtrack\04. Ares Destroys Athens.wav

Pre-gap length 0:00:01.49

Peak level 98.8 %
Track quality 99.8 %
Test CRC 4E36F586
Copy CRC 4E36F586
Track not present in AccurateRip database
Copy OK

Track 5

Filename C:\Documents and Settings\H2o\Bureau\Flac\Personnal Rip\Sony Team\2010. God Of War Trilogy Soundtrack\01. God Of War Soundtrack\05. Mind The Cyclops.wav

Pre-gap length 0:00:01.49

Peak level 98.8 %
Track quality 100.0 %
Test CRC 5B9D1392
Copy CRC 5B9D1392
Track not present in AccurateRip database
Copy OK

Track 6

Filename C:\Documents and Settings\H2o\Bureau\Flac\Personnal Rip\Sony Team\2010. God Of War Trilogy Soundtrack\01. God Of War Soundtrack\06. Athenian Battle.wav

Pre-gap length 0:00:01.49

Peak level 98.8 %
Track quality 100.0 %
Test CRC 0272B304
Copy CRC 0272B304
Track not present in AccurateRip database
Copy OK

Track 7

Filename C:\Documents and Settings\H2o\Bureau\Flac\Personnal Rip\Sony Team\2010. God Of War Trilogy Soundtrack\01. God Of War Soundtrack\07. Exploring The Ruins.wav

Pre-gap length 0:00:01.49

Peak level 98.8 %
Track quality 99.9 %
Test CRC D86F0BF0
Copy CRC D86F0BF0
Track not present in AccurateRip database
Copy OK

Track 8

Filename C:\Documents and Settings\H2o\Bureau\Flac\Personnal Rip\Sony Team\2010. God Of War Trilogy Soundtrack\01. God Of War Soundtrack\08. Athens Rooftops Fighting.wav

Pre-gap length 0:00:01.49

Peak level 98.8 %
Track quality 100.0 %
Test CRC B4037035
Copy CRC B4037035
Track not present in AccurateRip database
Copy OK

Track 9

Filename C:\Documents and Settings\H2o\Bureau\Flac\Personnal Rip\Sony Team\2010. God Of War Trilogy Soundtrack\01. God Of War Soundtrack\09. Save The Oracle Challenge.wav

Pre-gap length 0:00:01.49

Peak level 88.1 %
Track quality 100.0 %
Test CRC 326B0D35
Copy CRC 326B0D35
Track not present in AccurateRip database
Copy OK

Track 10

Filename C:\Documents and Settings\H2o\Bureau\Flac\Personnal Rip\Sony Team\2010. God Of War Trilogy Soundtrack\01. God Of War Soundtrack\10. Kratos' Evil Past.wav

Pre-gap length 0:00:01.49

Peak level 98.8 %
Track quality 100.0 %
Test CRC F2A02D17
Copy CRC F2A02D17
Track not present in AccurateRip database
Copy OK

Track 11

Filename C:\Documents and Settings\H2o\Bureau\Flac\Personnal Rip\Sony Team\2010. God Of War Trilogy Soundtrack\01. God Of War Soundtrack\11. The Story Of Cronos.wav

Pre-gap length 0:00:01.49

Peak level 98.8 %
Track quality 100.0 %
Test CRC EE4CB8C7
Copy CRC EE4CB8C7
Track not present in AccurateRip database
Copy OK

Track 12

Filename C:\Documents and Settings\H2o\Bureau\Flac\Personnal Rip\Sony Team\2010. God Of War Trilogy Soundtrack\01. God Of War Soundtrack\12. Battle The Lethal Sirens.wav

Pre-gap length 0:00:01.49

Peak level 98.8 %
Track quality 100.0 %
Test CRC 68944486
Copy CRC 68944486
Track not present in AccurateRip database
Copy OK

Track 13

Filename C:\Documents and Settings\H2o\Bureau\Flac\Personnal Rip\Sony Team\2010. God Of War Trilogy Soundtrack\01. God Of War Soundtrack\13. The Temple Of Pandora.wav

Pre-gap length 0:00:01.49

Peak level 98.8 %
Track quality 99.7 %
Test CRC 8843E654
Copy CRC 8843E654
Track not present in AccurateRip database
Copy OK

Track 14

Filename C:\Documents and Settings\H2o\Bureau\Flac\Personnal Rip\Sony Team\2010. God Of War Trilogy Soundtrack\01. God Of War Soundtrack\14. Pandoran Cyclopes Attack.wav

Pre-gap length 0:00:01.49

Peak level 98.8 %
Track quality 99.8 %
Test CRC DB895637
Copy CRC DB895637
Track not present in AccurateRip database
Copy OK

Track 15

Filename C:\Documents and Settings\H2o\Bureau\Flac\Personnal Rip\Sony Team\2010. God Of War Trilogy Soundtrack\01. God Of War Soundtrack\15. The Architect's Mysteries.wav

Pre-gap length 0:00:01.49

Peak level 91.4 %
Track quality 100.0 %
Test CRC B522F258
Copy CRC B522F258
Track not present in AccurateRip database
Copy OK

Track 16

Filename C:\Documents and Settings\H2o\Bureau\Flac\Personnal Rip\Sony Team\2010. God Of War Trilogy Soundtrack\01. God Of War Soundtrack\16. Zeus' Wrath Divine.wav

Pre-gap length 0:00:01.49

Peak level 98.8 %
Track quality 100.0 %
Test CRC C18CA02B
Copy CRC C18CA02B
Track not present in AccurateRip database
Copy OK

Track 17

Filename C:\Documents and Settings\H2o\Bureau\Flac\Personnal Rip\Sony Team\2010. God Of War Trilogy Soundtrack\01. God Of War Soundtrack\17. The Underwater World Of Poseidon.wav

Pre-gap length 0:00:01.49

Peak level 98.8 %
Track quality 99.9 %
Test CRC 50CEA99B
Copy CRC 50CEA99B
Track not present in AccurateRip database
Copy OK

Track 18

Filename C:\Documents and Settings\H2o\Bureau\Flac\Personnal Rip\Sony Team\2010. God Of War Trilogy Soundtrack\01. God Of War Soundtrack\18. Minotaur Boss Battle.wav

Pre-gap length 0:00:01.49

Peak level 98.8 %
Track quality 100.0 %
Test CRC 0CDD2EFB
Copy CRC 0CDD2EFB
Track not present in AccurateRip database
Copy OK

Track 19

Filename C:\Documents and Settings\H2o\Bureau\Flac\Personnal Rip\Sony Team\2010. God Of War Trilogy Soundtrack\01. God Of War Soundtrack\19. Pandora's Box.wav

Pre-gap length 0:00:01.49

Peak level 94.5 %
Track quality 100.0 %
Test CRC C76C2BB5
Copy CRC C76C2BB5
Track not present in AccurateRip database
Copy OK

Track 20

Filename C:\Documents and Settings\H2o\Bureau\Flac\Personnal Rip\Sony Team\2010. God Of War Trilogy Soundtrack\01. God Of War Soundtrack\20. Hades, God Of The Underworld.wav

Pre-gap length 0:00:01.49

Peak level 98.8 %
Track quality 99.8 %
Test CRC 90AFA27F
Copy CRC 90AFA27F
Track not present in AccurateRip database
Copy OK

Track 21

Filename C:\Documents and Settings\H2o\Bureau\Flac\Personnal Rip\Sony Team\2010. God Of War Trilogy Soundtrack\01. God Of War Soundtrack\21. Duel With Ares.wav

Pre-gap length 0:00:01.49

Peak level 98.8 %
Track quality 100.0 %
Test CRC 8BC7C6A9
Copy CRC 8BC7C6A9
Track not present in AccurateRip database
Copy OK

Track 22

Filename C:\Documents and Settings\H2o\Bureau\Flac\Personnal Rip\Sony Team\2010. God Of War Trilogy Soundtrack\01. God Of War Soundtrack\22. Enthroned On Mount Olympus.wav

Pre-gap length 0:00:01.49

Peak level 95.7 %
Track quality 100.0 %
Test CRC 2BB3EF4E
Copy CRC 2BB3EF4E
Track not present in AccurateRip database
Copy OK

Track 23

Filename C:\Documents and Settings\H2o\Bureau\Flac\Personnal Rip\Sony Team\2010. God Of War Trilogy Soundtrack\01. God Of War Soundtrack\23. God Of War End Title.wav

Pre-gap length 0:00:01.49

Peak level 98.8 %
Track quality 99.9 %
Test CRC 2802BCA3
Copy CRC 2802BCA3
Track not present in AccurateRip database
Copy OK

None of the tracks are present in the AccurateRip database

No errors occurred

End of status report
Композиторы: Gerard Marino, Ron Fish, Mike Reagan and Cris Velasco
Год выпуска диска: 2010
Страна-производитель диска: США
Продолжительность: 00:57:54



01. God Of War II Main Titles (2:56)
02. The Glory Of Sparta (3:07)
03. The Way Of The Gods (2:12)
04. Colossus Of Rhodes (2:05)
05. The Bathhouse (2:04)
06. Death Of Kratos (4:03)
07. The End Begins (1:54)
08. Typhon Mountain (3:15)
09. Waking The Sleeping Giant (1:49)
10. Battle For The Skies (2:15)
11. Exploring The Isle (2:18)
12. The Isle Of Creation (3:19)
13. The Summit Of Sacrifice (2:32)
14. An Audience With Cronos (2:06)
15. The Barbarian King Returns (2:00)
16. Bog Of Lost Souls (2:20)
17. Battle In The Bog (2:01)
18. Crossing The Lowlands (2:03)
19. Atlas (3:35)
20. Palace Of The Fates (2:45)
21. Phoenix Rising (2:09)
22. Ashen Spire (1:01)
23. Athena (0:57)
24. The Battle For Olympus (3:09)
 
Exact Audio Copy V0.99 prebeta 5 from 4. May 2009

EAC extraction logfile from 18. March 2010, 10:44

Sony Team / God Of War II Soundtrack

Used drive : TSSTcorpCDDVDW SH-S203P Adapter: 2 ID: 0

Read mode : Secure
Utilize accurate stream : Yes
Defeat audio cache : Yes
Make use of C2 pointers : No

Read offset correction : 6
Overread into Lead-In and Lead-Out : No
Fill up missing offset samples with silence : Yes
Delete leading and trailing silent blocks : No
Null samples used in CRC calculations : Yes
Used interface : Native Win32 interface for Win NT & 2000
Gap handling : Appended to previous track

Used output format : User Defined Encoder
Selected bitrate : 768 kBit/s
Quality : High
Add ID3 tag : No
Command line compressor : C:\Program Files\Exact Audio Copy\FLAC\FLAC.EXE
Additional command line options : -6 -V -T "ARTIST=%a" -T "TITLE=%t" -T "ALBUM=%g" -T "DATE=%y" -T "TRACKNUMBER=%n" -T "GENRE=%m" -T "COMMENT=%e" %s -o %d

TOC of the extracted CD

Track | Start | Length | Start sector | End sector
---------------------------------------------------------
1 | 0:00.00 | 2:56.28 | 0 | 13227
2 | 2:56.28 | 3:07.20 | 13228 | 27272
3 | 6:03.48 | 2:11.41 | 27273 | 37138
4 | 8:15.14 | 2:05.34 | 37139 | 46547
5 | 10:20.48 | 2:03.62 | 46548 | 55834
6 | 12:24.35 | 4:03.09 | 55835 | 74068
7 | 16:27.44 | 1:54.19 | 74069 | 82637
8 | 18:21.63 | 3:15.14 | 82638 | 97276
9 | 21:37.02 | 1:49.15 | 97277 | 105466
10 | 23:26.17 | 2:14.49 | 105467 | 115565
11 | 25:40.66 | 2:17.38 | 115566 | 125878
12 | 27:58.29 | 3:19.08 | 125879 | 140811
13 | 31:17.37 | 2:31.43 | 140812 | 152179
14 | 33:49.05 | 2:05.67 | 152180 | 161621
15 | 35:54.72 | 2:00.16 | 161622 | 170637
16 | 37:55.13 | 2:20.03 | 170638 | 181140
17 | 40:15.16 | 2:00.56 | 181141 | 190196
18 | 42:15.72 | 2:02.39 | 190197 | 199385
19 | 44:18.36 | 3:34.73 | 199386 | 215508
20 | 47:53.34 | 2:44.44 | 215509 | 227852
21 | 50:38.03 | 2:08.51 | 227853 | 237503
22 | 52:46.54 | 1:00.52 | 237504 | 242055
23 | 53:47.31 | 0:56.59 | 242056 | 246314
24 | 54:44.15 | 3:09.18 | 246315 | 260507

Track 1

Filename C:\Documents and Settings\H2o\Bureau\Flac\Personnal Rip\Sony Team\2010. God Of War Trilogy Soundtrack\02. God Of War II Soundtrack\01. God Of War II Main Titles.wav

Pre-gap length 0:00:02.00

Peak level 98.8 %
Track quality 100.0 %
Test CRC DED3954D
Copy CRC DED3954D
Track not present in AccurateRip database
Copy OK

Track 2

Filename C:\Documents and Settings\H2o\Bureau\Flac\Personnal Rip\Sony Team\2010. God Of War Trilogy Soundtrack\02. God Of War II Soundtrack\02. The Glory Of Sparta.wav

Pre-gap length 0:00:00.49

Peak level 97.7 %
Track quality 99.9 %
Test CRC 65B5261A
Copy CRC 65B5261A
Track not present in AccurateRip database
Copy OK

Track 3

Filename C:\Documents and Settings\H2o\Bureau\Flac\Personnal Rip\Sony Team\2010. God Of War Trilogy Soundtrack\02. God Of War II Soundtrack\03. The Way Of The Gods.wav

Pre-gap length 0:00:00.49

Peak level 97.5 %
Track quality 100.0 %
Test CRC 7E3ED620
Copy CRC 7E3ED620
Track not present in AccurateRip database
Copy OK

Track 4

Filename C:\Documents and Settings\H2o\Bureau\Flac\Personnal Rip\Sony Team\2010. God Of War Trilogy Soundtrack\02. God Of War II Soundtrack\04. Colossus Of Rhodes.wav

Pre-gap length 0:00:00.49

Peak level 97.7 %
Track quality 100.0 %
Test CRC 028725C3
Copy CRC 028725C3
Track not present in AccurateRip database
Copy OK

Track 5

Filename C:\Documents and Settings\H2o\Bureau\Flac\Personnal Rip\Sony Team\2010. God Of War Trilogy Soundtrack\02. God Of War II Soundtrack\05. The Bathhouse.wav

Pre-gap length 0:00:00.49

Peak level 77.2 %
Track quality 100.0 %
Test CRC 7EB0EA03
Copy CRC 7EB0EA03
Track not present in AccurateRip database
Copy OK

Track 6

Filename C:\Documents and Settings\H2o\Bureau\Flac\Personnal Rip\Sony Team\2010. God Of War Trilogy Soundtrack\02. God Of War II Soundtrack\06. Death Of Kratos.wav

Pre-gap length 0:00:00.49

Peak level 97.7 %
Track quality 100.0 %
Test CRC D6B8940E
Copy CRC D6B8940E
Track not present in AccurateRip database
Copy OK

Track 7

Filename C:\Documents and Settings\H2o\Bureau\Flac\Personnal Rip\Sony Team\2010. God Of War Trilogy Soundtrack\02. God Of War II Soundtrack\07. The End Begins.wav

Pre-gap length 0:00:00.49

Peak level 97.5 %
Track quality 100.0 %
Test CRC 03E05F23
Copy CRC 03E05F23
Track not present in AccurateRip database
Copy OK

Track 8

Filename C:\Documents and Settings\H2o\Bureau\Flac\Personnal Rip\Sony Team\2010. God Of War Trilogy Soundtrack\02. God Of War II Soundtrack\08. Typhon Mountain.wav

Pre-gap length 0:00:00.49

Peak level 78.5 %
Track quality 100.0 %
Test CRC C5DD6456
Copy CRC C5DD6456
Track not present in AccurateRip database
Copy OK

Track 9

Filename C:\Documents and Settings\H2o\Bureau\Flac\Personnal Rip\Sony Team\2010. God Of War Trilogy Soundtrack\02. God Of War II Soundtrack\09. Waking The Sleeping Giant.wav

Pre-gap length 0:00:00.49

Peak level 97.7 %
Track quality 100.0 %
Test CRC 4C040453
Copy CRC 4C040453
Track not present in AccurateRip database
Copy OK

Track 10

Filename C:\Documents and Settings\H2o\Bureau\Flac\Personnal Rip\Sony Team\2010. God Of War Trilogy Soundtrack\02. God Of War II Soundtrack\10. Battle For The Skies.wav

Pre-gap length 0:00:00.49

Peak level 97.5 %
Track quality 100.0 %
Test CRC 1FDE2725
Copy CRC 1FDE2725
Track not present in AccurateRip database
Copy OK

Track 11

Filename C:\Documents and Settings\H2o\Bureau\Flac\Personnal Rip\Sony Team\2010. God Of War Trilogy Soundtrack\02. God Of War II Soundtrack\11. Exploring The Isle.wav

Pre-gap length 0:00:00.49

Peak level 98.1 %
Track quality 100.0 %
Test CRC 97EF6EA2
Copy CRC 97EF6EA2
Track not present in AccurateRip database
Copy OK

Track 12

Filename C:\Documents and Settings\H2o\Bureau\Flac\Personnal Rip\Sony Team\2010. God Of War Trilogy Soundtrack\02. God Of War II Soundtrack\12. The Isle Of Creation.wav

Pre-gap length 0:00:00.49

Peak level 98.1 %
Track quality 100.0 %
Test CRC 687828B3
Copy CRC 687828B3
Track not present in AccurateRip database
Copy OK

Track 13

Filename C:\Documents and Settings\H2o\Bureau\Flac\Personnal Rip\Sony Team\2010. God Of War Trilogy Soundtrack\02. God Of War II Soundtrack\13. The Summit Of Sacrifice.wav

Pre-gap length 0:00:00.49

Peak level 97.5 %
Track quality 100.0 %
Test CRC AD626FAD
Copy CRC AD626FAD
Track not present in AccurateRip database
Copy OK

Track 14

Filename C:\Documents and Settings\H2o\Bureau\Flac\Personnal Rip\Sony Team\2010. God Of War Trilogy Soundtrack\02. God Of War II Soundtrack\14. An Audience With Cronos.wav

Pre-gap length 0:00:00.48

Peak level 97.8 %
Track quality 100.0 %
Test CRC E96B4852
Copy CRC E96B4852
Track not present in AccurateRip database
Copy OK

Track 15

Filename C:\Documents and Settings\H2o\Bureau\Flac\Personnal Rip\Sony Team\2010. God Of War Trilogy Soundtrack\02. God Of War II Soundtrack\15. The Barbarian King Returns.wav

Pre-gap length 0:00:00.49

Peak level 98.3 %
Track quality 99.9 %
Test CRC FA0D1E1F
Copy CRC FA0D1E1F
Track not present in AccurateRip database
Copy OK

Track 16

Filename C:\Documents and Settings\H2o\Bureau\Flac\Personnal Rip\Sony Team\2010. God Of War Trilogy Soundtrack\02. God Of War II Soundtrack\16. Bog Of Lost Souls.wav

Pre-gap length 0:00:00.49

Peak level 97.9 %
Track quality 100.0 %
Test CRC B9B9257F
Copy CRC B9B9257F
Track not present in AccurateRip database
Copy OK

Track 17

Filename C:\Documents and Settings\H2o\Bureau\Flac\Personnal Rip\Sony Team\2010. God Of War Trilogy Soundtrack\02. God Of War II Soundtrack\17. Battle In The Bog.wav

Pre-gap length 0:00:00.49

Peak level 97.7 %
Track quality 100.0 %
Test CRC 98B59D8F
Copy CRC 98B59D8F
Track not present in AccurateRip database
Copy OK

Track 18

Filename C:\Documents and Settings\H2o\Bureau\Flac\Personnal Rip\Sony Team\2010. God Of War Trilogy Soundtrack\02. God Of War II Soundtrack\18. Crossing The Lowlands.wav

Pre-gap length 0:00:00.49

Peak level 97.3 %
Track quality 99.9 %
Test CRC 5A3DC149
Copy CRC 5A3DC149
Track not present in AccurateRip database
Copy OK

Track 19

Filename C:\Documents and Settings\H2o\Bureau\Flac\Personnal Rip\Sony Team\2010. God Of War Trilogy Soundtrack\02. God Of War II Soundtrack\19. Atlas.wav

Pre-gap length 0:00:00.49

Peak level 97.8 %
Track quality 100.0 %
Test CRC C95E1C7F
Copy CRC C95E1C7F
Track not present in AccurateRip database
Copy OK

Track 20

Filename C:\Documents and Settings\H2o\Bureau\Flac\Personnal Rip\Sony Team\2010. God Of War Trilogy Soundtrack\02. God Of War II Soundtrack\20. Palace Of The Fates.wav

Pre-gap length 0:00:00.49

Peak level 98.5 %
Track quality 100.0 %
Test CRC 476D7973
Copy CRC 476D7973
Track not present in AccurateRip database
Copy OK

Track 21

Filename C:\Documents and Settings\H2o\Bureau\Flac\Personnal Rip\Sony Team\2010. God Of War Trilogy Soundtrack\02. God Of War II Soundtrack\21. Phoenix Rising.wav

Pre-gap length 0:00:00.49

Peak level 97.1 %
Track quality 100.0 %
Test CRC CA8B81A6
Copy CRC CA8B81A6
Track not present in AccurateRip database
Copy OK

Track 22

Filename C:\Documents and Settings\H2o\Bureau\Flac\Personnal Rip\Sony Team\2010. God Of War Trilogy Soundtrack\02. God Of War II Soundtrack\22. Ashen Spire.wav

Pre-gap length 0:00:00.49

Peak level 97.7 %
Track quality 100.0 %
Test CRC CB5A502B
Copy CRC CB5A502B
Track not present in AccurateRip database
Copy OK

Track 23

Filename C:\Documents and Settings\H2o\Bureau\Flac\Personnal Rip\Sony Team\2010. God Of War Trilogy Soundtrack\02. God Of War II Soundtrack\23. Athena.wav

Pre-gap length 0:00:00.49

Peak level 97.5 %
Track quality 99.8 %
Test CRC BA4048E1
Copy CRC BA4048E1
Track not present in AccurateRip database
Copy OK

Track 24

Filename C:\Documents and Settings\H2o\Bureau\Flac\Personnal Rip\Sony Team\2010. God Of War Trilogy Soundtrack\02. God Of War II Soundtrack\24. The Battle For Olympus.wav

Pre-gap length 0:00:00.49

Peak level 97.6 %
Track quality 100.0 %
Test CRC 332BFBC5
Copy CRC 332BFBC5
Track not present in AccurateRip database
Copy OK

None of the tracks are present in the AccurateRip database

No errors occurred

End of status report
Композиторы: Gerard Marino, Ron Fish, Cris Velasco, Mike Reagan and Jeff Rona
Год выпуска диска: 2010
Страна-производитель диска: США
Продолжительность: 00:59:10



01. God Of War III Overture (3:37)
02. Call To Arms (2:41)
03. Poseidon's Wrath (2:33)
04. Revenge Falling (3:11)
05. Anthem Of The Dead (1:18)
06. Depths Of Hades (2:55)
07. The Forge Of Hephaestus (2:19)
08. Labour Of Destruction (1:37)
09. The Three Judges (1:41)
10. The Lost Souls (2:39)
11. Duel With Hades (1:45)
12. Tides Of Chaos (4:25)
13. Stalker (1:56)
14. The Muse's Song (2:07)
15. Brothers Of Blood (2:45)
16. Lure Of A Goddess (2:08)
17. The March Of Tartarus (2:01)
18. The Great Machine (3:02)
19. Pandora's Song (2:27)
20. Revenge Rising (1:35)
21. All For Nothing (2:23)
22. Rage Of Sparta (1:42)
23. In The Face Of Fear (2:01)
24. End Of Vengeance (4:19)
 
Exact Audio Copy V0.99 prebeta 5 from 4. May 2009

EAC extraction logfile from 18. March 2010, 11:13

Sony Team / God Of War III Soundtrack

Used drive : TSSTcorpCDDVDW SH-S203P Adapter: 2 ID: 0

Read mode : Secure
Utilize accurate stream : Yes
Defeat audio cache : Yes
Make use of C2 pointers : No

Read offset correction : 6
Overread into Lead-In and Lead-Out : No
Fill up missing offset samples with silence : Yes
Delete leading and trailing silent blocks : No
Null samples used in CRC calculations : Yes
Used interface : Native Win32 interface for Win NT & 2000
Gap handling : Appended to previous track

Used output format : User Defined Encoder
Selected bitrate : 768 kBit/s
Quality : High
Add ID3 tag : No
Command line compressor : C:\Program Files\Exact Audio Copy\FLAC\FLAC.EXE
Additional command line options : -6 -V -T "ARTIST=%a" -T "TITLE=%t" -T "ALBUM=%g" -T "DATE=%y" -T "TRACKNUMBER=%n" -T "GENRE=%m" -T "COMMENT=%e" %s -o %d

TOC of the extracted CD

Track | Start | Length | Start sector | End sector
---------------------------------------------------------
1 | 0:00.00 | 3:36.49 | 0 | 16248
2 | 3:36.49 | 2:41.37 | 16249 | 28360
3 | 6:18.11 | 2:33.36 | 28361 | 39871
4 | 8:51.47 | 3:11.03 | 39872 | 54199
5 | 12:02.50 | 1:18.13 | 54200 | 60062
6 | 13:20.63 | 2:54.62 | 60063 | 73174
7 | 16:15.50 | 2:19.24 | 73175 | 83623
8 | 18:34.74 | 1:37.10 | 83624 | 90908
9 | 20:12.09 | 1:40.54 | 90909 | 98462
10 | 21:52.63 | 2:38.66 | 98463 | 110378
11 | 24:31.54 | 1:45.03 | 110379 | 118256
12 | 26:16.57 | 4:24.70 | 118257 | 138126
13 | 30:41.52 | 1:55.56 | 138127 | 146807
14 | 32:37.33 | 2:07.20 | 146808 | 156352
15 | 34:44.53 | 2:45.12 | 156353 | 168739
16 | 37:29.65 | 2:08.26 | 168740 | 178365
17 | 39:38.16 | 2:00.57 | 178366 | 187422
18 | 41:38.73 | 3:02.22 | 187423 | 201094
19 | 44:41.20 | 2:27.20 | 201095 | 212139
20 | 47:08.40 | 1:35.02 | 212140 | 219266
21 | 48:43.42 | 2:23.26 | 219267 | 230017
22 | 51:06.68 | 1:41.57 | 230018 | 237649
23 | 52:48.50 | 2:01.15 | 237650 | 246739
24 | 54:49.65 | 4:19.37 | 246740 | 266201

Track 1

Filename C:\Documents and Settings\H2o\Bureau\Flac\Personnal Rip\Sony Team\2010. God Of War Trilogy Soundtrack\03. God Of War III Soundtrack\01. God Of War III Overture.wav

Pre-gap length 0:00:02.00

Peak level 98.8 %
Track quality 100.0 %
Test CRC 74F01AB6
Copy CRC 74F01AB6
Track not present in AccurateRip database
Copy OK

Track 2

Filename C:\Documents and Settings\H2o\Bureau\Flac\Personnal Rip\Sony Team\2010. God Of War Trilogy Soundtrack\03. God Of War III Soundtrack\02. Call To Arms.wav

Pre-gap length 0:00:00.49

Peak level 98.8 %
Track quality 100.0 %
Test CRC 23454F0A
Copy CRC 23454F0A
Track not present in AccurateRip database
Copy OK

Track 3

Filename C:\Documents and Settings\H2o\Bureau\Flac\Personnal Rip\Sony Team\2010. God Of War Trilogy Soundtrack\03. God Of War III Soundtrack\03. Poseidon's Wrath.wav

Pre-gap length 0:00:00.49

Peak level 98.8 %
Track quality 100.0 %
Test CRC 53D94D37
Copy CRC 53D94D37
Track not present in AccurateRip database
Copy OK

Track 4

Filename C:\Documents and Settings\H2o\Bureau\Flac\Personnal Rip\Sony Team\2010. God Of War Trilogy Soundtrack\03. God Of War III Soundtrack\04. Revenge Falling.wav

Pre-gap length 0:00:01.00

Peak level 98.8 %
Track quality 100.0 %
Test CRC 0A6D9A85
Copy CRC 0A6D9A85
Track not present in AccurateRip database
Copy OK

Track 5

Filename C:\Documents and Settings\H2o\Bureau\Flac\Personnal Rip\Sony Team\2010. God Of War Trilogy Soundtrack\03. God Of War III Soundtrack\05. Anthem Of The Dead.wav

Pre-gap length 0:00:00.49

Peak level 98.8 %
Track quality 100.0 %
Test CRC 4174D22B
Copy CRC 4174D22B
Track not present in AccurateRip database
Copy OK

Track 6

Filename C:\Documents and Settings\H2o\Bureau\Flac\Personnal Rip\Sony Team\2010. God Of War Trilogy Soundtrack\03. God Of War III Soundtrack\06. Depths Of Hades.wav

Pre-gap length 0:00:01.00

Peak level 98.8 %
Track quality 100.0 %
Test CRC 4493ABE2
Copy CRC 4493ABE2
Track not present in AccurateRip database
Copy OK

Track 7

Filename C:\Documents and Settings\H2o\Bureau\Flac\Personnal Rip\Sony Team\2010. God Of War Trilogy Soundtrack\03. God Of War III Soundtrack\07. The Forge Of Hephaestus.wav

Pre-gap length 0:00:00.49

Peak level 98.8 %
Track quality 100.0 %
Test CRC A844C7DB
Copy CRC A844C7DB
Track not present in AccurateRip database
Copy OK

Track 8

Filename C:\Documents and Settings\H2o\Bureau\Flac\Personnal Rip\Sony Team\2010. God Of War Trilogy Soundtrack\03. God Of War III Soundtrack\08. Labour Of Destruction.wav

Pre-gap length 0:00:00.49

Peak level 98.8 %
Track quality 100.0 %
Test CRC EF86F45D
Copy CRC EF86F45D
Track not present in AccurateRip database
Copy OK

Track 9

Filename C:\Documents and Settings\H2o\Bureau\Flac\Personnal Rip\Sony Team\2010. God Of War Trilogy Soundtrack\03. God Of War III Soundtrack\09. The Three Judges.wav

Pre-gap length 0:00:00.49

Peak level 98.8 %
Track quality 100.0 %
Test CRC A7DAA24B
Copy CRC A7DAA24B
Track not present in AccurateRip database
Copy OK

Track 10

Filename C:\Documents and Settings\H2o\Bureau\Flac\Personnal Rip\Sony Team\2010. God Of War Trilogy Soundtrack\03. God Of War III Soundtrack\10. The Lost Souls.wav

Pre-gap length 0:00:00.49

Peak level 74.9 %
Track quality 100.0 %
Test CRC 7A48C4B3
Copy CRC 7A48C4B3
Track not present in AccurateRip database
Copy OK

Track 11

Filename C:\Documents and Settings\H2o\Bureau\Flac\Personnal Rip\Sony Team\2010. God Of War Trilogy Soundtrack\03. God Of War III Soundtrack\11. Duel With Hades.wav

Pre-gap length 0:00:00.49

Peak level 98.8 %
Track quality 100.0 %
Test CRC F4843074
Copy CRC F4843074
Track not present in AccurateRip database
Copy OK

Track 12

Filename C:\Documents and Settings\H2o\Bureau\Flac\Personnal Rip\Sony Team\2010. God Of War Trilogy Soundtrack\03. God Of War III Soundtrack\12. Tides Of Chaos.wav

Pre-gap length 0:00:01.00

Peak level 98.8 %
Track quality 100.0 %
Test CRC AE314028
Copy CRC AE314028
Track not present in AccurateRip database
Copy OK

Track 13

Filename C:\Documents and Settings\H2o\Bureau\Flac\Personnal Rip\Sony Team\2010. God Of War Trilogy Soundtrack\03. God Of War III Soundtrack\13. Stalker.wav

Pre-gap length 0:00:00.49

Peak level 98.8 %
Track quality 100.0 %
Test CRC E3E2A5BE
Copy CRC E3E2A5BE
Track not present in AccurateRip database
Copy OK

Track 14

Filename C:\Documents and Settings\H2o\Bureau\Flac\Personnal Rip\Sony Team\2010. God Of War Trilogy Soundtrack\03. God Of War III Soundtrack\14. The Muse's Song.wav

Pre-gap length 0:00:00.49

Peak level 98.8 %
Track quality 100.0 %
Test CRC 1F4666E5
Copy CRC 1F4666E5
Track not present in AccurateRip database
Copy OK

Track 15

Filename C:\Documents and Settings\H2o\Bureau\Flac\Personnal Rip\Sony Team\2010. God Of War Trilogy Soundtrack\03. God Of War III Soundtrack\15. Brothers Of Blood.wav

Pre-gap length 0:00:00.49

Peak level 98.8 %
Track quality 100.0 %
Test CRC C283BA36
Copy CRC C283BA36
Track not present in AccurateRip database
Copy OK

Track 16

Filename C:\Documents and Settings\H2o\Bureau\Flac\Personnal Rip\Sony Team\2010. God Of War Trilogy Soundtrack\03. God Of War III Soundtrack\16. Lure Of A Goddess.wav

Pre-gap length 0:00:00.49

Peak level 98.8 %
Track quality 100.0 %
Test CRC 685EAFE6
Copy CRC 685EAFE6
Track not present in AccurateRip database
Copy OK

Track 17

Filename C:\Documents and Settings\H2o\Bureau\Flac\Personnal Rip\Sony Team\2010. God Of War Trilogy Soundtrack\03. God Of War III Soundtrack\17. The March Of Tartarus.wav

Pre-gap length 0:00:00.49

Peak level 98.8 %
Track quality 100.0 %
Test CRC 2CC6ACA9
Copy CRC 2CC6ACA9
Track not present in AccurateRip database
Copy OK

Track 18

Filename C:\Documents and Settings\H2o\Bureau\Flac\Personnal Rip\Sony Team\2010. God Of War Trilogy Soundtrack\03. God Of War III Soundtrack\18. The Great Machine.wav

Pre-gap length 0:00:00.49

Peak level 98.8 %
Track quality 99.9 %
Test CRC 6D91055E
Copy CRC 6D91055E
Track not present in AccurateRip database
Copy OK

Track 19

Filename C:\Documents and Settings\H2o\Bureau\Flac\Personnal Rip\Sony Team\2010. God Of War Trilogy Soundtrack\03. God Of War III Soundtrack\19. Pandora's Song.wav

Pre-gap length 0:00:01.00

Peak level 98.8 %
Track quality 100.0 %
Test CRC B5E44088
Copy CRC B5E44088
Track not present in AccurateRip database
Copy OK

Track 20

Filename C:\Documents and Settings\H2o\Bureau\Flac\Personnal Rip\Sony Team\2010. God Of War Trilogy Soundtrack\03. God Of War III Soundtrack\20. Revenge Rising.wav

Pre-gap length 0:00:01.00

Peak level 98.8 %
Track quality 100.0 %
Test CRC 9BD0CEBC
Copy CRC 9BD0CEBC
Track not present in AccurateRip database
Copy OK

Track 21

Filename C:\Documents and Settings\H2o\Bureau\Flac\Personnal Rip\Sony Team\2010. God Of War Trilogy Soundtrack\03. God Of War III Soundtrack\21. All For Nothing.wav

Pre-gap length 0:00:00.49

Peak level 98.8 %
Track quality 100.0 %
Test CRC 5B17643B
Copy CRC 5B17643B
Track not present in AccurateRip database
Copy OK

Track 22

Filename C:\Documents and Settings\H2o\Bureau\Flac\Personnal Rip\Sony Team\2010. God Of War Trilogy Soundtrack\03. God Of War III Soundtrack\22. Rage Of Sparta.wav

Pre-gap length 0:00:00.49

Peak level 98.8 %
Track quality 100.0 %
Test CRC BAC7DFE9
Copy CRC BAC7DFE9
Track not present in AccurateRip database
Copy OK

Track 23

Filename C:\Documents and Settings\H2o\Bureau\Flac\Personnal Rip\Sony Team\2010. God Of War Trilogy Soundtrack\03. God Of War III Soundtrack\23. In The Face Of Fear.wav

Pre-gap length 0:00:00.49

Peak level 98.8 %
Track quality 99.9 %
Test CRC 9F80EDD1
Copy CRC 9F80EDD1
Track not present in AccurateRip database
Copy OK

Track 24

Filename C:\Documents and Settings\H2o\Bureau\Flac\Personnal Rip\Sony Team\2010. God Of War Trilogy Soundtrack\03. God Of War III Soundtrack\24. End Of Vengeance.wav

Pre-gap length 0:00:00.49

Peak level 98.8 %
Track quality 100.0 %
Test CRC E46E5B6E
Copy CRC E46E5B6E
Track not present in AccurateRip database
Copy OK

None of the tracks are present in the AccurateRip database

No errors occurred

End of status report
Композитор: Tyler Bates
Год выпуска диска: 2013
Страна-производитель диска: США
Продолжительность: 01:05:55



01. Primordial Rage 2:28
02. Bound by Blood 1:42
03. Ghosts of Kirra 1:53
04. Warrior's Truth 2:31
05. Temptation of the Flesh 1:27
06. Awakening of the Hecatonchires 2:13
07. Aletheia's Last Vision 2:46
08. Temple Carnage 2:12
09. Ascension 2:03
10. Visions of Ruin 3:13
11. Temple of Delphi 2:35
12. A Touch of Insanity 2:04
13. The False Prophet 2:02
14. Shadow Revealed 3:40
15. Blood on the Canyon Walls 1:58
16. Streets of Sparta 2:15
17. Tribute to Apollo 1:28
18. The Son's Betrayal 1:32
19. Prison of the Damned 3:19
20. Martyr's Chamber 2:33
21. A Warning Too Late 2:09
22. Trial of Archimedes 2:06
23. Python's Path 4:29
24. The Final Offer 2:56
25. Madness of the Fury Queen 2:33
26. The Marked One 2:07
27. Oath Keeper's Gift 3:21
 
Exact Audio Copy V1.0 beta 2 from 29. April 2011

EAC extraction logfile from 19. April 2013, 21:22

Tyler Bates / God of War: Ascension Original Soundtrack

Used drive : TSSTcorpCDDVDW SH-S222A Adapter: 4 ID: 0

Read mode : Secure
Utilize accurate stream : Yes
Defeat audio cache : Yes
Make use of C2 pointers : No

Read offset correction : 6
Overread into Lead-In and Lead-Out : No
Fill up missing offset samples with silence : Yes
Delete leading and trailing silent blocks : No
Null samples used in CRC calculations : Yes
Used interface : Native Win32 interface for Win NT & 2000
Gap handling : Appended to previous track

Used output format : User Defined Encoder
Selected bitrate : 128 kBit/s
Quality : High
Add ID3 tag : No
Command line compressor : C:\Program Files (x86)\Exact Audio Copy\Flac\flac.exe
Additional command line options : -V -8 -T "Genre=%genre%" -T "Artist=%artist%" -T "Title=%title%" -T "Album=%albumtitle%" -T "Date=%year%" -T "Tracknumber=%tracknr%" -T "Comment=%comment%" %source%

TOC of the extracted CD

Track | Start | Length | Start sector | End sector
---------------------------------------------------------
1 | 0:00.00 | 2:28.55 | 0 | 11154
2 | 2:28.55 | 1:42.68 | 11155 | 18872
3 | 4:11.48 | 1:54.04 | 18873 | 27426
4 | 6:05.52 | 2:31.18 | 27427 | 38769
5 | 8:36.70 | 1:28.01 | 38770 | 45370
6 | 10:04.71 | 2:13.66 | 45371 | 55411
7 | 12:18.62 | 2:46.53 | 55412 | 67914
8 | 15:05.40 | 2:12.56 | 67915 | 77870
9 | 17:18.21 | 2:03.55 | 77871 | 87150
10 | 19:22.01 | 3:13.50 | 87151 | 101675
11 | 22:35.51 | 2:35.65 | 101676 | 113365
12 | 25:11.41 | 2:04.68 | 113366 | 122733
13 | 27:16.34 | 2:03.00 | 122734 | 131958
14 | 29:19.34 | 3:40.27 | 131959 | 148485
15 | 32:59.61 | 1:59.12 | 148486 | 157422
16 | 34:58.73 | 2:15.46 | 157423 | 167593
17 | 37:14.44 | 1:29.01 | 167594 | 174269
18 | 38:43.45 | 1:32.60 | 174270 | 181229
19 | 40:16.30 | 3:19.42 | 181230 | 196196
20 | 43:35.72 | 2:33.24 | 196197 | 207695
21 | 46:09.21 | 2:09.20 | 207696 | 217390
22 | 48:18.41 | 2:06.40 | 217391 | 226880
23 | 50:25.06 | 4:29.35 | 226881 | 247090
24 | 54:54.41 | 2:57.12 | 247091 | 260377
25 | 57:51.53 | 2:33.32 | 260378 | 271884
26 | 60:25.10 | 2:07.26 | 271885 | 281435
27 | 62:32.36 | 3:21.57 | 281436 | 296567

Track 1

Filename C:\Spybionic\God of War Ascension Original Soundtrack - 2013 - Tyler Bates\01. Primordial Rage.wav

Pre-gap length 0:00:02.00

Peak level 94.4 %
Extraction speed 1.4 X
Track quality 99.9 %
Test CRC C7E7860E
Copy CRC C7E7860E
Accurately ripped (confidence 1) [804CDF92] (AR v2)
Copy OK

Track 2

Filename C:\Spybionic\God of War Ascension Original Soundtrack - 2013 - Tyler Bates\02. Bound by Blood.wav

Peak level 94.4 %
Extraction speed 1.3 X
Track quality 99.8 %
Test CRC 43F1FA25
Copy CRC 43F1FA25
Accurately ripped (confidence 1) [6EC1474D] (AR v2)
Copy OK

Track 3

Filename C:\Spybionic\God of War Ascension Original Soundtrack - 2013 - Tyler Bates\03. Ghosts of Kirra.wav

Pre-gap length 0:00:00.01

Peak level 94.4 %
Extraction speed 1.7 X
Track quality 100.0 %
Test CRC 8BD97D2C
Copy CRC 8BD97D2C
Accurately ripped (confidence 1) [C8C97DD2] (AR v2)
Copy OK

Track 4

Filename C:\Spybionic\God of War Ascension Original Soundtrack - 2013 - Tyler Bates\04. Warrior's Truth.wav

Pre-gap length 0:00:00.01

Peak level 94.4 %
Extraction speed 2.0 X
Track quality 100.0 %
Test CRC 94A000ED
Copy CRC 94A000ED
Accurately ripped (confidence 1) [89768BDA] (AR v2)
Copy OK

Track 5

Filename C:\Spybionic\God of War Ascension Original Soundtrack - 2013 - Tyler Bates\05. Temptation of the Flesh.wav

Pre-gap length 0:00:00.01

Peak level 94.4 %
Extraction speed 1.8 X
Track quality 100.0 %
Test CRC 2AFBAADE
Copy CRC 2AFBAADE
Accurately ripped (confidence 1) [63E32578] (AR v2)
Copy OK

Track 6

Filename C:\Spybionic\God of War Ascension Original Soundtrack - 2013 - Tyler Bates\06. Awakening of the Hecatonchires.wav

Pre-gap length 0:00:00.01

Peak level 94.4 %
Extraction speed 2.1 X
Track quality 100.0 %
Test CRC C2535A2F
Copy CRC C2535A2F
Accurately ripped (confidence 1) [B44525C4] (AR v2)
Copy OK

Track 7

Filename C:\Spybionic\God of War Ascension Original Soundtrack - 2013 - Tyler Bates\07. Aletheia's Last Vision.wav

Pre-gap length 0:00:00.01

Peak level 94.4 %
Extraction speed 2.3 X
Track quality 100.0 %
Test CRC E1402BEE
Copy CRC E1402BEE
Accurately ripped (confidence 1) [587EC8BA] (AR v2)
Copy OK

Track 8

Filename C:\Spybionic\God of War Ascension Original Soundtrack - 2013 - Tyler Bates\08. Temple Carnage.wav

Pre-gap length 0:00:00.01

Peak level 94.4 %
Extraction speed 2.3 X
Track quality 100.0 %
Test CRC 74348531
Copy CRC 74348531
Accurately ripped (confidence 1) [140B9EAB] (AR v2)
Copy OK

Track 9

Filename C:\Spybionic\God of War Ascension Original Soundtrack - 2013 - Tyler Bates\09. Ascension.wav

Pre-gap length 0:00:00.01

Peak level 94.4 %
Extraction speed 2.3 X
Track quality 100.0 %
Test CRC 70BD8DE5
Copy CRC 70BD8DE5
Accurately ripped (confidence 1) [1187F0EB] (AR v2)
Copy OK

Track 10

Filename C:\Spybionic\God of War Ascension Original Soundtrack - 2013 - Tyler Bates\10. Visions of Ruin.wav

Pre-gap length 0:00:00.01

Peak level 94.4 %
Extraction speed 2.6 X
Track quality 100.0 %
Test CRC 4D9E1147
Copy CRC 4D9E1147
Accurately ripped (confidence 1) [6F38359E] (AR v2)
Copy OK

Track 11

Filename C:\Spybionic\God of War Ascension Original Soundtrack - 2013 - Tyler Bates\11. Temple of Delphi.wav

Pre-gap length 0:00:00.01

Peak level 94.4 %
Extraction speed 2.6 X
Track quality 100.0 %
Test CRC 79D80E2C
Copy CRC 79D80E2C
Accurately ripped (confidence 1) [C0624850] (AR v2)
Copy OK

Track 12

Filename C:\Spybionic\God of War Ascension Original Soundtrack - 2013 - Tyler Bates\12. A Touch of Insanity.wav

Pre-gap length 0:00:00.01

Peak level 94.4 %
Extraction speed 2.6 X
Track quality 100.0 %
Test CRC B0CB43BF
Copy CRC B0CB43BF
Accurately ripped (confidence 1) [C648885A] (AR v2)
Copy OK

Track 13

Filename C:\Spybionic\God of War Ascension Original Soundtrack - 2013 - Tyler Bates\13. The False Prophet.wav

Pre-gap length 0:00:00.01

Peak level 94.4 %
Extraction speed 2.6 X
Track quality 100.0 %
Test CRC 24642E87
Copy CRC 24642E87
Accurately ripped (confidence 1) [4D63130D] (AR v2)
Copy OK

Track 14

Filename C:\Spybionic\God of War Ascension Original Soundtrack - 2013 - Tyler Bates\14. Shadow Revealed.wav

Pre-gap length 0:00:00.01

Peak level 94.4 %
Extraction speed 3.0 X
Track quality 100.0 %
Test CRC F63349CD
Copy CRC F63349CD
Accurately ripped (confidence 1) [F46470D4] (AR v2)
Copy OK

Track 15

Filename C:\Spybionic\God of War Ascension Original Soundtrack - 2013 - Tyler Bates\15. Blood on the Canyon Walls.wav

Pre-gap length 0:00:00.01

Peak level 94.4 %
Extraction speed 2.2 X
Track quality 99.9 %
Test CRC 72F55E0A
Copy CRC 72F55E0A
Accurately ripped (confidence 1) [F6D11878] (AR v2)
Copy OK

Track 16

Filename C:\Spybionic\God of War Ascension Original Soundtrack - 2013 - Tyler Bates\16. Streets of Sparta.wav

Pre-gap length 0:00:00.01

Peak level 94.4 %
Extraction speed 2.9 X
Track quality 100.0 %
Test CRC FA19A39A
Copy CRC FA19A39A
Accurately ripped (confidence 1) [C70BD685] (AR v2)
Copy OK

Track 17

Filename C:\Spybionic\God of War Ascension Original Soundtrack - 2013 - Tyler Bates\17. Tribute to Apollo.wav

Pre-gap length 0:00:00.01

Peak level 94.4 %
Extraction speed 2.6 X
Track quality 100.0 %
Test CRC D0BBD3A8
Copy CRC D0BBD3A8
Accurately ripped (confidence 1) [BD19B3F4] (AR v2)
Copy OK

Track 18

Filename C:\Spybionic\God of War Ascension Original Soundtrack - 2013 - Tyler Bates\18. The Son's Betrayal.wav

Pre-gap length 0:00:00.01

Peak level 94.5 %
Extraction speed 2.7 X
Track quality 100.0 %
Test CRC 413795BE
Copy CRC 413795BE
Accurately ripped (confidence 1) [0C6D475B] (AR v2)
Copy OK

Track 19

Filename C:\Spybionic\God of War Ascension Original Soundtrack - 2013 - Tyler Bates\19. Prison of the Damned.wav

Pre-gap length 0:00:00.01

Peak level 94.4 %
Extraction speed 2.8 X
Track quality 99.9 %
Test CRC DD17DBB4
Copy CRC DD17DBB4
Accurately ripped (confidence 1) [F889C749] (AR v2)
Copy OK

Track 20

Filename C:\Spybionic\God of War Ascension Original Soundtrack - 2013 - Tyler Bates\20. Martyr's Chamber.wav

Pre-gap length 0:00:00.01

Peak level 94.4 %
Extraction speed 3.2 X
Track quality 100.0 %
Test CRC 38ECFE66
Copy CRC 38ECFE66
Accurately ripped (confidence 1) [04E0D7AA] (AR v2)
Copy OK

Track 21

Filename C:\Spybionic\God of War Ascension Original Soundtrack - 2013 - Tyler Bates\21. A Warning Too Late.wav

Pre-gap length 0:00:00.01

Peak level 94.4 %
Extraction speed 3.1 X
Track quality 100.0 %
Test CRC 94A84F84
Copy CRC 94A84F84
Accurately ripped (confidence 1) [0F917182] (AR v2)
Copy OK

Track 22

Filename C:\Spybionic\God of War Ascension Original Soundtrack - 2013 - Tyler Bates\22. Trial of Archimedes.wav

Pre-gap length 0:00:00.01

Peak level 94.4 %
Extraction speed 3.2 X
Track quality 100.0 %
Test CRC A33C7672
Copy CRC A33C7672
Accurately ripped (confidence 1) [244EDA99] (AR v2)
Copy OK

Track 23

Filename C:\Spybionic\God of War Ascension Original Soundtrack - 2013 - Tyler Bates\23. Python's Path.wav

Pre-gap length 0:00:00.01

Peak level 94.4 %
Extraction speed 3.7 X
Track quality 100.0 %
Test CRC 2B0D4786
Copy CRC 2B0D4786
Accurately ripped (confidence 1) [FACAE5BA] (AR v2)
Copy OK

Track 24

Filename C:\Spybionic\God of War Ascension Original Soundtrack - 2013 - Tyler Bates\24. The Final Offer.wav

Pre-gap length 0:00:00.01

Peak level 94.4 %
Extraction speed 3.6 X
Track quality 100.0 %
Test CRC 106E4CA7
Copy CRC 106E4CA7
Accurately ripped (confidence 1) [E0977D0C] (AR v2)
Copy OK

Track 25

Filename C:\Spybionic\God of War Ascension Original Soundtrack - 2013 - Tyler Bates\25. Madness of the Fury Queen.wav

Pre-gap length 0:00:00.01

Peak level 94.4 %
Extraction speed 3.5 X
Track quality 100.0 %
Test CRC 9315B0E7
Copy CRC 9315B0E7
Accurately ripped (confidence 1) [3D06FE5F] (AR v2)
Copy OK

Track 26

Filename C:\Spybionic\God of War Ascension Original Soundtrack - 2013 - Tyler Bates\26. The Marked One.wav

Pre-gap length 0:00:00.01

Peak level 94.5 %
Extraction speed 3.4 X
Track quality 100.0 %
Test CRC 88EBC690
Copy CRC 88EBC690
Accurately ripped (confidence 1) [9ACDB57B] (AR v2)
Copy OK

Track 27

Filename C:\Spybionic\God of War Ascension Original Soundtrack - 2013 - Tyler Bates\27. Oath Keeper's Gift.wav

Pre-gap length 0:00:00.01

Peak level 94.4 %
Extraction speed 3.8 X
Track quality 100.0 %
Test CRC 67D08271
Copy CRC 67D08271
Accurately ripped (confidence 1) [9AE58F90] (AR v2)
Copy OK

All tracks accurately ripped

No errors occurred

End of status report

==== Log checksum 502994FBBC5B8116AE5770E065AF2353852F65A34E6B56A1829F3368C6C349E6 ====

info [Профиль]  [ЛС] 
Показать сообщения:    
Ответить на тему

Текущее время: 11-Дек 19:28

Часовой пояс: GMT + 4



Вы не можете начинать темы
Вы не можете отвечать на сообщения
Вы не можете редактировать свои сообщения
Вы не можете удалять свои сообщения
Вы не можете голосовать в опросах
Вы не можете прикреплять файлы к сообщениям
Вы не можете скачивать файлы